<?xml version="1.0" standalone="no"?>
<!DOCTYPE svg PUBLIC "-//W3C//DTD SVG 1.1//EN" "http://www.w3.org/Graphics/SVG/1.1/DTD/svg11.dtd" >
<svg xmlns="http://www.w3.org/2000/svg">
<metadata></metadata>
<defs>
<font id="aileronbold_italic" horiz-adv-x="1280" >
<font-face units-per-em="2048" ascent="1577" descent="-471" />
<missing-glyph horiz-adv-x="325" />
<glyph unicode="&#xfb01;" horiz-adv-x="1189" d="M47 0l156 895h-94l30 186h97l4 19q11 67 26 123q42 155 175.5 238t355.5 83q73 0 155 -14l-34 -197q-117 16 -195 3.5t-119.5 -45t-58.5 -89.5q-13 -38 -21 -96l-4 -25h635l-190 -1081h-281l156 895h-353l-157 -895h-283z" />
<glyph unicode="&#xfb02;" horiz-adv-x="1234" d="M45 0l158 895h-97l33 186h97l4 19q8 48 24 123q43 158 181 239.5t397 81.5q219 0 383 -45h10l-203 -1143q-14 -86 -14 -108q0 -41 26 -57t86 -13l-32 -182q-61 -10 -164 -10q-108 0 -160.5 34.5t-52.5 116.5q0 59 29 213l174 981q-59 15 -131 15q-103 0 -166 -38 t-84 -106q-12 -42 -19 -96l-4 -25h221l-32 -186h-222l-159 -895h-283z" />
<glyph horiz-adv-x="0" />
<glyph horiz-adv-x="682" />
<glyph unicode=" "  horiz-adv-x="325" />
<glyph unicode="&#x09;" horiz-adv-x="325" />
<glyph unicode="&#xa0;" horiz-adv-x="325" />
<glyph unicode="!" horiz-adv-x="589" d="M57 104q0 76 51.5 131.5t135.5 55.5q65 0 103 -36t38 -97q0 -75 -51 -131t-135 -56q-66 0 -104 35.5t-38 97.5zM154 403l182 1010h276l-231 -1010h-227z" />
<glyph unicode="&#x22;" horiz-adv-x="727" d="M88 942l94 563h242l-137 -563h-199zM432 942l94 563h240l-137 -563h-197z" />
<glyph unicode="#" d="M127 428l29 160h209l92 237h-201l29 160h235l166 428h170l-166 -428h180l166 428h170l-166 -428h174l-28 -160h-209l-92 -237h200l-28 -160h-236l-166 -428h-170l166 428h-180l-166 -428h-170l166 428h-174zM535 588h180l92 237h-180z" />
<glyph unicode="$" d="M47 397h277q12 -167 155 -211l74 418q-182 66 -270 157t-88 245q0 83 33.5 157.5t95.5 134t159 97.5t217 45l29 157h166l-29 -163q168 -29 261.5 -140.5t99.5 -275.5h-277q0 69 -33 121.5t-90 79.5l-69 -402q200 -80 290.5 -176.5t90.5 -251.5q0 -187 -146.5 -298.5 t-386.5 -119.5l-26 -155h-166l28 164q-195 28 -288 136t-107 281zM469 1028q0 -60 32.5 -99t96.5 -67l68 375q-94 -13 -145.5 -69.5t-51.5 -139.5zM643 174q213 22 213 195q0 65 -34.5 108t-110.5 76z" />
<glyph unicode="%" horiz-adv-x="1585" d="M117 0l1163 1413h246l-1161 -1413h-248zM158 1049q0 103 39.5 190.5t124.5 145t202 57.5q128 0 205.5 -75.5t77.5 -205.5q0 -76 -23.5 -145.5t-68 -125.5t-116 -89t-159.5 -33q-129 0 -205.5 75.5t-76.5 205.5zM358 1047q0 -63 25.5 -96t73.5 -33q65 0 107 70t42 175 q0 129 -100 129q-65 0 -106.5 -70t-41.5 -175zM838 252q0 76 23 145.5t67 125.5t115.5 89t160.5 33q128 0 204.5 -75t76.5 -205q0 -76 -23.5 -145.5t-68 -125.5t-116 -89.5t-159.5 -33.5q-128 0 -204 75.5t-76 205.5zM1036 250q0 -129 101 -129q65 0 107 70.5t42 175.5 q0 63 -26 96t-74 33q-65 0 -107.5 -70.5t-42.5 -175.5z" />
<glyph unicode="&#x26;" horiz-adv-x="1380" d="M31 299q0 169 111.5 281.5t295.5 142.5q-98 30 -154.5 102.5t-56.5 175.5q0 202 164.5 321.5t439.5 119.5q123 0 222 -21l-37 -211q-108 21 -217 21q-133 0 -203 -61.5t-70 -180.5q0 -149 172 -160q37 -2 119 -2h76l33 191h282l-34 -191h192l-39 -221h-192l-103 -586 q-242 -49 -491 -49q-510 0 -510 328zM340 352q0 -92 61 -131t185 -39q102 0 194 17l74 407h-94q-74 0 -115 -4q-152 -10 -228.5 -75t-76.5 -175z" />
<glyph unicode="'" horiz-adv-x="385" d="M88 942l94 563h242l-137 -563h-199z" />
<glyph unicode="(" horiz-adv-x="743" d="M233 446q0 188 46.5 383.5t155 401.5t267.5 366h154q-227 -274 -334.5 -570t-107.5 -576q0 -353 131 -615h-154q-158 239 -158 610z" />
<glyph unicode=")" horiz-adv-x="743" d="M-51 -164q228 273 336 570t108 577q0 354 -133 614h154q159 -240 159 -610q0 -189 -46.5 -383.5t-155.5 -401t-269 -366.5h-153z" />
<glyph unicode="*" horiz-adv-x="1120" d="M156 584l90 180l260 -117l33 326h188l-82 -326l301 117l25 -180l-307 -70l170 -254l-172 -110l-123 276l-228 -276l-131 110l258 254z" />
<glyph unicode="+" d="M182 571l29 152h362l72 412h166l-72 -412h365l-27 -152h-364l-72 -407h-166l72 407h-365z" />
<glyph unicode="," horiz-adv-x="534" d="M-195 -250l258 537h275l-2 -23l-299 -514h-232z" />
<glyph unicode="-" horiz-adv-x="606" d="M51 500l29 159h475l-29 -159h-475z" />
<glyph unicode="." horiz-adv-x="534" d="M-12 106q0 93 57.5 151t147.5 58q63 0 103 -37t40 -100q0 -93 -57.5 -150t-147.5 -57q-63 0 -103 36.5t-40 98.5z" />
<glyph unicode="/" horiz-adv-x="669" d="M-133 -61l784 1536h176l-784 -1536h-176z" />
<glyph unicode="0" d="M76 512q0 103 14 205.5t44 209t82 197.5t121.5 163t170.5 113.5t221 41.5q252 0 380 -146t128 -395q0 -85 -9.5 -171.5t-32.5 -179t-57.5 -175.5t-87 -157.5t-118 -129t-155 -86t-193.5 -31.5q-253 0 -380.5 146.5t-127.5 394.5zM379 492q0 -147 51.5 -228.5t155.5 -81.5 q78 0 141 56.5t100.5 140t62.5 188.5t34.5 193.5t9.5 163.5q0 146 -52 226.5t-155 80.5q-78 0 -141 -55.5t-100.5 -138.5t-62.5 -187.5t-34.5 -193t-9.5 -164.5z" />
<glyph unicode="1" d="M285 889l47 266l360 195q123 63 240 63h139l-250 -1413h-280l196 1116z" />
<glyph unicode="2" d="M20 0l25 133l557 465q195 163 269.5 261.5t74.5 207.5q0 79 -43 122.5t-127 43.5q-105 0 -170.5 -62.5t-99.5 -195.5l-6 -21h-283l6 21q62 236 214 352.5t403 116.5q200 0 306.5 -91.5t106.5 -246.5q0 -140 -96.5 -275t-357.5 -352l-307 -256h598l-39 -223h-1031z" />
<glyph unicode="3" d="M68 414l2 20h282l-2 -20q-5 -108 56.5 -170t177.5 -62q119 0 198.5 70t79.5 184q0 176 -244 182h-47l35 197l45 2q130 5 211.5 75.5t81.5 180.5q0 71 -45.5 114.5t-124.5 43.5q-100 0 -168 -60t-92 -163l-4 -21h-283l4 21q49 198 200.5 316t410.5 118q198 0 303.5 -88 t105.5 -228q0 -143 -84 -242t-239 -136q239 -63 239 -279q0 -147 -82 -261t-225 -175.5t-323 -61.5q-241 0 -363.5 113t-105.5 330z" />
<glyph unicode="4" d="M37 334l26 151l842 928h299l-164 -856h172l-36 -223h-177l-59 -334h-281l60 334h-682zM391 557h369l104 530q-71 -92 -119 -143z" />
<glyph unicode="5" d="M88 387v21h283v-21q-6 -205 188 -205q139 0 223 94.5t84 239.5q0 102 -52 161.5t-150 59.5q-84 0 -145.5 -37.5t-112.5 -121.5h-265l254 835h875l-39 -221h-647l-125 -395l88 96q104 55 229 55q190 0 292.5 -103.5t102.5 -283.5q0 -112 -34 -208t-93.5 -165.5 t-139.5 -119t-173.5 -73.5t-193.5 -24q-225 0 -345.5 104.5t-103.5 311.5z" />
<glyph unicode="6" d="M98 457q0 226 59.5 414t161.5 311.5t237 191.5t286 68q209 0 315 -106t94 -292l-2 -20h-286v20q-6 95 -49 141t-128 46q-131 0 -228 -126t-142 -374l104 137q116 82 268 82q192 0 292 -105t100 -274q0 -135 -53.5 -250t-142 -190.5t-201 -117.5t-232.5 -42 q-217 0 -335 125t-118 361zM383 406q0 -101 52 -162.5t145 -61.5q125 0 208.5 97t83.5 239q0 100 -50.5 160.5t-149.5 60.5q-115 0 -202 -91.5t-87 -241.5z" />
<glyph unicode="7" d="M98 0l858 1192h-739l41 221h1081l-26 -149l-901 -1264h-314z" />
<glyph unicode="8" d="M63 322q0 84 29 157t78.5 125t109.5 88t128 56q-74 31 -118 93.5t-44 153.5q0 197 155.5 322t413.5 125q203 0 314.5 -90t111.5 -242q0 -73 -24 -135t-67 -105.5t-93.5 -73t-110.5 -48.5q96 -34 155.5 -110.5t59.5 -184.5q0 -99 -33.5 -180t-92 -136.5t-138.5 -94 t-171 -56t-191 -17.5q-220 0 -346 86.5t-126 266.5zM367 365q0 -85 54.5 -135t156.5 -50q141 0 212.5 73.5t71.5 190.5q0 86 -52 137.5t-155 51.5q-132 0 -210 -76t-78 -192zM537 1001q0 -75 42.5 -117t122.5 -42q109 0 176.5 64t67.5 167q0 71 -45 114.5t-127 43.5 q-106 0 -171.5 -65t-65.5 -165z" />
<glyph unicode="9" d="M72 369l2 20h288v-20q6 -95 49 -141t126 -46q131 0 228 125.5t142 372.5l-102 -135q-118 -82 -268 -82q-192 0 -292 105t-100 274q0 135 53.5 250t141.5 190.5t201 117.5t233 42q217 0 334 -125t117 -361q0 -181 -38.5 -339t-107.5 -275t-161.5 -201.5t-203.5 -127 t-231 -42.5q-209 0 -315.5 106t-95.5 292zM453 895q0 -100 49.5 -160.5t148.5 -60.5q117 0 203 92t86 244q0 99 -52 160t-145 61q-125 0 -207.5 -97t-82.5 -239z" />
<glyph unicode=":" horiz-adv-x="534" d="M2 106q0 93 57.5 151t147.5 58q63 0 103 -37t40 -100q0 -93 -57.5 -150t-147.5 -57q-62 0 -102.5 36.5t-40.5 98.5zM143 911q0 93 57.5 150t147.5 57q63 0 103.5 -36t40.5 -99q0 -93 -57.5 -150t-147.5 -57q-62 0 -103 36t-41 99z" />
<glyph unicode=";" horiz-adv-x="534" d="M-193 -250l256 537h275l-6 -35l-295 -502h-230zM143 911q0 93 57.5 150t147.5 57q63 0 103.5 -36t40.5 -99q0 -93 -57.5 -150t-147.5 -57q-62 0 -103 36t-41 99z" />
<glyph unicode="&#x3c;" d="M195 434l38 217l967 385l-35 -200l-774 -295l672 -297l-35 -193z" />
<glyph unicode="=" d="M125 367l27 151h938l-27 -151h-938zM197 776l26 152h938l-24 -152h-940z" />
<glyph unicode="&#x3e;" d="M59 51l35 199l774 295l-671 297l34 194l834 -385l-37 -217z" />
<glyph unicode="?" horiz-adv-x="1263" d="M238 989q36 211 192.5 332t384.5 121q196 0 305 -86t109 -234q0 -132 -64 -230.5t-229 -229.5q-94 -75 -136.5 -128.5t-66.5 -130.5h-244q21 103 64 171t143 163q136 127 183 198t47 148q0 71 -42.5 109.5t-119.5 38.5q-92 0 -155 -60.5t-87 -181.5h-284zM406 104 q0 76 51 131.5t135 55.5q65 0 103 -36t38 -97q0 -75 -51 -131t-135 -56q-66 0 -103.5 35.5t-37.5 97.5z" />
<glyph unicode="@" horiz-adv-x="1832" d="M88 506q0 158 48 299.5t133 249.5t197.5 187t246.5 120t276 41q169 0 308 -55.5t231 -151.5t142 -223t50 -271q0 -117 -25 -211.5t-67.5 -158t-101 -106.5t-124 -62t-138.5 -19q-104 0 -172 45.5t-91 135.5l-55 -111q-86 -70 -192 -70q-55 0 -102.5 17t-89 54.5 t-65.5 105.5t-24 161q0 141 52 258t147 186.5t213 69.5q119 0 168 -59l26 -107l39 130h246l-94 -394q-25 -102 -25 -153q0 -107 80 -107q91 0 154 100t63 281q0 262 -154 407.5t-407 145.5q-107 0 -209.5 -29.5t-194 -90.5t-161 -146t-110 -203.5t-40.5 -255.5 q0 -283 161 -442.5t439 -159.5t484 147l63 -139q-131 -87 -278.5 -128.5t-286.5 -41.5q-113 0 -219.5 26.5t-205.5 86t-173 145.5t-118 214t-44 282zM743 504q0 -160 103 -160q56 0 96.5 47.5t56.5 118.5l27 117q19 87 -5.5 129.5t-82.5 42.5q-86 0 -140.5 -86t-54.5 -209z " />
<glyph unicode="A" horiz-adv-x="1392" d="M-63 0l749 1413h375l244 -1413h-306l-63 426h-481l-213 -426h-305zM567 649h336l-78 514z" />
<glyph unicode="B" horiz-adv-x="1353" d="M72 0l250 1413h505q113 0 181 -8q145 -18 223 -97t78 -200q0 -264 -283 -350q225 -70 225 -312q0 -100 -42 -181t-112 -132.5t-148.5 -82t-164.5 -42.5q-74 -8 -198 -8h-514zM393 223h242q67 0 94 2q91 6 157 69t66 165q0 72 -41.5 110.5t-111.5 46.5q-61 7 -101 7h-235z M502 834h213q49 0 102 6q187 29 187 209q0 61 -35.5 95t-98.5 42q-46 6 -100 6h-205z" />
<glyph unicode="C" horiz-adv-x="1525" d="M123 555q0 194 64 360.5t173 281.5t258 180t316 65q278 0 420 -136q127 -122 127 -309q0 -21 -2 -43l-2 -20h-283v20q-1 142 -74.5 209.5t-216.5 67.5q-207 0 -342 -180.5t-135 -470.5q0 -201 81.5 -299.5t221.5 -98.5q262 0 373 287l8 20h281l-7 -20q-65 -236 -244 -367 t-448 -131q-266 0 -417.5 154t-151.5 430z" />
<glyph unicode="D" horiz-adv-x="1490" d="M72 0l250 1413h446q118 0 188 -8q108 -11 197.5 -52.5t158.5 -113t107.5 -181.5t38.5 -249q0 -149 -46.5 -284.5t-136 -245.5t-233 -183t-323.5 -90q-74 -6 -182 -6h-465zM393 223h166q99 0 146 4q92 11 167 47.5t127 90.5t87.5 124t52 148t16.5 164q0 180 -77.5 274.5 t-211.5 110.5q-67 6 -141 6h-160z" />
<glyph unicode="E" horiz-adv-x="1253" d="M72 0l250 1413h997l-39 -221h-715l-65 -373h665l-39 -223h-667l-66 -373h737l-40 -223h-1018z" />
<glyph unicode="F" horiz-adv-x="1210" d="M72 0l250 1413h997l-39 -221h-715l-65 -373h645l-39 -223h-647l-105 -596h-282z" />
<glyph unicode="G" horiz-adv-x="1574" d="M121 547q0 200 69 370.5t185 284t269.5 177t322.5 63.5q140 0 245.5 -36.5t168 -103t90.5 -154.5q22 -68 22 -148q0 -22 -2 -46l-2 -20h-283v20q-1 145 -70 211t-210 66q-102 0 -193 -46.5t-159 -130t-108 -206t-40 -266.5q0 -193 83 -296.5t224 -103.5q137 0 242 84.5 t151 233.5h-299l41 221h570l-127 -721h-228l21 227l-88 -141q-136 -115 -365 -115q-249 0 -389.5 154.5t-140.5 421.5z" />
<glyph unicode="H" horiz-adv-x="1529" d="M72 0l250 1413h282l-108 -608h659l109 608h282l-250 -1413h-282l102 580h-659l-103 -580h-282z" />
<glyph unicode="I" horiz-adv-x="587" d="M72 0l250 1413h282l-250 -1413h-282z" />
<glyph unicode="J" horiz-adv-x="1200" d="M41 442l10 72h283l-8 -72q-5 -36 -5 -68q0 -85 35 -130q46 -62 150 -62q189 0 246 219q11 40 30 150l152 862h280l-145 -833q-17 -103 -41 -195q-93 -414 -567 -414q-228 0 -339 127q-88 98 -88 253q0 44 7 91z" />
<glyph unicode="K" horiz-adv-x="1384" d="M72 0l250 1413h282l-117 -655l723 655h338l-782 -692l510 -721h-348l-377 578l-113 -105l-84 -473h-282z" />
<glyph unicode="L" horiz-adv-x="1226" d="M72 0l250 1413h282l-209 -1177h738l-43 -236h-1018z" />
<glyph unicode="M" horiz-adv-x="1828" d="M72 0l250 1413h460l107 -1116l487 1116h469l-250 -1413h-282l205 1137l-517 -1137h-335l-113 1141l-199 -1141h-282z" />
<glyph unicode="N" horiz-adv-x="1546" d="M72 0l250 1413h374l394 -1100l190 1100h283l-250 -1413h-387l-385 1073l-187 -1073h-282z" />
<glyph unicode="O" horiz-adv-x="1599" d="M127 584q0 181 57 338t160 272.5t256.5 181.5t337.5 66q149 0 269 -47.5t198 -131t120 -194.5t42 -240q0 -181 -57 -338t-160 -272.5t-256.5 -181.5t-337.5 -66q-149 0 -269 47.5t-198 131t-120 194.5t-42 240zM428 590q0 -185 92 -296.5t258 -111.5q96 0 178 39 t138 103.5t95.5 148t58 172.5t18.5 178q0 185 -93 296.5t-258 111.5q-119 0 -215 -59t-153.5 -154t-88 -205.5t-30.5 -222.5z" />
<glyph unicode="P" horiz-adv-x="1288" d="M72 0l250 1413h479q115 0 203 -10q143 -16 233 -107.5t90 -244.5q0 -111 -39 -204.5t-104.5 -155.5t-148 -100t-173.5 -48q-99 -11 -207 -11h-206l-95 -532h-282zM487 756h205q72 0 125 6q95 14 153 78.5t58 177.5q0 74 -36 115.5t-99 50.5q-46 6 -125 6h-205z" />
<glyph unicode="Q" horiz-adv-x="1595" d="M125 573q0 181 56 339.5t158.5 276t255.5 185.5t337 68q152 0 271 -45.5t194.5 -126.5t115 -189.5t39.5 -238.5q0 -202 -75 -373.5t-209 -265.5q96 -31 202 -123l-151 -182q-105 66 -162 89t-119 23q-70 0 -151 -20q-74 -19 -142 -19q-152 0 -271 45.5t-195 127 t-115 190.5t-39 239zM426 578q0 -182 88 -289t246 -107q99 0 182.5 40t139.5 106t95 152t56.5 176t17.5 180q0 182 -87.5 288.5t-245.5 106.5q-99 0 -182 -40t-139 -106t-95.5 -151.5t-57.5 -175.5t-18 -180z" />
<glyph unicode="R" horiz-adv-x="1320" d="M72 0l250 1413h516q117 0 204 -10q141 -16 226.5 -92t85.5 -215q0 -165 -96.5 -271t-262.5 -147q90 -30 125 -125t35 -301q0 -169 41 -252h-305q-17 94 -19 346q0 210 -143 221q-37 2 -108 2h-166l-101 -569h-282zM492 780h196q82 0 117 2q105 10 172 70.5t67 175.5 q0 141 -155 158q-50 6 -117 6h-207z" />
<glyph unicode="S" horiz-adv-x="1226" d="M33 418h286q3 -114 72.5 -175t181.5 -61q114 0 189.5 58t75.5 155q0 73 -58.5 123.5t-187.5 83.5q-197 49 -298 132.5t-101 228.5q0 147 80 258t207.5 166t279.5 55q123 0 215.5 -34t146.5 -94q56 -61 80 -141q20 -66 20 -144q0 -16 -1 -32h-287q1 11 1 21q1 94 -49 150 q-54 62 -163 63q-100 0 -162.5 -53.5t-62.5 -147.5q0 -72 61 -118t203 -81q195 -47 289 -141t94 -241q0 -111 -48.5 -202.5t-132 -151t-193 -92t-232.5 -32.5q-247 0 -385 115q-123 102 -123 283q0 24 2 49z" />
<glyph unicode="T" horiz-adv-x="1275" d="M160 1192l41 221h1241l-41 -221h-477l-211 -1192h-283l211 1192h-481z" />
<glyph unicode="U" horiz-adv-x="1439" d="M150 377q0 79 26 239l141 797h283l-151 -860q-17 -96 -17 -145q0 -107 69.5 -166.5t190.5 -59.5q138 0 219 60.5t117 201.5q12 46 23 103l151 866h283l-144 -815q-18 -105 -36 -176q-52 -218 -203.5 -334.5t-433.5 -116.5q-256 0 -387 108.5t-131 297.5z" />
<glyph unicode="V" horiz-adv-x="1437" d="M219 1413h307l164 -1196l592 1196h307l-751 -1413h-375z" />
<glyph unicode="W" horiz-adv-x="2023" d="M207 1413h297l49 -1165l436 1145h404l26 -1157l453 1177h311l-620 -1413h-375l-43 1137l-449 -1137h-377z" />
<glyph unicode="X" horiz-adv-x="1370" d="M-98 0l641 721l-357 692h318l239 -512l422 512h328l-625 -702l400 -711h-328l-276 530l-426 -530h-336z" />
<glyph unicode="Y" horiz-adv-x="1304" d="M199 1413h299l231 -625l430 625h318l-652 -872l-96 -541h-283l99 551z" />
<glyph unicode="Z" horiz-adv-x="1273" d="M6 0l37 215l934 977h-705l41 221h1051l-39 -219l-926 -971h766l-41 -223h-1118z" />
<glyph unicode="[" horiz-adv-x="745" d="M63 -164l312 1761h456l-28 -159h-291l-254 -1442h291l-29 -160h-457z" />
<glyph unicode="\" horiz-adv-x="669" d="M137 1475h176l244 -1536h-176z" />
<glyph unicode="]" horiz-adv-x="745" d="M-51 -164l28 160h291l256 1442h-293l29 159h459l-311 -1761h-459z" />
<glyph unicode="^" d="M137 440l494 822h194l211 -822h-186l-148 662l-374 -662h-191z" />
<glyph unicode="_" horiz-adv-x="1024" d="M88 -178l29 160h819l-29 -160h-819z" />
<glyph unicode="`" horiz-adv-x="614" d="M23 1417h253l117 -241h-160z" />
<glyph unicode="a" horiz-adv-x="1130" d="M25 258q-1 208 199 317q169 92 438 92q49 0 102 -3l2 16q12 74 12 117q0 55 -33 89t-104 34q-182 0 -227 -185l-275 -2q35 181 179 283t348 102q205 0 301 -77.5t96 -211.5q0 -52 -27 -204l-61 -349q-22 -126 -29 -276h-276l6 160l-72 -109q-105 -80 -276 -80 q-131 0 -217 74t-86 213zM322 295q0 -61 38.5 -93t104.5 -32q82 0 157 64.5t93 166.5l16 93q-49 5 -93 5q-60 0 -114 -10q-92 -18 -147 -68t-55 -126z" />
<glyph unicode="b" horiz-adv-x="1331" d="M35 0l266 1505h283l-103 -581l103 118q109 76 284 76q200 0 309 -116t109 -320q0 -108 -25 -210.5t-77.5 -193.5t-127.5 -159t-182 -108t-233 -40q-69 0 -139 20t-105 50l-53 115l-27 -156h-282zM401 405q0 -49 15.5 -91.5t41.5 -74.5t71 -50.5t104 -18.5 q105 0 186.5 68.5t123.5 175.5t42 231q0 132 -57.5 203.5t-163.5 71.5q-61 0 -114 -20t-100 -62t-82 -113.5t-52 -167.5l-10 -51l-5 -21l7 21q-7 -52 -7 -101z" />
<glyph unicode="c" horiz-adv-x="1171" d="M47 422q0 141 45.5 266.5t128 220t206.5 150t271 55.5q222 0 333.5 -114t111.5 -308h-279q-6 223 -196 223q-142 0 -231 -141t-89 -352q0 -123 53 -187.5t138 -64.5q95 0 164.5 52.5t105.5 154.5h283q-151 -406 -580 -406q-211 0 -338 114t-127 337z" />
<glyph unicode="d" horiz-adv-x="1329" d="M45 408q0 108 25 210.5t77.5 193.5t127.5 159t182 107.5t233 39.5q70 0 140 -19t106 -50l51 -115l100 571h283l-266 -1505h-283l29 166l-102 -119q-110 -76 -283 -76q-201 0 -310.5 116.5t-109.5 320.5zM346 444q0 -132 58 -203t165 -71q61 0 114 20t99.5 61.5t81 113 t51.5 167.5l11 54q7 52 7 100t-16 91t-42.5 74.5t-71 50t-103.5 18.5q-106 0 -188 -68.5t-124 -176t-42 -231.5z" />
<glyph unicode="e" horiz-adv-x="1187" d="M47 414q0 113 27 217.5t81.5 192.5t130 154t178 103t220.5 37q148 0 253.5 -57.5t155.5 -153.5t50 -219q0 -102 -35 -217h-770l-2 -55q0 -126 54 -186t147 -60q92 0 161.5 48.5t98.5 135.5h282q-65 -187 -215.5 -285t-353.5 -98q-100 0 -182.5 26.5t-146 79.5t-99 139 t-35.5 198zM369 655h485q2 18 2 47q0 102 -52.5 160t-148.5 58q-105 0 -176.5 -71.5t-109.5 -193.5z" />
<glyph unicode="f" horiz-adv-x="645" d="M47 0l158 895h-96l30 186h99l8 45q18 89 28 125q39 145 133.5 219t233.5 74q119 0 201 -14l-37 -197q-36 8 -72 8q-144 0 -182 -112q-20 -76 -23 -94l-10 -54h223l-32 -186h-222l-157 -895h-283z" />
<glyph unicode="g" horiz-adv-x="1329" d="M-10 -70l2 21h276l-2 -19v-12q0 -67 54 -108q60 -43 169 -43q131 0 218.5 66.5t117.5 195.5q2 12 12 59t15 74l2 12l-106 -123q-110 -76 -283 -76q-200 0 -310 117.5t-110 313.5q0 108 25 210.5t77.5 193.5t127.5 159t182 107.5t233 39.5q70 0 140 -19t106 -50l51 -117 l29 158h280l-143 -818q-13 -71 -41 -211q-53 -256 -215 -379.5t-451 -123.5q-228 0 -348 97q-109 88 -109 241q0 17 1 34zM346 444q0 -131 57.5 -199.5t165.5 -68.5q128 0 220.5 85t125.5 271l-2 -18l15 82l-2 -10q7 52 7 100t-16 91t-42.5 74.5t-71 50t-103.5 18.5 q-106 0 -188 -68.5t-124 -176t-42 -231.5z" />
<glyph unicode="h" horiz-adv-x="1271" d="M35 0l266 1516h283l-105 -592l107 118q122 76 276 76q162 0 247 -75.5t85 -202.5q0 -70 -27 -217l-110 -623h-283l103 571q22 126 22 179q0 170 -176 170q-113 -2 -197.5 -105.5t-122.5 -320.5l-86 -494h-282z" />
<glyph unicode="i" horiz-adv-x="542" d="M35 0l194 1090h281l-193 -1090h-282zM264 1323q0 70 47.5 121t128.5 51q62 0 98.5 -34.5t36.5 -92.5q0 -70 -47.5 -121t-128.5 -51q-63 0 -99 34t-36 93z" />
<glyph unicode="j" horiz-adv-x="491" d="M-262 -424l37 201q24 -3 46 -3q54 0 88 17q47 23 66 84q10 30 25 105l195 1110h282l-194 -1115q-17 -85 -29 -131q-35 -135 -132.5 -204.5t-279.5 -69.5q-54 0 -104 6zM221 1319q0 84 46 130t128 46q67 0 105.5 -34.5t38.5 -90.5q0 -83 -46 -128.5t-128 -45.5 q-67 0 -105.5 33.5t-38.5 89.5z" />
<glyph unicode="k" horiz-adv-x="1198" d="M35 0l266 1505h283l-160 -907l524 492h340l-571 -510l405 -580h-342l-284 440l-119 -104l-60 -336h-282z" />
<glyph unicode="l" horiz-adv-x="573" d="M59 137q0 59 29 213l205 1155h282l-204 -1149q-15 -92 -15 -108q0 -46 26 -60q19 -11 58 -11q13 0 29 1l-33 -182q-61 -10 -164 -10q-108 0 -160.5 34.5t-52.5 116.5z" />
<glyph unicode="m" horiz-adv-x="1875" d="M35 0l192 1090h281l-27 -156l101 121q105 63 245 63q124 0 198.5 -54t94.5 -144l113 127q98 71 256 71q155 0 234 -74.5t79 -191.5q0 -68 -24 -203l-115 -649h-283l101 567q22 139 22 197q0 75 -37.5 115.5t-109.5 40.5q-88 0 -162.5 -98t-103.5 -257l-3 -6l-98 -559 h-280l98 567q24 137 24 197q0 75 -39 115.5t-114 40.5q-89 0 -161 -98t-101 -263l-99 -559h-282z" />
<glyph unicode="n" horiz-adv-x="1271" d="M35 0l192 1090h281l-29 -166l107 118q122 76 276 76q162 0 247 -75.5t85 -202.5q0 -70 -27 -217l-110 -623h-283l103 571q22 126 22 179q0 170 -176 170q-113 -2 -197.5 -105.5t-122.5 -320.5l-86 -494h-282z" />
<glyph unicode="o" horiz-adv-x="1261" d="M51 455q0 100 25 194.5t78 180t129 149.5t185 101.5t239 37.5q126 0 224 -37t158 -103.5t90.5 -153t30.5 -189.5q0 -126 -40.5 -242t-118.5 -211.5t-206 -153t-288 -57.5q-126 0 -224.5 37.5t-159 103.5t-91.5 153t-31 190zM352 461q0 -130 58 -210.5t172 -80.5 q104 0 180.5 69t112.5 171t36 219q0 130 -58 210.5t-171 80.5q-79 0 -143.5 -40t-104 -105.5t-61 -146.5t-21.5 -167z" />
<glyph unicode="p" horiz-adv-x="1331" d="M-37 -401l266 1491h281l-29 -166l103 118q109 76 284 76q200 0 309 -116t109 -320q0 -108 -25 -210.5t-77.5 -193.5t-127.5 -159t-182 -108t-233 -40q-69 0 -139 20t-105 50l-53 115l-98 -557h-283zM401 405q0 -49 15.5 -91.5t41.5 -74.5t71 -50.5t104 -18.5 q105 0 186.5 68.5t123.5 175.5t42 231q0 132 -57.5 203.5t-163.5 71.5q-61 0 -114 -20t-100 -62t-82 -113.5t-52 -167.5l-8 -51q-7 -52 -7 -101z" />
<glyph unicode="q" horiz-adv-x="1329" d="M45 408q0 108 25 210.5t77.5 193.5t127.5 159t182 107.5t233 39.5q70 0 140 -19t106 -50l51 -117l29 158h280l-264 -1491h-282l100 565l-102 -117q-110 -76 -283 -76q-201 0 -310.5 116.5t-109.5 320.5zM346 444q0 -132 58 -203t165 -71q61 0 114 20t99.5 61.5t81 113 t51.5 167.5l11 54q7 52 7 100t-16 91t-42.5 74.5t-71 50t-103.5 18.5q-106 0 -188 -68.5t-124 -176t-42 -231.5z" />
<glyph unicode="r" horiz-adv-x="765" d="M35 0l190 1085h283l-35 -198l117 155q43 35 96.5 54.5t101.5 19.5q45 0 78 -8l-41 -227q-26 2 -50 2q-47 -1 -87 -9q-62 -14 -119.5 -53.5t-99.5 -120.5t-63 -200l-89 -500h-282z" />
<glyph unicode="s" horiz-adv-x="995" d="M-23 319h283q9 -90 61 -132t134 -42q72 0 117.5 36.5t45.5 99.5q0 59 -49.5 98.5t-179.5 83.5q-71 23 -119.5 47t-90 60t-61.5 86t-20 116q0 146 119 244t334 98q206 0 308 -93t108 -251h-281q-16 158 -145 158q-71 0 -108.5 -34t-37.5 -87q0 -61 45.5 -96.5t163.5 -73.5 q163 -52 237 -128.5t74 -201.5q0 -159 -129.5 -253.5t-345.5 -94.5q-220 0 -337.5 97.5t-125.5 262.5z" />
<glyph unicode="t" horiz-adv-x="724" d="M78 895l33 186h155l47 269h281l-47 -269h215l-33 -186h-215l-90 -504q-14 -85 -14 -119q0 -62 46 -82q27 -11 73 -12q33 0 75 6l-33 -186q-95 -21 -200 -21q-134 0 -196 45.5t-62 141.5q0 66 24 194l96 537h-155z" />
<glyph unicode="u" horiz-adv-x="1263" d="M72 252q0 84 24 217l113 621h283l-105 -572q-20 -114 -20 -178q0 -168 168 -168h6q113 2 197.5 104.5t123.5 319.5l86 494h281l-191 -1090h-282l30 168l-108 -121q-122 -76 -277 -76q-161 0 -245 76t-84 205z" />
<glyph unicode="v" horiz-adv-x="1114" d="M68 1090h315l117 -861l420 861h313l-612 -1090h-326z" />
<glyph unicode="w" horiz-adv-x="1650" d="M68 1090h313l45 -838l322 833h342l38 -837l338 842h306l-539 -1090h-322l-37 831l-331 -831h-322z" />
<glyph unicode="x" horiz-adv-x="1087" d="M-115 0l484 545l-275 545h330l145 -357l287 357h326l-492 -547l301 -543h-329l-168 352l-283 -352h-326z" />
<glyph unicode="y" horiz-adv-x="1114" d="M-45 -420l33 193q43 -6 86 -6q71 0 123.5 35t95.5 118l12 25l-237 1145h315l117 -863l420 863h313l-612 -1090q-138 -245 -255 -337.5t-288 -92.5q-58 0 -123 10z" />
<glyph unicode="z" horiz-adv-x="1048" d="M-41 0l31 178l715 715h-541l31 188h876l-33 -186l-708 -707h598l-33 -188h-936z" />
<glyph unicode="{" horiz-adv-x="763" d="M170 637l29 160q65 5 102 19t62.5 51.5t34.5 100t8 167.5q-1 186 29 283.5t100.5 138t205.5 40.5h68l-29 -159h-37q-41 0 -67 -6t-48.5 -22.5t-34 -48t-17.5 -81.5t-5 -125q3 -201 -46 -307t-183 -131q145 -27 145 -158q0 -103 -69 -280q-41 -107 -52.5 -145t-11.5 -68 q0 -38 32 -54t103 -16h35l-26 -160h-68q-122 0 -184 51.5t-62 147.5q0 48 13 93t61 171q57 148 57 233q0 95 -145 105z" />
<glyph unicode="|" horiz-adv-x="606" d="M27 -410l360 2048h184l-360 -2048h-184z" />
<glyph unicode="}" horiz-adv-x="763" d="M-16 -164l28 160h37q52 0 81.5 9.5t52 39t30.5 85.5t6 149q-1 99 9 170t35.5 129t72 92t115.5 47q-146 27 -146 157q0 102 70 281q40 105 51.5 143.5t11.5 69.5q0 39 -31.5 54.5t-103.5 15.5h-35l27 159h67q122 0 184 -51t62 -147q0 -48 -13 -94.5t-60 -169.5 q-60 -149 -60 -234q0 -94 148 -104l-29 -160q-65 -5 -102 -19t-62.5 -51.5t-34.5 -100t-8 -167.5q1 -140 -14 -227t-55.5 -141t-103 -74.5t-163.5 -20.5h-67z" />
<glyph unicode="~" d="M131 457q58 329 307 329q60 0 106 -18.5t128 -65.5q64 -39 102 -55t74 -16q52 0 80.5 36.5t42.5 118.5h159q-58 -329 -307 -329q-58 0 -104 18t-129 66q-70 40 -106 55.5t-70 15.5q-53 0 -81 -38t-42 -117h-160z" />
<glyph unicode="&#xa1;" horiz-adv-x="555" d="M-57 -324l231 1012h227l-182 -1012h-276zM170 932q0 76 51 131t135 55q66 0 104 -35.5t38 -97.5q0 -74 -51.5 -129t-135.5 -55q-66 0 -103.5 35.5t-37.5 95.5z" />
<glyph unicode="&#xa2;" d="M76 422q0 131 39.5 250t112.5 211.5t182 152.5t241 74l29 160h166l-29 -162q177 -23 267 -133.5t90 -282.5h-279q-3 167 -115 209l-127 -719q126 39 185 195h282q-70 -185 -194 -285t-310 -117l-28 -159h-166l29 161q-173 23 -274 135t-101 310zM375 422q0 -182 112 -236 l127 715q-110 -40 -174.5 -170.5t-64.5 -308.5z" />
<glyph unicode="&#xa3;" horiz-adv-x="1245" d="M-18 0l34 197q62 12 110.5 38.5t78.5 59t49.5 72.5t27 78t7.5 77t-13 96h-165l24 150h98q-28 107 -28 207q0 94 35 178t100 148.5t167 102.5t226 38q414 0 441 -418h-287q-10 207 -176 207q-94 0 -151.5 -69.5t-57.5 -172.5q0 -62 9.5 -108.5t31.5 -112.5h418l-27 -150 h-363q4 -40 4 -59q0 -108 -55.5 -196.5t-173.5 -139.5h727l-39 -223h-1052z" />
<glyph unicode="&#xa4;" d="M172 307l135 117q-37 70 -37 162q0 131 88 248l-86 108l115 98l90 -104q92 52 203 49q116 -3 201 -72l139 115l82 -98l-137 -119q36 -71 36 -164q0 -135 -92 -250l88 -108l-110 -94l-90 106q-92 -53 -209 -53q-116 0 -201 69l-131 -108zM440 596q0 -86 45.5 -137 t122.5 -51q103 0 162 69.5t59 159.5q0 86 -46.5 137t-123.5 51q-102 0 -160.5 -69.5t-58.5 -159.5z" />
<glyph unicode="&#xa5;" d="M106 315l29 160h318l20 123h-317l28 160h234l-246 655h305l178 -643l404 643h297l-479 -655h227l-29 -160h-315l-4 -6l-21 -117h318l-27 -160h-319l-56 -315h-282l55 315h-318z" />
<glyph unicode="&#xa6;" horiz-adv-x="587" d="M41 -328l123 697h166l-123 -697h-166zM225 717l123 696h166l-123 -696h-166z" />
<glyph unicode="&#xa7;" horiz-adv-x="1261" d="M39 6h280q7 -84 58 -130t123 -46q84 0 134 38t50 118q0 74 -59.5 124t-216.5 107q-166 58 -250 140t-84 214q0 107 63 200.5t185 146.5q-37 67 -37 159q0 51 18 102.5t56 98.5t91 83.5t128.5 58.5t162.5 22q187 0 290.5 -94.5t121.5 -260.5h-283q-6 82 -43 125t-100 43 q-68 0 -107.5 -48t-39.5 -120q0 -71 52.5 -115t178.5 -81q193 -58 284 -150t91 -235q0 -102 -66 -191.5t-188 -138.5q47 -74 47 -164q0 -168 -137.5 -268t-360.5 -100q-186 0 -305.5 92t-136.5 270zM371 600q0 -65 50.5 -110t153.5 -80q120 -42 191 -86q58 18 91.5 59.5 t33.5 103.5q0 66 -52.5 110.5t-176.5 88.5q-111 39 -175 74q-59 -19 -87.5 -63.5t-28.5 -96.5z" />
<glyph unicode="&#xa8;" horiz-adv-x="614" d="M-10 1282q0 63 44.5 104t98.5 41q53 0 83 -27.5t30 -76.5q0 -63 -45 -104t-99 -41q-53 0 -82.5 28t-29.5 76zM350 1282q0 63 44 104t100 41q51 0 80.5 -27.5t29.5 -76.5q0 -63 -43.5 -104t-99.5 -41q-52 0 -81.5 28t-29.5 76z" />
<glyph unicode="&#xa9;" horiz-adv-x="1740" d="M51 727q0 173 62 324.5t170.5 258.5t260.5 168.5t326 61.5t326.5 -61.5t260.5 -168.5t170.5 -258.5t62.5 -324.5t-62.5 -324.5t-170.5 -258.5t-260.5 -168.5t-326.5 -61.5t-326 61.5t-260.5 168.5t-170.5 258.5t-62 324.5zM229 727q0 -185 83 -333.5t229.5 -232 t328.5 -83.5t328.5 83.5t229.5 232t83 333.5t-83 334t-229.5 233t-328.5 84t-328.5 -84t-229.5 -233t-83 -334zM428 725q0 215 125.5 343t333.5 128q180 0 289 -97t131 -263h-250q-23 182 -178 182q-94 0 -141.5 -76t-47.5 -213q0 -143 51.5 -219t143.5 -76q69 0 115 47.5 t55 134.5h250q-30 -168 -139.5 -264t-295.5 -96q-198 0 -320 127t-122 342z" />
<glyph unicode="&#xab;" horiz-adv-x="1259" d="M229 508l340 340h236l-359 -356l209 -324h-204zM647 508l340 340h236l-359 -356l209 -324h-205z" />
<glyph unicode="&#xac;" d="M219 643l29 160h803l-72 -416h-166l43 256h-637z" />
<glyph unicode="&#xad;" horiz-adv-x="606" d="M51 500l29 159h475l-29 -159h-475z" />
<glyph unicode="&#xae;" horiz-adv-x="1015" d="M66 1085q0 129 60 237.5t174.5 175.5t260.5 67q179 0 285 -109.5t106 -271.5q0 -129 -60 -237.5t-174.5 -175t-260.5 -66.5q-179 0 -285 109t-106 271zM178 1090q0 -125 80 -202t217 -77q168 0 266.5 105.5t98.5 263.5q0 125 -80 202.5t-217 77.5q-168 0 -266.5 -106 t-98.5 -264zM311 930l76 428h141q38 0 54 -2q60 -6 92.5 -36t32.5 -77q0 -42 -27 -73t-78 -44q51 -14 51 -86q-3 -58 19 -110h-127q-10 39 -10 96q3 45 -48 45h-36l-25 -141h-115zM467 1161h31q25 0 37 2q53 10 53 60q0 38 -37 45q-14 2 -37 2h-29z" />
<glyph unicode="&#xaf;" horiz-adv-x="614" d="M14 1212l27 158h559l-27 -158h-559z" />
<glyph unicode="&#xb0;" horiz-adv-x="643" d="M178 1241q0 128 84.5 210.5t216.5 82.5q112 0 178 -64.5t66 -166.5q0 -128 -84.5 -210.5t-214.5 -82.5q-113 0 -179.5 65t-66.5 166zM342 1257q0 -46 26.5 -71t67.5 -25q54 0 88.5 34.5t34.5 92.5q0 46 -26 70t-68 24q-54 0 -88.5 -34t-34.5 -91z" />
<glyph unicode="&#xb1;" d="M115 0l26 152h838l-27 -152h-837zM215 571l29 160h336l57 324h166l-58 -324h336l-28 -160h-336l-58 -327h-165l57 327h-336z" />
<glyph unicode="&#xb4;" horiz-adv-x="614" d="M193 1176l202 241h254l-297 -241h-159z" />
<glyph unicode="&#xb6;" horiz-adv-x="1212" d="M160 983q0 54 14 110t45 111.5t76 99.5t112.5 73t147.5 34q37 2 117 2h565l-291 -1638h-166l262 1478h-211l-264 -1478h-166l156 880h-20q-80 0 -115 2q-83 5 -144 54t-89.5 119.5t-28.5 152.5z" />
<glyph unicode="&#xb7;" horiz-adv-x="501" d="M88 588q0 93 60 153t151 60q65 0 106 -37t41 -100q0 -95 -59.5 -155t-150.5 -60q-64 0 -106 37.5t-42 101.5z" />
<glyph unicode="&#xb8;" horiz-adv-x="614" d="M55 -414l23 115q43 -14 110 -14t103.5 20t36.5 55q0 41 -50.5 58t-136.5 8l129 190h148l-72 -102q76 -12 117 -50t41 -97q0 -98 -85.5 -148.5t-215.5 -50.5q-101 0 -148 16z" />
<glyph unicode="&#xbb;" horiz-adv-x="1273" d="M25 168l358 358l-209 322h205l221 -340l-340 -340h-235zM442 168l359 358l-209 322h205l221 -340l-340 -340h-236z" />
<glyph unicode="&#xbf;" horiz-adv-x="1083" d="M-55 -33q0 134 63.5 232t229.5 229q93 74 135 128.5t65 131.5h244q-21 -105 -64 -173.5t-143 -160.5q-135 -126 -182 -198.5t-47 -149.5q0 -71 43.5 -109t120.5 -38q92 0 154.5 60t86.5 181h285q-38 -211 -194.5 -331.5t-385.5 -120.5q-195 0 -303 85.5t-108 233.5z M438 932q0 76 51.5 131t137.5 55q66 0 103.5 -35.5t37.5 -97.5q0 -74 -51 -129t-135 -55q-66 0 -105 35.5t-39 95.5z" />
<glyph unicode="&#xc0;" horiz-adv-x="1392" d="M-63 0l749 1413h375l244 -1413h-306l-63 426h-481l-213 -426h-305zM567 649h336l-78 514zM627 1735h254l112 -230h-159z" />
<glyph unicode="&#xc1;" horiz-adv-x="1392" d="M-63 0l749 1413h375l244 -1413h-306l-63 426h-481l-213 -426h-305zM567 649h336l-78 514zM805 1505l190 230h254l-284 -230h-160z" />
<glyph unicode="&#xc2;" horiz-adv-x="1392" d="M-63 0l749 1413h375l244 -1413h-306l-63 426h-481l-213 -426h-305zM567 649h336l-78 514zM653 1505l172 230h222l92 -230h-178l-41 131l-89 -131h-178z" />
<glyph unicode="&#xc3;" horiz-adv-x="1392" d="M-63 0l749 1413h375l244 -1413h-306l-63 426h-481l-213 -426h-305zM567 649h336l-78 514zM616 1528q22 117 62.5 166t114.5 49q65 0 149 -35q65 -25 92 -25q33 0 41 54h144q-22 -118 -62.5 -167.5t-114.5 -49.5q-65 0 -149 36q-70 25 -90 25q-34 0 -43 -53h-144z" />
<glyph unicode="&#xc4;" horiz-adv-x="1392" d="M-63 0l749 1413h375l244 -1413h-306l-63 426h-481l-213 -426h-305zM567 649h336l-78 514zM610 1597q0 63 44 103.5t100 40.5q51 0 80.5 -28t29.5 -77q0 -62 -43.5 -102.5t-97.5 -40.5q-53 0 -83 28t-30 76zM965 1597q0 63 43.5 103.5t99.5 40.5q51 0 81 -28t30 -77 q0 -62 -44 -102.5t-98 -40.5q-53 0 -82.5 28t-29.5 76z" />
<glyph unicode="&#xc5;" horiz-adv-x="1392" d="M-63 0l749 1413h375l244 -1413h-306l-63 426h-481l-213 -426h-305zM567 649h336l-78 514zM702 1638q0 98 70 157.5t178 59.5q88 0 141.5 -46.5t53.5 -118.5q0 -97 -70.5 -157t-179.5 -60q-87 0 -140 46.5t-53 118.5zM844 1647q0 -30 17.5 -48t47.5 -18q38 0 66.5 28 t28.5 72q0 30 -18 48t-48 18q-38 0 -66 -28t-28 -72z" />
<glyph unicode="&#xc6;" horiz-adv-x="1978" d="M-174 0l1030 1413h1190l-41 -221h-766l-31 -373h682l-39 -223h-663l-31 -373h698l-38 -223h-961l41 461h-432l-324 -461h-315zM618 682h297l43 485z" />
<glyph unicode="&#xc7;" horiz-adv-x="1525" d="M-37 -414l21 115q43 -14 112 -14q66 0 101.5 20t35.5 55q0 41 -50 58t-136 8l129 190h150l-72 -102q76 -12 116 -50t40 -97q0 -98 -85 -148.5t-216 -50.5q-102 0 -146 16zM123 555q0 194 64 360.5t173 281.5t258 180t316 65q278 0 419.5 -135.5t125.5 -352.5l-2 -20h-283 v20q-1 142 -74.5 209.5t-216.5 67.5q-207 0 -342 -180.5t-135 -470.5q0 -201 81.5 -299.5t221.5 -98.5q262 0 373 287l8 20h281l-7 -20q-65 -236 -244 -367t-448 -131q-266 0 -417.5 154t-151.5 430z" />
<glyph unicode="&#xc8;" horiz-adv-x="1253" d="M72 0l250 1413h997l-39 -221h-715l-65 -373h665l-39 -223h-667l-66 -373h737l-40 -223h-1018zM580 1735h254l112 -230h-160z" />
<glyph unicode="&#xc9;" horiz-adv-x="1253" d="M72 0l250 1413h997l-39 -221h-715l-65 -373h665l-39 -223h-667l-66 -373h737l-40 -223h-1018zM758 1505l190 230h254l-284 -230h-160z" />
<glyph unicode="&#xca;" horiz-adv-x="1253" d="M72 0l250 1413h997l-39 -221h-715l-65 -373h665l-39 -223h-667l-66 -373h737l-40 -223h-1018zM606 1505l172 230h221l93 -230h-179l-41 131l-88 -131h-178z" />
<glyph unicode="&#xcb;" horiz-adv-x="1253" d="M72 0l250 1413h997l-39 -221h-715l-65 -373h665l-39 -223h-667l-66 -373h737l-40 -223h-1018zM561 1597q0 63 44 103.5t100 40.5q51 0 80.5 -28t29.5 -77q0 -62 -43.5 -102.5t-97.5 -40.5q-53 0 -83 28t-30 76zM915 1597q0 63 44 103.5t100 40.5q51 0 80.5 -28t29.5 -77 q0 -62 -43.5 -102.5t-97.5 -40.5q-53 0 -83 28t-30 76z" />
<glyph unicode="&#xcc;" horiz-adv-x="587" d="M72 0l250 1413h282l-250 -1413h-282zM209 1735h254l112 -230h-159z" />
<glyph unicode="&#xcd;" horiz-adv-x="587" d="M72 0l250 1413h282l-250 -1413h-282zM387 1505l191 230h253l-284 -230h-160z" />
<glyph unicode="&#xce;" horiz-adv-x="587" d="M72 0l250 1413h282l-250 -1413h-282zM238 1505l172 230h221l92 -230h-178l-41 131l-88 -131h-178z" />
<glyph unicode="&#xcf;" horiz-adv-x="587" d="M72 0l250 1413h282l-250 -1413h-282zM193 1597q0 63 43.5 103.5t99.5 40.5q51 0 80.5 -28t29.5 -77q0 -62 -43.5 -102.5t-97.5 -40.5q-53 0 -82.5 28t-29.5 76zM547 1597q0 63 43.5 103.5t99.5 40.5q51 0 81 -28t30 -77q0 -62 -44 -102.5t-98 -40.5q-53 0 -82.5 28 t-29.5 76z" />
<glyph unicode="&#xd0;" horiz-adv-x="1490" d="M25 610l28 160h154l115 643h446q118 0 188 -8q108 -11 197.5 -52.5t158.5 -113t107.5 -181.5t38.5 -249q0 -149 -46.5 -284.5t-136 -245.5t-233 -183t-323.5 -90q-74 -6 -182 -6h-465l108 610h-155zM393 223h166q99 0 146 4q92 11 167 47.5t127 90.5t87.5 124t52 148 t16.5 164q0 180 -77.5 274.5t-211.5 110.5q-67 6 -141 6h-160l-76 -422h228l-29 -160h-227z" />
<glyph unicode="&#xd1;" horiz-adv-x="1546" d="M72 0l250 1413h374l394 -1100l190 1100h283l-250 -1413h-387l-385 1073l-187 -1073h-282zM684 1528q22 117 62 166t114 49q66 0 150 -35q65 -25 92 -25q33 0 41 54h143q-22 -118 -62 -167.5t-114 -49.5q-65 0 -149 36q-70 25 -91 25q-34 0 -43 -53h-143z" />
<glyph unicode="&#xd2;" horiz-adv-x="1599" d="M127 584q0 181 57 338t160 272.5t256.5 181.5t337.5 66q149 0 269 -47.5t198 -131t120 -194.5t42 -240q0 -181 -57 -338t-160 -272.5t-256.5 -181.5t-337.5 -66q-149 0 -269 47.5t-198 131t-120 194.5t-42 240zM428 590q0 -185 92 -296.5t258 -111.5q96 0 178 39 t138 103.5t95.5 148t58 172.5t18.5 178q0 185 -93 296.5t-258 111.5q-119 0 -215 -59t-153.5 -154t-88 -205.5t-30.5 -222.5zM719 1735h254l112 -230h-159z" />
<glyph unicode="&#xd3;" horiz-adv-x="1599" d="M127 584q0 181 57 338t160 272.5t256.5 181.5t337.5 66q149 0 269 -47.5t198 -131t120 -194.5t42 -240q0 -181 -57 -338t-160 -272.5t-256.5 -181.5t-337.5 -66q-149 0 -269 47.5t-198 131t-120 194.5t-42 240zM428 590q0 -185 92 -296.5t258 -111.5q96 0 178 39 t138 103.5t95.5 148t58 172.5t18.5 178q0 185 -93 296.5t-258 111.5q-119 0 -215 -59t-153.5 -154t-88 -205.5t-30.5 -222.5zM897 1505l190 230h254l-284 -230h-160z" />
<glyph unicode="&#xd4;" horiz-adv-x="1599" d="M127 584q0 181 57 338t160 272.5t256.5 181.5t337.5 66q149 0 269 -47.5t198 -131t120 -194.5t42 -240q0 -181 -57 -338t-160 -272.5t-256.5 -181.5t-337.5 -66q-149 0 -269 47.5t-198 131t-120 194.5t-42 240zM428 590q0 -185 92 -296.5t258 -111.5q96 0 178 39 t138 103.5t95.5 148t58 172.5t18.5 178q0 185 -93 296.5t-258 111.5q-119 0 -215 -59t-153.5 -154t-88 -205.5t-30.5 -222.5zM745 1505l173 230h221l92 -230h-178l-41 131l-88 -131h-179z" />
<glyph unicode="&#xd5;" horiz-adv-x="1599" d="M127 584q0 181 57 338t160 272.5t256.5 181.5t337.5 66q149 0 269 -47.5t198 -131t120 -194.5t42 -240q0 -181 -57 -338t-160 -272.5t-256.5 -181.5t-337.5 -66q-149 0 -269 47.5t-198 131t-120 194.5t-42 240zM428 590q0 -185 92 -296.5t258 -111.5q96 0 178 39 t138 103.5t95.5 148t58 172.5t18.5 178q0 185 -93 296.5t-258 111.5q-119 0 -215 -59t-153.5 -154t-88 -205.5t-30.5 -222.5zM709 1528q22 117 62 166t114 49q65 0 149 -35q65 -25 92 -25q33 0 41 54h144q-22 -118 -62 -167.5t-114 -49.5q-66 0 -150 36q-70 25 -90 25 q-34 0 -43 -53h-143z" />
<glyph unicode="&#xd6;" horiz-adv-x="1599" d="M127 584q0 181 57 338t160 272.5t256.5 181.5t337.5 66q149 0 269 -47.5t198 -131t120 -194.5t42 -240q0 -181 -57 -338t-160 -272.5t-256.5 -181.5t-337.5 -66q-149 0 -269 47.5t-198 131t-120 194.5t-42 240zM428 590q0 -185 92 -296.5t258 -111.5q96 0 178 39 t138 103.5t95.5 148t58 172.5t18.5 178q0 185 -93 296.5t-258 111.5q-119 0 -215 -59t-153.5 -154t-88 -205.5t-30.5 -222.5zM702 1597q0 63 44 103.5t100 40.5q51 0 80.5 -28t29.5 -77q0 -62 -43.5 -102.5t-97.5 -40.5q-53 0 -83 28t-30 76zM1057 1597q0 63 43.5 103.5 t99.5 40.5q51 0 81 -28t30 -77q0 -62 -44 -102.5t-98 -40.5q-53 0 -82.5 28t-29.5 76z" />
<glyph unicode="&#xd7;" d="M176 381l340 289l-231 280l139 117l231 -281l338 289l113 -137l-338 -289l229 -278l-139 -117l-229 278l-340 -288z" />
<glyph unicode="&#xd8;" horiz-adv-x="1593" d="M20 113l185 157q-74 136 -74 314q0 181 57 338t160 272.5t256.5 181.5t337.5 66q284 0 451 -164l163 139l97 -117l-166 -141q82 -145 82 -330q0 -144 -35.5 -274.5t-105.5 -236.5t-167 -184t-225.5 -120.5t-275.5 -42.5q-294 0 -465 176l-178 -151zM432 590 q0 -57 10 -119l746 633q-94 127 -270 127q-96 0 -177.5 -39t-137.5 -103.5t-95.5 -148t-57.5 -172.5t-18 -178zM502 324q95 -142 280 -142q96 0 178 39t138 103.5t95.5 148t58 172.5t18.5 178q0 67 -17 140z" />
<glyph unicode="&#xd9;" horiz-adv-x="1439" d="M150 377q0 79 26 239l141 797h283l-151 -860q-17 -96 -17 -145q0 -107 69.5 -166.5t190.5 -59.5q138 0 219 60.5t117 201.5q12 46 23 103l151 866h283l-144 -815q-18 -105 -36 -176q-52 -218 -203.5 -334.5t-433.5 -116.5q-256 0 -387 108.5t-131 297.5zM649 1735h254 l113 -230h-160z" />
<glyph unicode="&#xda;" horiz-adv-x="1439" d="M150 377q0 79 26 239l141 797h283l-151 -860q-17 -96 -17 -145q0 -107 69.5 -166.5t190.5 -59.5q138 0 219 60.5t117 201.5q12 46 23 103l151 866h283l-144 -815q-18 -105 -36 -176q-52 -218 -203.5 -334.5t-433.5 -116.5q-256 0 -387 108.5t-131 297.5zM827 1505 l191 230h254l-285 -230h-160z" />
<glyph unicode="&#xdb;" horiz-adv-x="1439" d="M150 377q0 79 26 239l141 797h283l-151 -860q-17 -96 -17 -145q0 -107 69.5 -166.5t190.5 -59.5q138 0 219 60.5t117 201.5q12 46 23 103l151 866h283l-144 -815q-18 -105 -36 -176q-52 -218 -203.5 -334.5t-433.5 -116.5q-256 0 -387 108.5t-131 297.5zM676 1505 l172 230h221l92 -230h-178l-41 131l-88 -131h-178z" />
<glyph unicode="&#xdc;" horiz-adv-x="1439" d="M150 377q0 79 26 239l141 797h283l-151 -860q-17 -96 -17 -145q0 -107 69.5 -166.5t190.5 -59.5q138 0 219 60.5t117 201.5q12 46 23 103l151 866h283l-144 -815q-18 -105 -36 -176q-52 -218 -203.5 -334.5t-433.5 -116.5q-256 0 -387 108.5t-131 297.5zM631 1597 q0 63 43.5 103.5t99.5 40.5q51 0 81 -28t30 -77q0 -62 -44 -102.5t-98 -40.5q-53 0 -82.5 28t-29.5 76zM985 1597q0 63 43.5 103.5t99.5 40.5q51 0 81 -28t30 -77q0 -62 -43.5 -102.5t-97.5 -40.5q-53 0 -83 28t-30 76z" />
<glyph unicode="&#xdd;" horiz-adv-x="1304" d="M199 1413h299l231 -625l430 625h318l-652 -872l-96 -541h-283l99 551zM764 1505l190 230h254l-284 -230h-160z" />
<glyph unicode="&#xde;" horiz-adv-x="1290" d="M72 0l250 1413h282l-33 -180h222q117 0 204 -10q137 -16 219 -97t82 -223q0 -46 -8 -90q-32 -182 -152 -287.5t-286 -126.5q-72 -8 -207 -8h-221l-70 -391h-282zM463 614h201q69 0 127 7q171 24 202 190q4 16 4 45q0 128 -141 148q-46 6 -123 6h-201z" />
<glyph unicode="&#xdf;" horiz-adv-x="1267" d="M35 0l164 928q21 121 49 210t76 169t113.5 129.5t162.5 78.5t223 29q213 0 328 -93t115 -241q0 -130 -95 -252q-87 -39 -122 -78t-35 -92q0 -78 80 -161q64 -66 92 -132.5t28 -144.5q0 -152 -120.5 -255t-343.5 -103q-135 0 -242 22l39 213q97 -26 180 -26q95 0 141.5 45 t46.5 112q0 85 -79 172q-64 74 -90.5 127.5t-26.5 126.5q0 83 48.5 147.5t154.5 121.5q43 65 43 135q0 68 -45 106.5t-136 38.5q-129 0 -198 -96.5t-103 -292.5l-166 -944h-282z" />
<glyph unicode="&#xe0;" horiz-adv-x="1130" d="M25 258q0 208 199.5 317t539.5 89l2 16q12 74 12 117q0 55 -33 89t-104 34q-182 0 -227 -185l-275 -2q35 181 179 283t348 102q205 0 301 -77.5t96 -211.5q0 -52 -27 -204l-61 -349q-22 -126 -29 -276h-276l6 160l-72 -109q-105 -80 -276 -80q-131 0 -217 74t-86 213z M322 295q0 -61 38.5 -93t104.5 -32q82 0 157 64.5t93 166.5l16 93q-116 13 -207.5 -5t-146.5 -68t-55 -126zM426 1417h254l117 -241h-160z" />
<glyph unicode="&#xe1;" horiz-adv-x="1130" d="M25 258q0 208 199.5 317t539.5 89l2 16q12 74 12 117q0 55 -33 89t-104 34q-182 0 -227 -185l-275 -2q35 181 179 283t348 102q205 0 301 -77.5t96 -211.5q0 -52 -27 -204l-61 -349q-22 -126 -29 -276h-276l6 160l-72 -109q-105 -80 -276 -80q-131 0 -217 74t-86 213z M322 295q0 -61 38.5 -93t104.5 -32q82 0 157 64.5t93 166.5l16 93q-116 13 -207.5 -5t-146.5 -68t-55 -126zM596 1176l203 241h254l-297 -241h-160z" />
<glyph unicode="&#xe2;" horiz-adv-x="1130" d="M25 258q0 208 199.5 317t539.5 89l2 16q12 74 12 117q0 55 -33 89t-104 34q-182 0 -227 -185l-275 -2q35 181 179 283t348 102q205 0 301 -77.5t96 -211.5q0 -52 -27 -204l-61 -349q-22 -126 -29 -276h-276l6 160l-72 -109q-105 -80 -276 -80q-131 0 -217 74t-86 213z M322 295q0 -61 38.5 -93t104.5 -32q82 0 157 64.5t93 166.5l16 93q-116 13 -207.5 -5t-146.5 -68t-55 -126zM453 1176l174 241h221l90 -241h-176l-43 141l-92 -141h-174z" />
<glyph unicode="&#xe3;" horiz-adv-x="1130" d="M25 258q0 208 199.5 317t539.5 89l2 16q12 74 12 117q0 55 -33 89t-104 34q-182 0 -227 -185l-275 -2q35 181 179 283t348 102q205 0 301 -77.5t96 -211.5q0 -52 -27 -204l-61 -349q-22 -126 -29 -276h-276l6 160l-72 -109q-105 -80 -276 -80q-131 0 -217 74t-86 213z M322 295q0 -61 38.5 -93t104.5 -32q82 0 157 64.5t93 166.5l16 93q-116 13 -207.5 -5t-146.5 -68t-55 -126zM410 1198q22 117 62 166t114 49q65 0 149 -35q63 -24 92 -24q33 0 41 53h144q-22 -118 -62 -167.5t-114 -49.5q-64 0 -150 37q-68 24 -90 24q-34 0 -43 -53h-143z " />
<glyph unicode="&#xe4;" horiz-adv-x="1130" d="M25 258q0 208 199.5 317t539.5 89l2 16q12 74 12 117q0 55 -33 89t-104 34q-182 0 -227 -185l-275 -2q35 181 179 283t348 102q205 0 301 -77.5t96 -211.5q0 -52 -27 -204l-61 -349q-22 -126 -29 -276h-276l6 160l-72 -109q-105 -80 -276 -80q-131 0 -217 74t-86 213z M322 295q0 -61 38.5 -93t104.5 -32q82 0 157 64.5t93 166.5l16 93q-116 13 -207.5 -5t-146.5 -68t-55 -126zM395 1282q0 63 45 104t99 41q53 0 82.5 -27.5t29.5 -76.5q0 -63 -44.5 -104t-98.5 -41q-53 0 -83 28t-30 76zM756 1282q0 63 43.5 104t99.5 41q51 0 81 -27.5 t30 -76.5q0 -63 -44 -104t-100 -41q-52 0 -81 28t-29 76z" />
<glyph unicode="&#xe5;" horiz-adv-x="1130" d="M25 258q0 208 199.5 317t539.5 89l2 16q12 74 12 117q0 55 -33 89t-104 34q-182 0 -227 -185l-275 -2q35 181 179 283t348 102q205 0 301 -77.5t96 -211.5q0 -52 -27 -204l-61 -349q-22 -126 -29 -276h-276l6 160l-72 -109q-105 -80 -276 -80q-131 0 -217 74t-86 213z M322 295q0 -61 38.5 -93t104.5 -32q82 0 157 64.5t93 166.5l16 93q-116 13 -207.5 -5t-146.5 -68t-55 -126zM498 1325q0 99 71 164t183 65q86 0 137 -44.5t51 -120.5q0 -99 -71 -164.5t-181 -65.5q-88 0 -139 44.5t-51 121.5zM639 1333q0 -31 17.5 -48t48.5 -17 q43 0 68.5 34.5t25.5 77.5q0 32 -17.5 50t-48.5 18q-43 0 -68.5 -35t-25.5 -80z" />
<glyph unicode="&#xe6;" horiz-adv-x="1916" d="M25 252q0 67 22 125.5t73 110t128 88t193 58t261 21.5h93q12 71 12 109q0 151 -158 151q-88 0 -147.5 -48t-79.5 -138h-275q34 180 181 282.5t352 102.5q286 0 346 -184q163 184 432 184q202 0 309 -118t107 -306q0 -104 -35 -219h-772q-4 -46 -4 -61q0 -240 201 -240 q92 0 161.5 48.5t98.5 135.5h282q-71 -185 -227.5 -284t-353.5 -99q-145 0 -246.5 57t-147.5 175l-108 -133q-140 -99 -338 -99q-164 0 -262 76t-98 205zM324 287q0 -57 40.5 -87t114.5 -30q102 0 180.5 69.5t98.5 184.5l8 47q-33 2 -94 2q-176 0 -262 -44t-86 -142z M1108 655h477q15 260 -184 260q-101 0 -177 -65.5t-116 -194.5z" />
<glyph unicode="&#xe7;" horiz-adv-x="1171" d="M47 422q0 141 45.5 266.5t128 220t206.5 150t271 55.5q222 0 333.5 -114t111.5 -308h-279q-6 223 -196 223q-142 0 -231 -141t-89 -352q0 -123 53 -187.5t138 -64.5q95 0 164.5 52.5t105.5 154.5h283q-146 -388 -541 -406l-39 -55q76 -12 117 -50t41 -97 q0 -98 -85.5 -148.5t-215.5 -50.5q-101 0 -148 16l23 115q43 -14 110 -14t103.5 20t36.5 55q0 41 -50.5 58t-136.5 8l103 152q-168 26 -265.5 137t-97.5 305z" />
<glyph unicode="&#xe8;" horiz-adv-x="1187" d="M47 414q0 113 27 217.5t81.5 192.5t130 154t178 103t220.5 37q148 0 253.5 -57.5t155.5 -153.5t50 -219q0 -102 -35 -217h-770l-2 -55q0 -126 54 -186t147 -60q92 0 161.5 48.5t98.5 135.5h282q-65 -187 -215.5 -285t-353.5 -98q-100 0 -182.5 26.5t-146 79.5t-99 139 t-35.5 198zM369 655h485q2 18 2 47q0 102 -52.5 160t-148.5 58q-105 0 -176.5 -71.5t-109.5 -193.5zM455 1417h254l116 -241h-159z" />
<glyph unicode="&#xe9;" horiz-adv-x="1187" d="M47 414q0 113 27 217.5t81.5 192.5t130 154t178 103t220.5 37q148 0 253.5 -57.5t155.5 -153.5t50 -219q0 -102 -35 -217h-770l-2 -55q0 -126 54 -186t147 -60q92 0 161.5 48.5t98.5 135.5h282q-65 -187 -215.5 -285t-353.5 -98q-100 0 -182.5 26.5t-146 79.5t-99 139 t-35.5 198zM369 655h485q2 18 2 47q0 102 -52.5 160t-148.5 58q-105 0 -176.5 -71.5t-109.5 -193.5zM625 1176l202 241h254l-297 -241h-159z" />
<glyph unicode="&#xea;" horiz-adv-x="1187" d="M47 414q0 113 27 217.5t81.5 192.5t130 154t178 103t220.5 37q148 0 253.5 -57.5t155.5 -153.5t50 -219q0 -102 -35 -217h-770l-2 -55q0 -126 54 -186t147 -60q92 0 161.5 48.5t98.5 135.5h282q-65 -187 -215.5 -285t-353.5 -98q-100 0 -182.5 26.5t-146 79.5t-99 139 t-35.5 198zM369 655h485q2 18 2 47q0 102 -52.5 160t-148.5 58q-105 0 -176.5 -71.5t-109.5 -193.5zM481 1176l174 241h222l90 -241h-176l-43 141l-93 -141h-174z" />
<glyph unicode="&#xeb;" horiz-adv-x="1187" d="M47 414q0 113 27 217.5t81.5 192.5t130 154t178 103t220.5 37q148 0 253.5 -57.5t155.5 -153.5t50 -219q0 -102 -35 -217h-770l-2 -55q0 -126 54 -186t147 -60q92 0 161.5 48.5t98.5 135.5h282q-65 -187 -215.5 -285t-353.5 -98q-100 0 -182.5 26.5t-146 79.5t-99 139 t-35.5 198zM369 655h485q2 18 2 47q0 102 -52.5 160t-148.5 58q-105 0 -176.5 -71.5t-109.5 -193.5zM426 1282q0 63 44.5 104t98.5 41q53 0 83 -27.5t30 -76.5q0 -63 -44.5 -104t-98.5 -41q-53 0 -83 28t-30 76zM786 1282q0 63 44 104t100 41q51 0 80.5 -27.5t29.5 -76.5 q0 -63 -43.5 -104t-99.5 -41q-52 0 -81.5 28t-29.5 76z" />
<glyph unicode="&#xec;" horiz-adv-x="542" d="M35 0l194 1090h281l-193 -1090h-282zM123 1417h254l117 -241h-160z" />
<glyph unicode="&#xed;" horiz-adv-x="542" d="M35 0l194 1090h281l-193 -1090h-282zM293 1176l203 241h254l-297 -241h-160z" />
<glyph unicode="&#xee;" horiz-adv-x="542" d="M35 0l194 1090h281l-193 -1090h-282zM152 1176l174 241h221l90 -241h-176l-43 141l-92 -141h-174z" />
<glyph unicode="&#xef;" horiz-adv-x="542" d="M35 0l194 1090h281l-193 -1090h-282zM94 1282q0 63 45 104t99 41q53 0 82.5 -27.5t29.5 -76.5q0 -63 -44.5 -104t-98.5 -41q-53 0 -83 28t-30 76zM455 1282q0 63 43.5 104t99.5 41q51 0 81 -27.5t30 -76.5q0 -63 -44 -104t-100 -41q-52 0 -81 28t-29 76z" />
<glyph unicode="&#xf0;" horiz-adv-x="1304" d="M47 426q0 98 23 194.5t72 187t119 159t172.5 110t223.5 41.5q68 0 115.5 -13t97.5 -46l70 -117q-7 171 -68 275l-262 -68l-28 125l204 53q-46 44 -139 96l232 103q102 -50 168 -133l186 49l29 -123l-146 -39q90 -193 90 -510q0 -118 -22 -229t-72.5 -216t-125.5 -182.5 t-189.5 -124.5t-255.5 -47q-235 0 -364.5 127t-129.5 328zM344 444q0 -134 57 -199t160 -65q76 0 137.5 31.5t99.5 81t64 114.5t36.5 128.5t10.5 126.5q0 115 -62.5 181t-158.5 66q-73 0 -133.5 -31t-98.5 -80t-64 -112t-37 -123.5t-11 -118.5z" />
<glyph unicode="&#xf1;" horiz-adv-x="1271" d="M35 0l192 1090h281l-29 -166l107 118q122 76 276 76q162 0 247 -75.5t85 -202.5q0 -70 -27 -217l-110 -623h-283l103 571q22 126 22 179q0 170 -176 170q-113 -2 -197.5 -105.5t-122.5 -320.5l-86 -494h-282zM475 1198q22 117 62 166t114 49q66 0 150 -35q63 -24 92 -24 q33 0 41 53h143q-22 -118 -62 -167.5t-114 -49.5q-63 0 -149 37q-68 24 -90 24q-35 0 -44 -53h-143z" />
<glyph unicode="&#xf2;" horiz-adv-x="1261" d="M51 455q0 100 25 194.5t78 180t129 149.5t185 101.5t239 37.5q126 0 224 -37t158 -103.5t90.5 -153t30.5 -189.5q0 -126 -40.5 -242t-118.5 -211.5t-206 -153t-288 -57.5q-126 0 -224.5 37.5t-159 103.5t-91.5 153t-31 190zM352 461q0 -130 58 -210.5t172 -80.5 q104 0 180.5 69t112.5 171t36 219q0 130 -58 210.5t-171 80.5q-79 0 -143.5 -40t-104 -105.5t-61 -146.5t-21.5 -167zM479 1417h254l117 -241h-160z" />
<glyph unicode="&#xf3;" horiz-adv-x="1261" d="M51 455q0 100 25 194.5t78 180t129 149.5t185 101.5t239 37.5q126 0 224 -37t158 -103.5t90.5 -153t30.5 -189.5q0 -126 -40.5 -242t-118.5 -211.5t-206 -153t-288 -57.5q-126 0 -224.5 37.5t-159 103.5t-91.5 153t-31 190zM352 461q0 -130 58 -210.5t172 -80.5 q104 0 180.5 69t112.5 171t36 219q0 130 -58 210.5t-171 80.5q-79 0 -143.5 -40t-104 -105.5t-61 -146.5t-21.5 -167zM649 1176l203 241h254l-297 -241h-160z" />
<glyph unicode="&#xf4;" horiz-adv-x="1261" d="M51 455q0 100 25 194.5t78 180t129 149.5t185 101.5t239 37.5q126 0 224 -37t158 -103.5t90.5 -153t30.5 -189.5q0 -126 -40.5 -242t-118.5 -211.5t-206 -153t-288 -57.5q-126 0 -224.5 37.5t-159 103.5t-91.5 153t-31 190zM352 461q0 -130 58 -210.5t172 -80.5 q104 0 180.5 69t112.5 171t36 219q0 130 -58 210.5t-171 80.5q-79 0 -143.5 -40t-104 -105.5t-61 -146.5t-21.5 -167zM506 1176l174 241h221l90 -241h-176l-43 141l-92 -141h-174z" />
<glyph unicode="&#xf5;" horiz-adv-x="1261" d="M51 455q0 100 25 194.5t78 180t129 149.5t185 101.5t239 37.5q126 0 224 -37t158 -103.5t90.5 -153t30.5 -189.5q0 -126 -40.5 -242t-118.5 -211.5t-206 -153t-288 -57.5q-126 0 -224.5 37.5t-159 103.5t-91.5 153t-31 190zM352 461q0 -130 58 -210.5t172 -80.5 q104 0 180.5 69t112.5 171t36 219q0 130 -58 210.5t-171 80.5q-79 0 -143.5 -40t-104 -105.5t-61 -146.5t-21.5 -167zM463 1198q22 117 62 166t114 49q65 0 149 -35q63 -24 93 -24q33 0 41 53h143q-22 -118 -62 -167.5t-114 -49.5q-64 0 -150 37q-68 24 -90 24 q-34 0 -43 -53h-143z" />
<glyph unicode="&#xf6;" horiz-adv-x="1261" d="M51 455q0 100 25 194.5t78 180t129 149.5t185 101.5t239 37.5q126 0 224 -37t158 -103.5t90.5 -153t30.5 -189.5q0 -126 -40.5 -242t-118.5 -211.5t-206 -153t-288 -57.5q-126 0 -224.5 37.5t-159 103.5t-91.5 153t-31 190zM352 461q0 -130 58 -210.5t172 -80.5 q104 0 180.5 69t112.5 171t36 219q0 130 -58 210.5t-171 80.5q-79 0 -143.5 -40t-104 -105.5t-61 -146.5t-21.5 -167zM451 1282q0 63 44.5 104t98.5 41q53 0 83 -27.5t30 -76.5q0 -63 -45 -104t-99 -41q-53 0 -82.5 28t-29.5 76zM811 1282q0 63 43.5 104t99.5 41 q51 0 81 -27.5t30 -76.5q0 -63 -43.5 -104t-99.5 -41q-52 0 -81.5 28t-29.5 76z" />
<glyph unicode="&#xf7;" d="M160 571l28 160h938l-26 -160h-940zM438 262q0 70 50.5 120t117.5 50q55 0 87 -32.5t32 -84.5q0 -68 -50.5 -118t-117.5 -50q-53 0 -86 32.5t-33 82.5zM565 983q0 68 50.5 118t117.5 50q53 0 86 -32.5t33 -82.5q0 -70 -50.5 -120t-117.5 -50q-54 0 -86.5 33t-32.5 84z " />
<glyph unicode="&#xf8;" horiz-adv-x="1304" d="M-37 61l162 138q-59 106 -59 256q0 100 25 194.5t78 180t128.5 149.5t184.5 101.5t239 37.5q221 0 352 -112l160 135l96 -117l-162 -137q58 -110 58 -252q0 -100 -25 -194.5t-78 -180t-129 -149.5t-185 -102t-239 -38q-220 0 -350 111l-160 -137zM367 461q0 -37 2 -53 l501 426q-60 86 -174 86q-79 0 -143.5 -40t-104 -105.5t-60.5 -146.5t-21 -167zM422 252q59 -82 172 -82q79 0 143.5 40t104 105.5t61 146.5t21.5 167q0 33 -2 49z" />
<glyph unicode="&#xf9;" horiz-adv-x="1263" d="M72 252q0 84 24 217l113 621h283l-105 -572q-20 -114 -20 -178q0 -171 174 -168q113 2 197.5 104.5t123.5 319.5l86 494h281l-191 -1090h-282l30 168l-108 -121q-122 -76 -277 -76q-161 0 -245 76t-84 205zM498 1417h254l116 -241h-159z" />
<glyph unicode="&#xfa;" horiz-adv-x="1263" d="M72 252q0 84 24 217l113 621h283l-105 -572q-20 -114 -20 -178q0 -171 174 -168q113 2 197.5 104.5t123.5 319.5l86 494h281l-191 -1090h-282l30 168l-108 -121q-122 -76 -277 -76q-161 0 -245 76t-84 205zM668 1176l202 241h254l-297 -241h-159z" />
<glyph unicode="&#xfb;" horiz-adv-x="1263" d="M72 252q0 84 24 217l113 621h283l-105 -572q-20 -114 -20 -178q0 -171 174 -168q113 2 197.5 104.5t123.5 319.5l86 494h281l-191 -1090h-282l30 168l-108 -121q-122 -76 -277 -76q-161 0 -245 76t-84 205zM524 1176l174 241h222l90 -241h-176l-43 141l-93 -141h-174z " />
<glyph unicode="&#xfc;" horiz-adv-x="1263" d="M72 252q0 84 24 217l113 621h283l-105 -572q-20 -114 -20 -178q0 -171 174 -168q113 2 197.5 104.5t123.5 319.5l86 494h281l-191 -1090h-282l30 168l-108 -121q-122 -76 -277 -76q-161 0 -245 76t-84 205zM469 1282q0 63 44.5 104t98.5 41q53 0 83 -27.5t30 -76.5 q0 -63 -44.5 -104t-98.5 -41q-53 0 -83 28t-30 76zM829 1282q0 63 44 104t100 41q51 0 80.5 -27.5t29.5 -76.5q0 -63 -43.5 -104t-99.5 -41q-52 0 -81.5 28t-29.5 76z" />
<glyph unicode="&#xfd;" horiz-adv-x="1114" d="M-45 -420l33 193q43 -6 86 -6q71 0 123.5 35t95.5 118l12 25l-237 1145h315l117 -863l420 863h313l-612 -1090q-138 -245 -255 -337.5t-288 -92.5q-58 0 -123 10zM561 1176l203 241h254l-297 -241h-160z" />
<glyph unicode="&#xfe;" horiz-adv-x="1333" d="M-37 -401l340 1906h283l-105 -579l103 116q109 76 284 76q199 0 308.5 -121t109.5 -327q0 -108 -25 -209t-77.5 -190t-127.5 -156t-182 -105.5t-233 -38.5q-69 0 -139 20t-105 50l-53 115l-98 -557h-283zM401 405q0 -49 15.5 -91.5t41.5 -74.5t71 -50.5t104 -18.5 q105 0 188 66t126.5 173.5t43.5 235.5q0 132 -58.5 203.5t-168.5 71.5q-61 0 -114 -20t-100 -62t-82 -113.5t-52 -167.5l-8 -51q-7 -52 -7 -101z" />
<glyph unicode="&#xff;" horiz-adv-x="1114" d="M-45 -420l33 193q43 -6 86 -6q71 0 123.5 35t95.5 118l12 25l-237 1145h315l117 -863l420 863h313l-612 -1090q-138 -245 -255 -337.5t-288 -92.5q-58 0 -123 10zM362 1282q0 63 45 104t99 41q53 0 82.5 -27.5t29.5 -76.5q0 -63 -44.5 -104t-98.5 -41q-53 0 -83 28 t-30 76zM723 1282q0 63 43.5 104t99.5 41q51 0 81 -27.5t30 -76.5q0 -63 -43.5 -104t-99.5 -41q-52 0 -81.5 28t-29.5 76z" />
<glyph unicode="&#x152;" horiz-adv-x="2310" d="M123 565q0 123 30 245t95 236.5t157 202t226.5 140.5t292.5 53q145 0 226.5 -29t145.5 -104l37 -140l43 244h1000l-41 -221h-715l-66 -373h666l-39 -223h-668l-65 -373h737l-39 -223h-1020l43 240l-84 -138q-93 -73 -187 -102t-232 -29q-252 0 -397.5 152.5t-145.5 441.5 zM420 575q0 -194 89 -293.5t249 -99.5q187 0 318 140.5t175 384.5q14 80 14.5 152.5t-17 141.5t-53 119t-100.5 80.5t-153 30.5q-106 0 -195 -40.5t-148 -107t-100.5 -153t-60 -176t-18.5 -179.5z" />
<glyph unicode="&#x153;" horiz-adv-x="2023" d="M45 426q0 89 23 181t75 184t127.5 163t191 115.5t253.5 44.5q298 0 391 -221q171 221 455 221q203 0 310 -117.5t107 -306.5q0 -112 -34 -219h-773q-2 -25 -2 -59q0 -242 199 -242q93 0 162 48.5t98 135.5h283q-72 -187 -224.5 -285t-351.5 -98q-267 0 -358 215 q-165 -215 -451 -215q-232 0 -356.5 122.5t-124.5 332.5zM342 436q0 -123 57 -194.5t160 -71.5q73 0 134 33t100 85t66 118.5t38.5 130t11.5 122.5q0 119 -56.5 187.5t-160.5 68.5q-73 0 -133.5 -31.5t-99.5 -81.5t-66.5 -114.5t-39 -127.5t-11.5 -124zM1214 655h476 q4 20 4 50q0 103 -48.5 156.5t-140.5 53.5q-101 0 -176.5 -65.5t-114.5 -194.5z" />
<glyph unicode="&#x178;" horiz-adv-x="1304" d="M199 1413h299l231 -625l430 625h318l-652 -872l-96 -541h-283l99 551zM567 1597q0 63 44 103.5t100 40.5q51 0 80.5 -28t29.5 -77q0 -62 -43.5 -102.5t-97.5 -40.5q-53 0 -83 28t-30 76zM922 1597q0 63 43.5 103.5t99.5 40.5q51 0 81 -28t30 -77q0 -62 -44 -102.5 t-98 -40.5q-53 0 -82.5 28t-29.5 76z" />
<glyph unicode="&#x2c6;" horiz-adv-x="614" d="M47 1176l174 241h221l90 -241h-176l-43 141l-92 -141h-174z" />
<glyph unicode="&#x2dc;" horiz-adv-x="614" d="M6 1198q22 117 62 166t114 49q66 0 150 -35q63 -24 92 -24q33 0 41 53h143q-22 -118 -62 -167.5t-114 -49.5q-63 0 -149 37q-67 24 -90 24q-34 0 -43 -53h-144z" />
<glyph unicode="&#x2000;" horiz-adv-x="927" />
<glyph unicode="&#x2001;" horiz-adv-x="1855" />
<glyph unicode="&#x2002;" horiz-adv-x="927" />
<glyph unicode="&#x2003;" horiz-adv-x="1855" />
<glyph unicode="&#x2004;" horiz-adv-x="618" />
<glyph unicode="&#x2005;" horiz-adv-x="463" />
<glyph unicode="&#x2006;" horiz-adv-x="309" />
<glyph unicode="&#x2007;" horiz-adv-x="309" />
<glyph unicode="&#x2008;" horiz-adv-x="231" />
<glyph unicode="&#x2009;" horiz-adv-x="371" />
<glyph unicode="&#x200a;" horiz-adv-x="103" />
<glyph unicode="&#x2010;" horiz-adv-x="606" d="M51 500l29 159h475l-29 -159h-475z" />
<glyph unicode="&#x2011;" horiz-adv-x="606" d="M51 500l29 159h475l-29 -159h-475z" />
<glyph unicode="&#x2012;" horiz-adv-x="606" d="M51 500l29 159h475l-29 -159h-475z" />
<glyph unicode="&#x2013;" horiz-adv-x="1024" d="M152 516l28 160h692l-28 -160h-692z" />
<glyph unicode="&#x2014;" horiz-adv-x="2048" d="M152 516l28 160h1716l-28 -160h-1716z" />
<glyph unicode="&#x2018;" horiz-adv-x="526" d="M141 877l2 22l299 514h230l-256 -536h-275z" />
<glyph unicode="&#x2019;" horiz-adv-x="526" d="M70 877l256 536h274l-2 -22l-299 -514h-229z" />
<glyph unicode="&#x201a;" horiz-adv-x="534" d="M-195 -250l258 537h275l-2 -23l-299 -514h-232z" />
<glyph unicode="&#x201c;" horiz-adv-x="964" d="M141 877l2 22l299 514h230l-256 -536h-275zM580 877l2 22l299 514h229l-256 -536h-274z" />
<glyph unicode="&#x201d;" horiz-adv-x="964" d="M70 877l256 536h274l-2 -22l-299 -514h-229zM508 877l256 536h274l-2 -22l-299 -514h-229z" />
<glyph unicode="&#x201e;" horiz-adv-x="972" d="M-195 -250l258 537h275l-2 -23l-299 -514h-232zM244 -250l258 537h274l-2 -23l-299 -514h-231z" />
<glyph unicode="&#x2022;" horiz-adv-x="776" d="M139 571q0 127 82 211t209 84q94 0 150.5 -50t56.5 -138q0 -127 -81.5 -211t-209.5 -84q-93 0 -150 50t-57 138z" />
<glyph unicode="&#x2026;" horiz-adv-x="1579" d="M-12 106q0 93 57.5 151t147.5 58q63 0 103 -37t40 -100q0 -93 -57.5 -150t-147.5 -57q-63 0 -103 36.5t-40 98.5zM510 106q0 93 57.5 151t147.5 58q63 0 103 -37t40 -100q0 -93 -57.5 -150t-147.5 -57q-63 0 -103 36.5t-40 98.5zM1032 106q0 93 57.5 151t147.5 58 q63 0 103 -37t40 -100q0 -93 -57 -150t-147 -57q-63 0 -103.5 36.5t-40.5 98.5z" />
<glyph unicode="&#x202f;" horiz-adv-x="371" />
<glyph unicode="&#x2039;" horiz-adv-x="841" d="M227 508l340 340h236l-359 -359l211 -321h-206z" />
<glyph unicode="&#x203a;" horiz-adv-x="856" d="M25 168l358 358l-209 322h205l221 -340l-340 -340h-235z" />
<glyph unicode="&#x205f;" horiz-adv-x="463" />
<glyph unicode="&#x20ac;" d="M8 492l49 159h123q3 47 13 107h-103l49 160h88q27 88 66 163.5t99 143t135 115t176.5 75t220.5 27.5q252 0 354 -127l-135 -176q-99 92 -242 92q-286 0 -383 -313h512l-51 -160h-496q-8 -70 -10 -107h473l-47 -159h-426q13 -169 85 -239.5t200 -70.5q176 0 325 82 l-39 -215q-86 -41 -170.5 -59.5t-197.5 -18.5q-476 0 -498 521h-170z" />
<glyph unicode="&#x2122;" horiz-adv-x="1101" d="M66 1264l14 88h412l-15 -88h-149l-58 -330h-114l57 330h-147zM467 934l74 416h172l22 -301l125 301h172l-74 -416h-114l55 291l-125 -283h-117l-26 281l-49 -289h-115z" />
<glyph unicode="&#x25fc;" horiz-adv-x="1085" d="M0 0v1085h1085v-1085h-1085z" />
</font>
</defs>
</svg>
