<?xml version="1.0" standalone="no"?>
<!DOCTYPE svg PUBLIC "-//W3C//DTD SVG 1.1//EN" "http://www.w3.org/Graphics/SVG/1.1/DTD/svg11.dtd" >
<svg xmlns="http://www.w3.org/2000/svg">
<metadata></metadata>
<defs>
<font id="dancing_scriptregular" horiz-adv-x="1214" >
<font-face units-per-em="2048" ascent="1475" descent="-573" />
<missing-glyph horiz-adv-x="532" />
<glyph unicode="&#xfb01;" horiz-adv-x="1136" d="M-139 -393q0 78 23.5 200.5t65.5 268t98 306.5t123 316.5t139.5 296t146 247t145.5 170t135 63.5q43 0 56.5 -27t13.5 -62q0 -88 -48 -193.5t-127 -209.5t-176.5 -199.5t-195.5 -165.5q-10 -23 -18.5 -45t-16.5 -45q33 -12 47 -51q29 -96 78 -135t107 -39q66 0 134 40 t122 93q20 51 45.5 97.5t53.5 82t56.5 57t57.5 21.5q18 0 31.5 -11t13.5 -34q0 -25 -34 -81t-74 -126.5t-72.5 -149.5t-32.5 -151q0 -74 24.5 -98.5t75.5 -24.5q35 0 72 16.5t77 53.5t81.5 96.5t85.5 147.5l18 -21q-31 -88 -75 -156.5t-97 -114.5t-112.5 -69.5t-119.5 -23.5 q-80 0 -118.5 50t-38.5 122q0 41 13 103.5t36 129.5q-59 -47 -126 -74.5t-132 -27.5q-31 0 -68 8t-73 25q4 -33 6 -67t2 -64q0 -129 -26.5 -258.5t-72 -233.5t-101.5 -168.5t-116 -64.5q-16 0 -35.5 7t-37 26.5t-28.5 54t-11 92.5zM-12 -377q0 -47 10 -72.5t29 -25.5 q29 0 65.5 61.5t68.5 155.5t53.5 206t21.5 210q0 25 -1.5 56.5t-7.5 63t-18 60.5t-35 47q-41 -117 -74.5 -230.5t-58.5 -214t-39 -182.5t-14 -135zM293 702q98 92 179 186.5t137.5 177.5t87 147.5t30.5 95.5q0 28 -29 28q-41 0 -89 -50t-101 -137t-108.5 -203t-106.5 -245z M950 952q0 20 14.5 40t36 35t48 23.5t51.5 8.5q31 0 49 -14.5t18 -49.5q0 -18 -11 -38.5t-30.5 -36t-43 -25.5t-48.5 -10q-35 0 -59.5 16.5t-24.5 50.5z" />
<glyph unicode="&#xfb02;" horiz-adv-x="1124" d="M-139 -393q0 78 23.5 200.5t65.5 268t98 306.5t123 316.5t139.5 296t146 247t145.5 170t135 63.5q43 0 56.5 -27t13.5 -62q0 -88 -48 -193.5t-127 -209.5t-176.5 -199.5t-195.5 -165.5q-10 -23 -18.5 -45t-16.5 -45q20 -6 31.5 -23.5t15.5 -39.5q14 -117 67.5 -162 t121.5 -45q51 0 105.5 19.5t103.5 48.5q25 111 71.5 238.5t104 255.5t122 246t125 209t110.5 145.5t81 54.5q16 0 28.5 -15.5t21.5 -39t13.5 -50.5t4.5 -47q0 -45 -19.5 -116.5t-55.5 -156.5t-86 -179.5t-110.5 -185.5t-130 -173t-143.5 -143q-12 -55 -19.5 -107.5 t-7.5 -99.5q0 -158 90 -158q41 0 82 28.5t79 75t72 105.5t60 119l33 -17q-82 -176 -178 -276t-207 -100q-88 0 -126 59t-38 152q0 55 12 122q-115 -63 -227 -63q-35 0 -74 9t-73 30q2 -25 3 -49.5t1 -46.5q0 -129 -26.5 -258.5t-72 -233.5t-101.5 -168.5t-116 -64.5 q-16 0 -35.5 7t-37 26.5t-28.5 54t-11 92.5zM-12 -377q0 -47 10 -72.5t29 -25.5q29 0 65.5 61.5t68.5 154.5t53.5 201.5t21.5 204.5q0 53 -10.5 118t-53.5 112q-41 -117 -75 -229.5t-58.5 -211t-37.5 -179.5t-13 -134zM293 702q98 92 179 186.5t137.5 177.5t87 147.5 t30.5 95.5q0 28 -29 28q-41 0 -89 -50t-101 -137t-108.5 -203t-106.5 -245zM825 438q88 90 172 213t148.5 245t103.5 225.5t39 154.5q0 20 -5 26.5t-9 6.5q-14 0 -45 -37t-71 -100.5t-87 -149.5t-92 -182.5t-85 -199.5t-69 -202z" />
<glyph horiz-adv-x="2048" />
<glyph horiz-adv-x="2048" />
<glyph unicode="&#xd;" horiz-adv-x="2048" />
<glyph unicode=" "  horiz-adv-x="532" />
<glyph unicode="&#x09;" horiz-adv-x="532" />
<glyph unicode="&#xa0;" horiz-adv-x="532" />
<glyph unicode="!" horiz-adv-x="534" d="M-63 35q0 35 38.5 59.5t79.5 24.5q25 0 39.5 -10.5t14.5 -38.5q0 -31 -33 -60.5t-74 -29.5q-27 0 -46 13t-19 42zM61 211q0 37 11.5 86t28 101.5t37 105.5t36.5 96q57 147 118.5 303t121 283t113 208t96.5 81q16 0 28.5 -13.5t12.5 -34.5q0 -29 -34 -114.5t-88.5 -202.5 t-122 -251t-135 -260t-127 -229.5t-96.5 -158.5z" />
<glyph unicode="&#x22;" horiz-adv-x="503" d="M248 1255q0 31 11 70t28.5 72t40 55.5t45.5 22.5q20 0 35.5 -17.5t15.5 -40.5q-57 -59 -85 -118.5t-56 -118.5q-18 10 -26.5 30.5t-8.5 44.5zM494 1255q0 31 11 70t28.5 72t40 55.5t44.5 22.5q20 0 36 -17.5t16 -40.5q-57 -59 -85 -118.5t-57 -118.5q-18 10 -26 30.5 t-8 44.5z" />
<glyph unicode="#" horiz-adv-x="1370" d="M-2 317q2 39 38 66t95 43t138 24.5t171 10.5q4 23 13.5 65.5t15.5 65.5q-66 -4 -131.5 -8t-147.5 -13l-116 -10q2 37 35.5 63.5t90 43t132.5 24.5t162 10q47 217 79.5 391.5t57.5 288.5q6 29 20.5 53.5t71.5 39.5q-6 -27 -19.5 -99.5t-33 -177t-43 -231.5t-49.5 -262h8 q66 0 129 -2.5t125 -6.5q47 219 80.5 394.5t58.5 291.5q6 29 20.5 53.5t71.5 39.5q-6 -27 -19.5 -101t-34 -180.5t-45 -235.5t-50.5 -266q117 -6 220 -14t193 -8q-55 -47 -107 -56.5t-100 -9.5q-66 0 -120 -1t-103 -1q-6 -31 -16 -79t-15 -77q109 -6 204.5 -13t178.5 -7 q-55 -47 -106 -56.5t-98 -9.5h-103.5t-93.5 -2q-35 -172 -65.5 -301t-66.5 -215t-81 -130t-106 -44q27 33 55.5 99.5t57 157.5t57 201t57.5 226h-258q-35 -170 -65.5 -298t-65.5 -214t-79 -129t-108 -43q27 33 54.5 98.5t56.5 155.5t57.5 198.5t57.5 227.5q-70 -4 -140.5 -8 t-160.5 -12zM528 461q66 0 131.5 -2t126.5 -6l33 147q-80 0 -143.5 -1t-120.5 -3z" />
<glyph unicode="$" horiz-adv-x="1089" d="M-18 195q0 68 25.5 119t63.5 83.5t84 49t89 16.5q-55 -59 -84 -131t-29 -142q0 -104 63.5 -165.5t182.5 -73.5q37 123 74.5 275.5t72.5 312.5q-51 31 -101 62.5t-90 71.5t-64.5 92t-24.5 122q0 84 35.5 159.5t97 135t141.5 99.5t170 54q4 18 8 39t13.5 40.5t28 35 t53.5 25.5q-4 -16 -10.5 -51t-14.5 -83q68 0 113 -15t71.5 -44t36.5 -67.5t10 -86.5q0 -80 -25.5 -165.5t-72.5 -163.5q-37 8 -54.5 32.5t-17.5 53.5q0 25 12.5 63.5t26 81.5t25.5 86t12 76q0 47 -32.5 73.5t-114.5 26.5l-121 -639q53 -29 104.5 -60.5t92 -72.5t66.5 -96 t26 -131q0 -92 -39 -165t-103.5 -124t-147.5 -80.5t-173 -38.5q-41 -106 -90 -161.5t-115 -55.5q23 29 48.5 85.5t51.5 131.5q-76 4 -143.5 25.5t-118.5 59.5t-81.5 94.5t-30.5 130.5zM373 938q0 -90 54 -145.5t132 -98.5q35 168 65.5 321.5t53.5 268.5q-70 -14 -126 -50 t-96 -84t-61.5 -103.5t-21.5 -108.5zM481 -49q141 14 221 89.5t80 190.5q0 96 -52 155.5t-128 107.5q-41 -211 -70.5 -347.5t-50.5 -195.5z" />
<glyph unicode="%" horiz-adv-x="1431" d="M139 -178q47 47 121 155.5t160 250t177 304t173 320.5t147.5 297t102.5 233q6 14 24.5 31t43 30t52 22.5t52.5 9.5q-10 -29 -53 -115l-102.5 -205t-132.5 -256t-143.5 -269t-135 -247t-107.5 -184q-106 -170 -198.5 -273.5t-180.5 -103.5zM180 932q0 68 21.5 145.5 t60.5 142t94.5 107.5t120.5 43q78 0 125 -57.5t47 -155.5q0 -66 -22.5 -143.5t-62.5 -145t-95 -112.5t-121 -45q-43 0 -74.5 18.5t-52 49t-31 70.5t-10.5 83zM293 915q0 -57 17.5 -92t49.5 -35q37 0 70 38t58.5 96.5t40 125t14.5 126.5q0 53 -15.5 87.5t-50.5 34.5 q-45 0 -80 -41t-57.5 -100t-34.5 -124.5t-12 -115.5zM842 221q0 68 21.5 145.5t60.5 142t94 107.5t121 43q78 0 125 -57.5t47 -155.5q0 -66 -22.5 -143.5t-62.5 -145t-95.5 -112.5t-120.5 -45q-43 0 -75 18.5t-52.5 49t-30.5 70.5t-10 83zM954 207q0 -59 17.5 -94t50.5 -35 q37 0 69.5 38t58.5 96t40 124.5t14 126.5q0 53 -15 88t-50 35q-45 0 -80 -41t-57.5 -100.5t-35 -125t-12.5 -112.5z" />
<glyph unicode="&#x26;" horiz-adv-x="1263" d="M-27 195q0 94 41 185t114 163.5t169 122t207 59.5q-80 66 -118 152t-38 172q0 82 32 157.5t88 135t134 95.5t170 36q223 0 223 -218q0 -57 -14 -113.5t-37.5 -100.5t-51.5 -71.5t-52 -27.5q-23 0 -43.5 19.5t-32.5 46.5q72 63 120 131.5t48 148.5q0 63 -34 103.5 t-105 40.5q-72 0 -127.5 -35t-92 -92.5t-56 -133t-19.5 -157.5q0 -37 5 -78t17 -82t36 -80t60 -69q-102 -16 -186 -68.5t-143.5 -125.5t-91 -157t-31.5 -166q0 -51 14.5 -103t45 -95t80.5 -71t122 -28q109 0 211 55.5t183 146.5t135.5 208t68.5 240q-33 -2 -58.5 -4 t-51 -5.5t-51 -8.5t-58.5 -11l-49 -10q2 43 19.5 70.5t46 44t66.5 22.5t81 6q92 0 171 -16.5t142 -18.5q-23 -47 -44 -56t-42 -9q-35 -2 -64.5 -2h-54.5q-14 -141 -77.5 -271.5t-159 -229.5t-216 -159.5t-251.5 -60.5q-92 0 -166 29.5t-126 81t-80 119t-28 143.5z" />
<glyph unicode="'" horiz-adv-x="258" d="M248 1255q0 31 11 70t28.5 72t40 55.5t45.5 22.5q20 0 35.5 -17.5t15.5 -40.5q-57 -59 -85 -118.5t-56 -118.5q-18 10 -26.5 30.5t-8.5 44.5z" />
<glyph unicode="(" horiz-adv-x="530" d="M96 387q0 164 34 307.5t89 264t124 217t138.5 163t134 101.5t109.5 35q-135 -96 -232.5 -229.5t-159 -285t-90 -313.5t-28.5 -315q0 -154 25.5 -273.5t70.5 -193.5q-8 -16 -18 -26.5t-23 -16.5q-37 23 -69.5 76t-55 128.5t-36 168t-13.5 192.5z" />
<glyph unicode=")" horiz-adv-x="550" d="M-145 -129q106 76 201.5 184.5t168 247.5t114.5 307t42 363q0 129 -27.5 254t-117.5 248q41 -10 85 -54.5t80.5 -119t60 -178t23.5 -232.5q0 -154 -33.5 -293t-87 -258t-119 -215t-131 -162.5t-123 -103.5t-91.5 -37q-14 4 -25.5 18.5t-19.5 30.5z" />
<glyph unicode="*" horiz-adv-x="802" d="M217 1171q51 4 106.5 5.5t133.5 5.5q-43 72 -71 133t-28 102q0 18 9.5 30.5t19.5 22.5q37 -78 66.5 -139t72.5 -127q23 49 43.5 94t43 80t48 59.5t60.5 32.5q-18 -51 -58 -127.5t-79 -160.5q23 2 50.5 4t55.5 2q49 0 96.5 -12.5t79.5 -47.5l-266 -24q18 -29 36.5 -54.5 t34 -57t26 -71.5t10.5 -94q-12 14 -33 43t-45.5 65t-51 76t-53.5 79q-27 -51 -52.5 -97.5t-52 -81t-53 -55t-53.5 -20.5q27 37 44.5 68.5t33 62t29.5 63.5t33 74h-54q-27 0 -56.5 2t-55 9t-45 20.5t-25.5 35.5z" />
<glyph unicode="+" horiz-adv-x="837" d="M-14 295q20 55 109 75.5t216 24.5v103q0 43 11.5 101t48.5 110q4 -41 10 -127t8 -187q104 -2 194.5 -8t133.5 -10q-51 -37 -109.5 -48.5t-101.5 -11.5h-117q-4 -133 -23.5 -225t-76.5 -115q8 49 12 89t6 79t3 80t1 92q-47 0 -87 -1t-76.5 -3t-75.5 -6t-86 -12z" />
<glyph unicode="," horiz-adv-x="403" d="M-41 -104q0 31 11.5 69.5t28.5 71.5t39.5 55.5t45.5 22.5q20 0 35.5 -17.5t15.5 -40.5q-57 -59 -84.5 -118.5t-56.5 -118.5q-18 10 -26.5 30.5t-8.5 45.5z" />
<glyph unicode="-" horiz-adv-x="993" d="M53 295q12 31 46 50.5t85.5 30.5t117 15t138.5 4q111 0 205 -7t139 -11q-51 -37 -109.5 -48.5t-101.5 -11.5h-194q-49 0 -88 -1t-76 -3t-75 -6t-87 -12z" />
<glyph unicode="." horiz-adv-x="440" d="M-4 35q0 35 39 59.5t80 24.5q25 0 39 -10.5t14 -38.5q0 -31 -33 -60.5t-74 -29.5q-27 0 -46 13t-19 42z" />
<glyph unicode="/" horiz-adv-x="677" d="M-160 -332q47 47 113.5 167t140.5 278.5t152 342t148.5 357.5t129 324.5t94.5 244.5q6 14 25 31t43.5 30t52 22.5t52.5 9.5q-8 -23 -34 -84.5t-62 -149.5t-81 -195.5t-92 -223t-95 -231.5t-92 -219.5t-79 -188.5t-57 -138q-78 -184 -174.5 -280.5t-184.5 -96.5z" />
<glyph unicode="0" horiz-adv-x="1292" d="M88 356q0 117 24.5 245t70.5 253t111.5 236.5t147.5 197.5t179.5 136.5t207.5 50.5q92 0 168 -36t128.5 -101.5t81 -158.5t28.5 -208q0 -209 -57.5 -414t-158.5 -368.5t-239.5 -265t-300.5 -101.5q-102 0 -176 44t-121 117.5t-70.5 170t-23.5 202.5zM260 313 q0 -96 17.5 -174t49 -133t78 -85t103.5 -30q78 0 149.5 52.5t135 139.5t117 200.5t91 238.5t58 252t20.5 240q0 86 -13 160.5t-43 129t-77 85t-115 30.5q-92 0 -170.5 -56t-142 -147.5t-112 -209t-81 -240.5t-49 -240.5t-16.5 -212.5z" />
<glyph unicode="1" horiz-adv-x="749" d="M-115 -94q16 -2 32.5 -3t33.5 -1q53 0 110.5 6t110.5 16q31 72 59.5 173.5t55 217t51 238.5t47.5 240.5t43.5 221t38.5 181.5q-59 -41 -99 -67.5t-68 -42t-44 -20.5t-25 -5q-25 0 -38 11t-13 48q29 14 79 49t109.5 82t123 105t118.5 119q10 -10 14.5 -29t4.5 -35 q0 -51 -18.5 -109.5t-28.5 -119.5q-20 -141 -51 -310.5t-71 -338t-87 -324.5t-103 -270q43 6 82 6q78 0 131.5 -21.5t67.5 -93.5q-41 4 -81 7t-81 3q-98 0 -181 -9t-167 -9q-37 0 -82 21.5t-74 62.5z" />
<glyph unicode="2" horiz-adv-x="1146" d="M-59 0q0 47 36.5 72.5t116.5 25.5q45 0 99.5 -8t115.5 -20q94 82 191.5 206.5t177.5 269t130 296t50 286.5q0 154 -61.5 222.5t-155.5 68.5q-68 0 -120 -31.5t-88 -87t-54.5 -131t-18.5 -163.5q0 -41 5.5 -71t19.5 -69h-10q-72 18 -108 57.5t-36 125.5q0 82 32 158.5 t90.5 136t140 95.5t180.5 36q76 0 136 -29t103 -80t65.5 -118.5t22.5 -145.5q0 -104 -26.5 -205.5t-69.5 -198.5q-41 -90 -96 -180t-119.5 -175t-136.5 -161t-145 -135l57 -12q106 -25 207.5 -44.5t175.5 -19.5q39 0 72.5 11.5t83.5 40.5q-27 -104 -77 -152.5t-132 -48.5 q-78 0 -184.5 38t-209.5 81q-23 10 -44 19t-44 17q-66 -41 -123 -64.5t-110 -23.5q-61 0 -100 31t-39 80zM4 -4q0 -23 22.5 -37t51.5 -14q33 0 71.5 17.5t81.5 45.5q-47 16 -87 26.5t-68 10.5q-41 0 -56.5 -17.5t-15.5 -31.5z" />
<glyph unicode="3" horiz-adv-x="1046" d="M-8 113q0 39 10 78.5t31.5 71.5t52.5 51.5t72 19.5h19t18 -2q-29 -25 -47.5 -81t-18.5 -110q0 -49 15.5 -94t43 -81t68.5 -57.5t90 -21.5q61 0 120.5 33t107 93.5t76 144.5t28.5 186q0 59 -11.5 119.5t-38 111t-70.5 89t-107 55.5q76 33 137 91t104 128t66.5 143.5 t23.5 139.5q0 55 -15 93t-41 61.5t-59.5 33.5t-68.5 10q-43 0 -85 -14t-74.5 -43t-53 -70t-20.5 -94q0 -31 8 -66.5t24 -70.5q-10 -23 -34.5 -40t-47.5 -17q-18 0 -32.5 15t-23.5 38.5t-14 52.5t-5 55q0 74 33.5 132.5t88 97.5t123 59.5t138.5 20.5q61 0 118.5 -16.5 t100.5 -49.5t69.5 -82t26.5 -117t-27.5 -142.5t-76 -141t-114 -116.5t-140.5 -71q88 -23 147 -67.5t94 -100t50.5 -115t15.5 -112.5q0 -96 -42 -190.5t-118 -168t-178.5 -118.5t-220.5 -45q-94 0 -159 27.5t-103.5 70.5t-56 94.5t-17.5 98.5z" />
<glyph unicode="4" horiz-adv-x="980" d="M-37 453q0 55 37 86q82 96 199.5 207.5t241.5 231.5t237.5 246t185.5 251q8 -4 15.5 -16.5t7.5 -37.5q0 -47 -39 -112q-8 -35 -23.5 -104.5t-35 -164t-42 -209t-47.5 -241.5h86q39 0 67 2t56 10q-39 -53 -92 -87t-92 -34h-45q-6 -31 -12 -61.5t-11 -61.5 q-8 -47 -20 -124.5t-22.5 -158.5t-18.5 -151.5t-8 -101.5q-70 6 -114 28.5t-44 67.5q2 25 10 72q6 41 17.5 106.5t29.5 169.5q2 12 14.5 71.5t30.5 145.5q-47 0 -91 1t-79 1q-135 0 -230 -8t-169 -24zM143 590q45 6 97.5 8t109.5 2q59 0 109.5 -1t97.5 -3q29 131 62.5 272.5 t66.5 247.5q-57 -57 -121.5 -117.5t-129 -120t-126 -118t-110.5 -111.5q-16 -16 -29.5 -31.5t-26.5 -27.5z" />
<glyph unicode="5" horiz-adv-x="991" d="M-27 111q0 39 10.5 78.5t32 72.5t52 52.5t71.5 19.5h19.5t17.5 -2q-29 -25 -47 -80t-18 -119q0 -47 11 -91t35.5 -78t64.5 -55.5t97 -21.5q82 0 145.5 42t107.5 109.5t68 151.5t24 166q0 63 -15.5 121t-48.5 102t-85 70.5t-126 26.5q-76 0 -188 -23q10 72 39.5 186.5 t63.5 235.5t64.5 226.5t45.5 158.5q61 -16 115.5 -21t101.5 -5q86 0 160.5 12t156.5 29q8 -31 8 -56q0 -45 -22.5 -74.5t-59 -47t-81.5 -24.5t-88 -7q-78 0 -131.5 13t-92.5 13q-18 0 -26.5 -7t-20.5 -34q-14 -33 -30.5 -83t-33 -108.5t-32.5 -117.5t-28.5 -107.5t-20.5 -82 t-10 -39.5q43 10 87 15t91 5q104 0 180 -29.5t126 -81t74.5 -123t24.5 -153.5q0 -111 -41 -207t-112.5 -166.5t-171 -110.5t-218.5 -40q-100 0 -166.5 27.5t-106.5 69.5t-56.5 93t-16.5 99z" />
<glyph unicode="6" horiz-adv-x="1150" d="M80 328q0 117 25.5 247t73.5 258t117 243.5t157 204.5t192.5 141.5t222.5 52.5q84 0 138.5 -29t54.5 -90q0 -29 -18.5 -55.5t-75.5 -43.5q0 16 2 26.5t2 31.5q0 45 -21.5 78.5t-91.5 33.5q-98 0 -184 -71.5t-157 -186t-124 -256t-86 -280.5q68 63 159 98t187 35 q76 0 144.5 -23.5t120 -71.5t81 -123t29.5 -179q0 -117 -39 -216.5t-109.5 -173t-168 -115.5t-213.5 -42q-115 0 -195 40t-129 108.5t-71.5 160.5t-22.5 197zM262 287q0 -57 9.5 -127t37 -130.5t74.5 -101.5t125 -41t141.5 44t107.5 115t68.5 159t24.5 176q0 82 -21.5 142.5 t-56.5 98t-81 56t-97 18.5q-92 0 -155.5 -33.5t-102.5 -91t-56.5 -131t-17.5 -153.5z" />
<glyph unicode="7" horiz-adv-x="827" d="M100 592q2 45 29 71.5t68 41t92 17.5t100 3h49q82 154 174.5 303.5t163.5 271.5q-29 0 -70.5 -2t-88 -4t-91.5 -4t-80 -2q-121 0 -164.5 27.5t-43.5 68.5q0 37 26 86q43 -6 81 -13t80 -13t93 -10t121 -4q96 0 188.5 9t155.5 31q-16 -25 -48 -71.5t-63 -81.5 q-78 -113 -160.5 -263.5t-166.5 -334.5q57 -4 104 -7t99 -3q29 0 41 1t24 5q-35 -49 -74 -77t-88 -28h-66.5t-88.5 2q-27 -63 -58.5 -138t-59.5 -152.5t-46.5 -154.5t-18.5 -144q0 -27 5.5 -47.5t19.5 -30.5q-16 -35 -39 -58.5t-45.5 -38t-44 -20.5t-35.5 -6 q-29 0 -49.5 22.5t-20.5 69.5q0 45 21.5 116.5t59.5 164t88.5 199t105.5 218.5q-29 0 -66 -2t-75.5 -5t-75.5 -6t-62 -7z" />
<glyph unicode="8" horiz-adv-x="1081" d="M39 158q0 88 40 159.5t102.5 134t141 120t158.5 116.5q-43 47 -85 97.5t-73.5 104.5t-51 114.5t-19.5 130.5q0 92 33.5 155.5t88 104.5t122 59.5t135.5 18.5q139 0 224 -75t85 -220q0 -76 -23.5 -139.5t-63.5 -120t-93 -106.5t-113 -97q47 -51 93 -103.5t83 -110 t59.5 -120t22.5 -131.5q0 -98 -44 -178t-114.5 -135.5t-162.5 -85t-187 -29.5q-104 0 -172.5 32.5t-109.5 83t-58.5 109t-17.5 111.5zM164 164q0 -61 21.5 -109.5t57.5 -82t82 -52t93 -18.5q55 0 112.5 24.5t103.5 68.5t74.5 106.5t28.5 140.5q0 57 -16 108t-45 98.5 t-66 92.5t-75 88q-72 -51 -138.5 -103.5t-118 -108t-83 -117.5t-31.5 -136zM412 1161q0 -117 54 -208t128 -177q96 82 161.5 179.5t65.5 224.5q0 121 -56 179t-132 58q-35 0 -74 -13t-71.5 -44t-54 -80t-21.5 -119z" />
<glyph unicode="9" horiz-adv-x="1161" d="M156 946q0 113 36.5 209t104.5 167t162 112t209 41q119 0 202.5 -42t135 -116t75 -171t23.5 -208q0 -115 -23.5 -243t-68.5 -252t-109.5 -236.5t-147.5 -198.5t-184.5 -136t-216.5 -50q-86 0 -141 28.5t-55 94.5q0 29 18.5 53.5t71.5 40.5q0 -16 -1 -25.5t-1 -25.5 q0 -47 22 -83t94 -36q98 0 182.5 71.5t150 186.5t113.5 256t77 281q-66 -66 -156 -100t-184 -34q-78 0 -148.5 25t-124 75t-85 129t-31.5 187zM334 934q0 -88 22.5 -151.5t59.5 -103.5t85 -59.5t101 -19.5q164 0 238.5 100.5t74.5 260.5q0 76 -10 155.5t-38.5 144t-79 106.5 t-128.5 42q-76 0 -136 -42t-102 -109.5t-64.5 -152.5t-22.5 -171z" />
<glyph unicode=":" horiz-adv-x="444" d="M0 35q0 35 39 59.5t80 24.5q25 0 39 -10.5t14 -38.5q0 -31 -32.5 -60.5t-73.5 -29.5q-27 0 -46.5 13t-19.5 42zM123 547q0 35 39 59.5t80 24.5q25 0 39 -10.5t14 -38.5q0 -31 -33 -60.5t-74 -29.5q-27 0 -46 13t-19 42z" />
<glyph unicode=";" horiz-adv-x="438" d="M-18 -104q0 31 11 69.5t28.5 71.5t40 55.5t44.5 22.5q20 0 36 -17.5t16 -40.5q-57 -59 -85 -118.5t-57 -118.5q-18 10 -26 30.5t-8 45.5zM123 547q0 35 39 59.5t80 24.5q25 0 39 -10.5t14 -38.5q0 -31 -33 -60.5t-74 -29.5q-27 0 -46 13t-19 42z" />
<glyph unicode="&#x3c;" horiz-adv-x="636" d="M23 324l26 4q41 20 90 56t99.5 79t95.5 91t78 93q4 -4 7 -19.5t3 -25.5q0 -41 -35 -83t-87 -82t-112.5 -74.5t-111.5 -61.5q35 -25 64.5 -46.5t65.5 -41.5t84 -41.5t118 -48.5q-10 -10 -24.5 -21.5t-35.5 -11.5q-37 0 -89 24.5t-102.5 61.5t-88 77t-45.5 71z" />
<glyph unicode="=" horiz-adv-x="1032" d="M86 217q12 31 46 50.5t85 30.5t116.5 15t139.5 4q111 0 205 -7t139 -11q-51 -37 -109.5 -48t-101.5 -11h-207q-47 0 -83.5 -1t-72.5 -3.5t-73 -6.5t-84 -12zM86 422q12 31 46 50.5t85 30.5t116.5 15t139.5 4q111 0 205 -7t139 -11q-51 -37 -109.5 -48.5t-101.5 -11.5 h-207q-47 0 -83.5 -1t-72.5 -3t-73 -6t-84 -12z" />
<glyph unicode="&#x3e;" horiz-adv-x="665" d="M104 602q0 10 3.5 25.5t7.5 19.5q33 -45 78 -93t95 -91t99 -79t90 -56l27 -4q-8 -31 -46 -71t-88.5 -77t-102.5 -61.5t-89 -24.5q-20 0 -34.5 11.5t-24.5 21.5q70 27 118 48.5t83.5 41.5t65.5 41.5t65 46.5q-51 27 -111.5 61.5t-113 74.5t-87.5 82t-35 83z" />
<glyph unicode="?" horiz-adv-x="897" d="M201 1024q0 86 31.5 168t88 144.5t135.5 100.5t175 38q129 0 202.5 -70t73.5 -203q0 -76 -23.5 -135t-60.5 -112.5t-82 -103.5t-90 -105.5t-83 -118t-60 -142.5q-20 -70 -24.5 -125t-26.5 -106q-41 20 -52.5 37.5t-11.5 58.5q0 82 29 150.5t73 131t94 123t94 126 t72.5 140.5t28.5 165q0 117 -46 174t-115 57q-53 0 -108.5 -33.5t-100.5 -93t-73 -138.5t-28 -169q0 -35 4.5 -61.5t10.5 -55.5q-78 12 -102.5 54.5t-24.5 103.5zM307 33q0 37 39 61.5t80 24.5q53 0 53 -45q0 -35 -32.5 -64.5t-73.5 -29.5q-27 0 -46.5 13t-19.5 40z" />
<glyph unicode="@" horiz-adv-x="1196" d="M-14 180q0 117 47 230.5t133 201.5t207 142.5t266 54.5q113 0 193.5 -32t134 -84t79 -118.5t25.5 -136.5q0 -76 -28.5 -150.5t-76.5 -135t-113 -97.5t-138 -37q-68 0 -99.5 33t-31.5 88q0 12 1 21.5t3 19.5q-141 -190 -269 -190q-51 0 -85.5 33.5t-34.5 101.5 q0 74 41 162t106.5 163.5t146 127t160.5 51.5q63 0 106.5 -34t43.5 -89q0 -41 -22.5 -55.5t-59.5 -14.5q4 12 6 27.5t2 28.5q0 39 -17.5 65.5t-60.5 26.5q-39 0 -79 -23.5t-77.5 -61.5t-71.5 -86t-58.5 -99.5t-39 -101.5t-14.5 -89q0 -66 45 -66q39 0 86 39t94.5 95.5 t90 118t73.5 104.5q16 -2 41 -12.5t25 -28.5q0 -14 -14.5 -40t-33 -57.5t-32.5 -66.5t-14 -68q0 -23 12 -45t57 -22q49 0 96.5 30.5t84 79.5t60.5 112.5t24 129.5q0 57 -20.5 115.5t-66 103.5t-114 74t-166.5 29q-131 0 -238.5 -51.5t-183.5 -133.5t-117 -184.5t-41 -206.5 q0 -70 20.5 -135.5t64.5 -117.5t116 -84t174 -32q111 0 222.5 41t215.5 133l13 -16q-78 -90 -195 -149.5t-268 -59.5q-115 0 -198 36t-136 96.5t-77.5 137t-24.5 158.5z" />
<glyph unicode="A" d="M-35 -72q0 43 24.5 109.5t66.5 150.5t98.5 181.5t121.5 199.5q-76 6 -129 8.5t-92 2.5h-71q23 59 79 82.5t134 23.5q35 0 70.5 -4t76.5 -10q78 117 160 231.5t158.5 214t144 177t115.5 122.5q59 57 98 58q43 0 108 -66q-20 -16 -52 -88t-67.5 -177.5t-70.5 -233.5 t-63.5 -258t-47 -249.5t-18.5 -209.5q0 -78 17.5 -121t58.5 -43q53 0 120.5 73.5t147.5 229.5l21 -21q-31 -82 -71 -150.5t-86 -117.5t-96.5 -76.5t-101.5 -27.5q-86 0 -123 74.5t-37 199.5q0 131 35 305q-92 14 -165.5 23.5t-137.5 17.5q-98 -180 -188 -367.5t-168 -369.5 q-47 27 -58.5 56.5t-11.5 49.5zM444 653q70 -16 137.5 -32.5t127.5 -30.5q23 100 52.5 204.5t61 204t66 187.5t65.5 160q-47 -29 -106.5 -93.5t-125 -154.5t-136 -204t-142.5 -241z" />
<glyph unicode="B" horiz-adv-x="1247" d="M39 -14q0 6 10 6q6 0 17.5 -3t33 -7.5t55 -7.5t87.5 -3q176 0 325.5 41t258 108.5t170 156t61.5 180.5q0 84 -48 134t-123 77.5t-166 37t-179 9.5q-41 0 -80 -1t-74 -1q-47 -166 -92 -333t-92 -327q-51 0 -86 29t-35 70q0 25 10 57.5t19 58.5q10 33 33.5 108t57.5 173 t73.5 213t85 231.5t92.5 226t92 197.5q-66 -12 -114 -30.5t-82 -36t-55.5 -30.5t-31.5 -13q-16 0 -40.5 19.5t-24.5 35.5q51 20 103 40.5t110.5 37t125 26t146.5 9.5q68 0 150.5 -11.5t154.5 -45.5t120 -98.5t48 -170.5q0 -100 -44 -171t-111.5 -117t-150.5 -72.5 t-163 -38.5q152 -10 244 -44t141 -82.5t65.5 -101.5t16.5 -102q0 -100 -44 -183t-117.5 -150t-167 -116t-193 -82.5t-194.5 -50t-171 -16.5q-113 0 -170 38t-57 126zM399 760q113 4 225.5 25.5t203 68.5t147.5 123t57 188q0 80 -29.5 131.5t-77.5 82t-110.5 42t-128.5 11.5 h-19.5t-19.5 -2q-74 -145 -134 -315.5t-114 -354.5z" />
<glyph unicode="C" horiz-adv-x="1095" d="M45 322q0 135 36 273t96.5 265t142 239.5t176 194.5t193.5 130.5t198 48.5q84 0 136 -40t52 -137q0 -59 -21.5 -135t-55 -142.5t-75.5 -112.5t-85 -46q-16 0 -34 10.5t-30 36.5q31 35 70 87.5t71.5 109.5t55 114.5t22.5 100.5q0 41 -23.5 66.5t-76.5 25.5 q-74 0 -152.5 -51t-155.5 -138t-144.5 -201t-120 -239t-82 -253t-29.5 -242q0 -76 16.5 -147.5t51 -127t89 -88.5t132.5 -33q82 0 163.5 36t155.5 96.5t135.5 140.5t102.5 168l28 -21q-51 -100 -118.5 -189t-147.5 -155.5t-173 -105.5t-195 -39q-109 0 -186 43t-125 113.5 t-70.5 159.5t-22.5 184z" />
<glyph unicode="D" horiz-adv-x="1339" d="M115 -86q20 96 50 212t64.5 234.5t70.5 234.5t68.5 215t59.5 176t41 116q6 16 20.5 48t35 64.5t47 56t57.5 23.5q29 0 57 -20q-63 -147 -128.5 -326.5t-124 -367t-108 -368.5t-81.5 -329q29 -4 48 -6t40 -2q109 0 213 43t196.5 119t170 178t134 220t88 246t31.5 255 q0 125 -30.5 216t-86 150.5t-133 88t-170.5 28.5q-100 0 -186 -30.5t-148.5 -85t-98.5 -127t-36 -156.5q0 -45 11 -76q-68 0 -95.5 34t-27.5 81q0 72 51 145.5t138 134t204 98.5t250 38q137 0 234.5 -43t159 -119t89 -178.5t27.5 -221.5q0 -147 -40 -285.5t-108.5 -260 t-163 -222t-204 -172t-229 -111.5t-238.5 -40q-66 0 -122 17.5t-97 74.5z" />
<glyph unicode="E" horiz-adv-x="1021" d="M-31 195q0 94 41 185t114 163.5t169 122t207 59.5q-80 66 -118 152t-38 172q0 82 32 157.5t88 135t133 95.5t169 36q115 0 174 -57.5t59 -164.5q0 -57 -16 -112.5t-40.5 -99.5t-53.5 -70.5t-53 -26.5q-23 0 -43.5 19.5t-32.5 46.5q72 63 122 133.5t50 150.5q0 63 -37 98 t-109 35t-126 -32.5t-91 -89t-56 -131t-19 -158.5q0 -37 5 -78t17 -82t35.5 -80t60.5 -69q-102 -16 -186 -68.5t-143.5 -125.5t-91 -157t-31.5 -166q0 -51 14 -103t45 -95t81 -71t122 -28q82 0 164 36t155.5 96.5t135 140.5t102.5 168l29 -21q-53 -104 -122 -193 t-149 -155.5t-173 -103.5t-195 -37q-92 0 -166 29.5t-126 81t-80 119t-28 143.5z" />
<glyph unicode="F" horiz-adv-x="989" d="M135 1104q0 80 44 146.5t121 113.5t179.5 73.5t218.5 26.5q109 0 209.5 -15t198.5 -15q82 0 151 20q-76 -86 -127 -114.5t-104 -28.5q-47 0 -122 12t-169 23q-20 -51 -43.5 -118t-49.5 -142.5t-52.5 -157.5t-50.5 -162q104 -6 194 -18.5t164 -14.5q-16 -25 -36.5 -38 t-60.5 -19t-109.5 -9t-182.5 -5l-90 -306q-61 -207 -83 -333.5t-24 -200.5q-47 4 -74.5 17.5t-42 34t-18.5 48t-4 62.5q0 55 18.5 129.5t47 163t64.5 184.5t71 192l-74 -8t-84 -10l-70 -10q2 39 23.5 65.5t57.5 44t84 24.5t104 9q57 158 117.5 308.5t119.5 275.5 q-20 2 -39.5 3t-40.5 1q-98 0 -161.5 -15.5t-100.5 -46t-51 -78t-14 -110.5q0 -47 6 -84t20 -78q-72 12 -103.5 53t-31.5 107z" />
<glyph unicode="G" horiz-adv-x="1136" d="M45 330q0 131 36 267t96.5 263t142 238.5t176 194.5t193.5 131.5t198 48.5q57 0 98 -19.5t66.5 -51.5t37 -74t11.5 -87q0 -53 -14.5 -106.5t-39 -96.5t-57.5 -69.5t-69 -26.5q-16 0 -34 10.5t-30 36.5q20 14 48 50t52.5 80t42 93.5t17.5 90.5q0 47 -27.5 77.5t-95.5 30.5 q-74 0 -152.5 -51t-155.5 -138t-144.5 -201t-120 -239t-82 -253t-29.5 -240q0 -186 78 -292t196 -106q80 0 152 59.5t126 151t89 201t43 209.5q-76 16 -123 21.5t-88 5.5q-29 0 -57.5 -1t-67.5 -1q14 59 50 82.5t89 23.5q43 0 89 -12.5t92.5 -27.5t88.5 -31.5t76 -24.5 l-14 -66q-39 -102 -63.5 -179t-38 -136.5t-18.5 -103.5t-5 -80q0 -41 3 -80t5 -80q-51 20 -80.5 56t-29.5 91q0 45 14 94q-74 -102 -170 -171.5t-217 -69.5q-80 0 -150.5 33.5t-122 99t-81 160t-29.5 215.5z" />
<glyph unicode="H" horiz-adv-x="1265" d="M113 -178q12 70 28.5 144.5t42 168.5t62.5 217t92 291l-135 -14q2 51 48 79.5t122 45.5q35 109 78 235.5t96 278.5q8 23 18 56.5t10 64.5q0 16 -5 22t-23 6q-49 0 -95 -41t-82 -100t-56.5 -126t-20.5 -118q0 -39 10 -69q-68 0 -95.5 33.5t-27.5 82.5q0 70 42 140.5 t104.5 127t134 92.5t129.5 36q55 0 74.5 -31t19.5 -68q0 -23 -5 -45t-11 -43l-160 -520q29 2 58.5 3t60.5 1q98 0 184 -5t164 -13q31 98 61.5 195.5t58 180t50 146t37.5 92.5q6 12 15 29.5t23.5 35t32.5 30t41 12.5q-23 -57 -48 -139.5t-54 -178.5t-57.5 -201.5 t-55.5 -210.5q41 -2 79 -5t75 -3q-47 -47 -89 -56t-83 -9q-18 -76 -34.5 -146.5t-29.5 -134.5q-37 -176 -52 -298t-15 -197q0 -25 1 -42.5t3 -31.5q-80 8 -110.5 45t-30.5 115q0 53 12 133t37 176q16 61 44.5 161.5t63.5 217.5q-94 0 -162.5 -1t-124 -3t-100.5 -4.5 t-90 -6.5q-37 -119 -74 -235.5t-67.5 -213.5t-51 -165t-26.5 -88q-23 -72 -66 -101.5t-75 -29.5z" />
<glyph unicode="I" horiz-adv-x="942" d="M-78 -180q6 55 35 88t74 50t102 21.5t123 4.5q37 80 74 196.5t70.5 248.5t66.5 270.5t61.5 264.5t54 228t46.5 162q-80 -2 -140.5 -4t-112.5 -7.5t-101.5 -12.5t-106.5 -17q14 78 111.5 117.5t306.5 39.5q76 0 155.5 -5t152.5 -11t132 -13t96 -14q-49 -49 -103 -60 t-95 -11h-121t-103 -2q-6 -37 -19 -107.5t-29.5 -161t-37 -194t-40 -205.5t-40 -194.5t-36.5 -159.5q-35 -133 -75 -222.5t-97 -127.5q53 -4 110.5 -10.5t115.5 -12.5t113.5 -11t104.5 -5q-59 -59 -123.5 -73.5t-107.5 -14.5q-166 -2 -316.5 -4.5t-300.5 -30.5z" />
<glyph unicode="J" horiz-adv-x="843" d="M-63 90q0 59 11 120.5t30.5 111t48 81t65.5 31.5q25 0 58 -16q-74 -188 -74 -328q0 -92 32.5 -143t96.5 -51q27 0 49 10t45 34.5t44.5 65.5t43.5 105q27 74 56.5 177t60.5 221t59.5 240.5t54 237.5t46 213t32.5 166q-76 0 -132 -3t-102 -7t-88 -11.5t-91 -19.5 q10 70 89 107.5t244 37.5q61 0 125 -5t122.5 -11t105.5 -13t75 -14q-12 -18 -31.5 -30.5t-42 -18.5t-45 -8t-38.5 -2q-41 0 -77 -1t-69 -1q23 -16 33 -45t10 -51q0 -23 -10 -91.5t-28.5 -166t-45 -214t-59.5 -236.5t-69.5 -233.5t-77.5 -203.5q-41 -92 -82 -150.5t-82 -92.5 t-84 -46t-88 -12q-37 0 -76 9t-70.5 38t-53 81t-21.5 138z" />
<glyph unicode="K" horiz-adv-x="1210" d="M61 -141q20 47 44 105.5t52.5 136t64.5 182t84 245t110.5 322.5t142.5 418q6 16 16.5 45.5t10.5 54.5q0 23 -10.5 36t-38.5 13q-49 0 -95.5 -41t-82 -100t-56 -126t-20.5 -118q0 -39 10 -69q-68 0 -95.5 33.5t-27.5 82.5q0 70 42 140.5t104.5 127t134 92.5t129.5 36 q55 0 74.5 -31t19.5 -68q0 -23 -5 -45t-12 -43l-172 -557q29 41 75 76t102 80q68 55 146.5 124.5t154 147.5t143.5 159t115 157q10 -12 14 -43t4 -48q0 -51 -38 -113.5t-99.5 -129t-140 -134t-161.5 -130t-163 -119t-143 -99.5q61 -104 118.5 -197t127 -184.5t161.5 -186.5 t223 -202q-14 -29 -44.5 -48t-65.5 -19q-37 0 -86 39t-102.5 102.5t-108.5 145t-106.5 167.5t-94.5 169t-74 151l-198 -643q-10 -35 -30.5 -54.5t-46.5 -28.5t-53.5 -10t-52.5 -1z" />
<glyph unicode="L" horiz-adv-x="1169" d="M-152 70q0 37 33 63.5t117 26.5q53 0 117.5 -12.5t134.5 -30.5q37 63 69.5 145t63.5 173t61.5 189.5t61.5 194.5q-96 31 -149.5 90.5t-53.5 128.5q0 27 9.5 55.5t25.5 52t39.5 39t52.5 15.5q-16 -23 -21.5 -60.5t-5.5 -66.5q0 -78 33 -130t84 -81q39 123 84 233.5 t98.5 194.5t117 134.5t141.5 50.5q31 0 65.5 -9.5t64 -34t49 -64.5t19.5 -101q0 -72 -29.5 -154t-90 -152.5t-152.5 -117.5t-219 -47h-33q-31 -94 -64.5 -191.5t-69.5 -188.5t-76 -174t-85 -151q70 -23 142.5 -45t142 -40.5t135 -30t123.5 -11.5q82 0 145 33 q-35 -96 -88 -135t-127 -39q-55 0 -119.5 18.5t-133 46t-139.5 61.5t-140 64q-51 -57 -106.5 -89t-121.5 -32q-49 0 -88 18.5t-64.5 45.5t-39 58.5t-13.5 56.5zM-98 68q0 -18 10 -39t29.5 -38.5t46 -28.5t57.5 -11q45 0 84 24.5t74 69.5q-66 27 -125.5 44t-108.5 17 q-39 0 -53 -10t-14 -28zM647 834q92 0 167 54t127 130t80 159t28 144q0 59 -22.5 80.5t-51.5 21.5q-47 0 -90 -48t-83 -129t-78 -187.5t-77 -224.5z" />
<glyph unicode="M" horiz-adv-x="1564" d="M-35 -178q12 27 68.5 150.5t143.5 317t199.5 442.5t237.5 530q6 14 13.5 37.5t7.5 46.5t-13.5 38t-56.5 15q-66 0 -114 -35t-78.5 -89t-46 -121t-15.5 -128q0 -20 1 -34.5t3 -28.5q-29 0 -49 16t-33.5 42t-19.5 55.5t-6 53.5q0 68 37 130.5t95 109.5t129 76t138 29 q49 0 88 -19.5t65.5 -71t40 -140.5t13.5 -228q0 -96 -5 -201.5t-13.5 -212t-15.5 -207t-9 -186.5q27 104 75 221t104.5 233.5t118.5 228.5t117.5 205t100.5 162.5t68 104.5q29 41 48 62.5t54 21.5q29 0 66 -14q-16 -37 -41 -110t-51 -177q-33 -127 -66 -287t-59.5 -320.5 t-44 -306t-17.5 -243.5q0 -35 2 -55.5t6 -38t10.5 -34t12.5 -40.5q-53 0 -86 12t-51.5 40t-24.5 71t-6 106q0 246 62.5 523.5t142.5 580.5q-49 -63 -103.5 -155.5t-107.5 -199t-105.5 -221t-96.5 -221t-80 -198.5t-56 -154q-12 -4 -16.5 -6t-14.5 -2q-55 0 -72.5 65.5 t-17.5 184.5q0 84 5 200.5t11.5 237.5t11.5 235.5t5 196.5q0 41 -1 66.5t-3 48.5q-164 -381 -273.5 -649.5t-186.5 -437.5t-133.5 -246.5t-111.5 -77.5z" />
<glyph unicode="N" horiz-adv-x="1312" d="M94 -178q25 98 62 218t89 289t121.5 397t161.5 542q4 10 9.5 35.5t5.5 48.5q0 20 -7.5 33.5t-23.5 13.5q-49 0 -93 -38t-76 -94.5t-50.5 -120t-18.5 -112.5q0 -41 11 -71q-68 0 -95.5 33.5t-27.5 82.5q0 70 42 140.5t103.5 127t133 92.5t130.5 36q61 0 101.5 -53.5 t66 -142.5t41 -205t29.5 -238q12 -102 24.5 -204t24.5 -193t22.5 -166.5t18.5 -125.5q14 96 42 219t61.5 253.5t70.5 257.5t69 231t55.5 176t31.5 90q6 12 18.5 29.5t28.5 33t37.5 27t44.5 11.5q-37 -94 -80 -231.5t-88 -294t-88 -322.5t-76 -318.5t-54.5 -279.5t-21.5 -207 q-66 0 -104.5 37t-54.5 129q-10 53 -25.5 147t-33 208t-36 239t-36 241.5t-33 217t-23.5 165.5q-82 -295 -143.5 -513t-107.5 -371.5t-80.5 -251t-63.5 -152.5t-56.5 -75.5t-58.5 -20.5z" />
<glyph unicode="O" horiz-adv-x="1277" d="M43 330q0 131 36 267t97.5 263t144 238.5t177 194.5t195 131.5t198.5 48.5q76 0 123 -25h-23q-88 0 -179 -50t-176 -136t-161 -201t-131 -242t-88 -260t-33 -258q0 -82 15.5 -156.5t49.5 -131t85 -89.5t125 -33q96 0 182 51.5t158.5 137.5t131 200.5t99.5 241.5t63.5 259 t22.5 253q0 43 -5 92.5t-15.5 91.5t-27.5 70.5t-44 28.5q-37 0 -81 -47t-83 -115t-69.5 -143.5t-43.5 -132.5q-53 12 -75.5 38.5t-22.5 61.5q0 55 39 122.5t95.5 128t121 101.5t115.5 41q53 0 87 -39t53.5 -98t26.5 -129t7 -129q0 -186 -36 -344t-97.5 -287t-141 -226 t-169 -164t-180.5 -100.5t-173 -33.5q-88 0 -159.5 36t-124 102.5t-81 160.5t-28.5 209z" />
<glyph unicode="P" horiz-adv-x="1081" d="M37 -76q0 23 9 54.5t20 58.5q63 201 120.5 375t115.5 337.5t122.5 327.5t144.5 342q-59 -12 -107 -30.5t-85 -37t-60.5 -31.5t-31.5 -13q-6 0 -16.5 6t-21.5 14t-18.5 17.5t-7.5 17.5q39 16 90 35.5t110.5 37t123 29t129.5 11.5q90 0 184 -25t170 -75t124 -123.5 t48 -172.5q0 -106 -48 -183t-124 -129t-168 -84t-179 -49.5t-157.5 -22.5t-103.5 -5h-21q-61 -211 -117.5 -415.5t-103.5 -368.5q-53 0 -97 28.5t-44 73.5zM408 639q113 6 229.5 37t210.5 89t154.5 145t60.5 204q0 82 -31 142.5t-82 98.5t-118.5 57.5t-139.5 19.5 q-76 -150 -147.5 -358t-136.5 -435z" />
<glyph unicode="Q" horiz-adv-x="1421" d="M72 408q0 127 29.5 256t82 247.5t127 221t164.5 178t193.5 120t214.5 44.5q199 0 307 -134.5t108 -363.5q0 -129 -34.5 -270.5t-96 -274.5t-146.5 -247.5t-185 -192.5q70 -39 143.5 -66.5t159.5 -27.5q45 0 66.5 7t51.5 17q-16 -55 -40.5 -88t-52 -50t-55.5 -22.5 t-52 -5.5q-47 0 -91 14.5t-84 38t-78 54.5t-75 61q-49 -25 -100 -39t-105 -14q-72 0 -115.5 21.5t-68.5 51t-33 60.5t-8 47q0 35 34 71t116 36q86 0 163.5 -40t161.5 -91q92 82 163 210t119 271t73.5 284.5t25.5 249.5q0 84 -15.5 154t-48 119t-84 76.5t-122.5 27.5 q-98 0 -186.5 -50t-163 -136t-134 -198.5t-101.5 -237.5t-64.5 -255t-22.5 -247q0 -43 3 -86t13 -86q-47 0 -77.5 23.5t-48 63.5t-24.5 91t-7 107zM352 49q0 -14 7.5 -35.5t27 -42t52 -35t85.5 -14.5q43 0 83 11.5t77 31.5q-63 55 -125.5 97t-130.5 42q-47 0 -61.5 -19 t-14.5 -36z" />
<glyph unicode="R" horiz-adv-x="1183" d="M33 -76q0 23 9 54.5t19 58.5q66 201 125.5 376t121 338.5t127 327.5t145.5 344q-66 -10 -118 -29.5t-90 -39t-62.5 -33.5t-35.5 -14q-6 0 -16 6t-21.5 14t-18.5 17.5t-7 17.5q39 16 90 35.5t110.5 37t125 29t135.5 11.5q88 0 180 -21.5t167 -68t123 -119t48 -174.5 q0 -100 -47 -173t-120 -122t-162 -79t-174 -45.5t-155.5 -20.5t-105.5 -5q63 -109 119.5 -211t126 -203.5t161 -204t222.5 -208.5q-12 -27 -44 -47.5t-61 -20.5q-39 0 -87 40t-101 106.5t-108.5 152.5t-105.5 176t-94 179.5t-75 160.5q-59 -203 -111.5 -395t-99.5 -350 q-53 0 -94 28.5t-41 73.5zM412 680q111 6 225.5 34.5t206.5 84t150.5 138.5t58.5 198q0 84 -32 140t-83 91t-116.5 50.5t-135.5 15.5q-72 -141 -141.5 -339t-132.5 -413z" />
<glyph unicode="S" horiz-adv-x="1099" d="M-12 188q0 80 25.5 133.5t63.5 84t84 44t89 13.5q-55 -59 -84 -131t-29 -144q0 -57 19.5 -108t57.5 -91t97.5 -63.5t139.5 -23.5q70 0 137 19.5t121.5 56t88 93t33.5 130.5q0 88 -46 150.5t-115.5 112.5t-149.5 95t-149.5 96.5t-115.5 116t-46 156.5q0 86 41 181 t116.5 177t184 135.5t242.5 53.5q119 0 167 -58.5t48 -146.5q0 -55 -15.5 -119t-39 -124t-51.5 -114.5t-52 -93.5q-37 8 -52.5 30.5t-15.5 57.5q0 43 18.5 99.5t42 115t42 114.5t18.5 101q0 41 -24.5 64.5t-90.5 23.5q-96 0 -179 -46t-143 -114.5t-94 -147.5t-34 -142 q0 -76 45 -130t113.5 -99.5t147.5 -87.5t147.5 -96t113.5 -127t45 -177q0 -106 -48 -187t-125 -136.5t-172 -84t-189 -28.5q-84 0 -161 22.5t-136.5 67.5t-95 114.5t-35.5 161.5z" />
<glyph unicode="T" horiz-adv-x="1005" d="M141 1294q4 51 43 86t104.5 55.5t156 30t196.5 9.5q104 0 193.5 -7.5t167 -15.5t151.5 -15t147 -7q-72 -63 -160.5 -80t-189.5 -17q-35 0 -71.5 1t-73.5 1q-66 -166 -151 -413.5t-171 -563.5q-23 -82 -41 -149.5t-32.5 -126.5t-21.5 -111.5t-7 -103.5v-22.5t2 -22.5 q-92 0 -127 40t-35 105q0 59 24.5 141t51.5 158q35 100 84 236.5t105.5 282t114.5 290t114 260.5q-106 -2 -184 -4t-142.5 -6t-122 -11.5t-125.5 -19.5z" />
<glyph unicode="U" horiz-adv-x="1447" d="M51 1104q0 63 31 128.5t85 120t124.5 88.5t150.5 34q113 0 162 -68t49 -180q0 -113 -39 -258.5t-87 -295t-87 -291.5t-39 -249q0 -96 40 -162.5t132 -66.5q84 0 154 56t123 139t90 180.5t57 179.5q25 102 53.5 217t58.5 227.5t61.5 216t63.5 182t61.5 126t58.5 47.5 q16 0 44.5 -17.5t57.5 -48.5q-18 -12 -52 -88t-76 -190.5t-86 -256t-80 -285t-59.5 -275.5t-23.5 -228q0 -72 9.5 -118t29 -72.5t51 -38t74.5 -11.5q-39 -27 -72.5 -38t-62.5 -11q-78 0 -122 64.5t-44 152.5q0 29 4 77t15 110q-39 -84 -85.5 -154t-100.5 -120t-118.5 -77.5 t-138.5 -27.5q-133 0 -199.5 80t-66.5 198q0 66 19.5 155t47 189.5t61.5 208t61.5 212t47 199.5t19.5 173q0 180 -115 180q-55 0 -96 -37t-67.5 -90t-40 -115.5t-13.5 -111.5q0 -61 17 -100q-78 0 -110 40.5t-32 100.5z" />
<glyph unicode="V" horiz-adv-x="1296" d="M51 1110q0 63 31 128t82 117t118.5 86t143.5 34q129 0 190.5 -99.5t61.5 -265.5q0 -150 -41 -314.5t-91 -319t-91 -289t-41 -222.5q0 -35 11 -57.5t46 -22.5q57 0 133 59.5t157 159t157.5 227.5t138 265t98.5 271t37 247q0 102 -31 149.5t-82 63.5q29 49 60.5 71.5 t58.5 22.5q43 0 84 -55t41 -172q0 -113 -43 -258t-113.5 -297t-163 -299t-191.5 -262t-198.5 -185.5t-183.5 -70.5q-23 0 -52.5 6t-57 24.5t-47 50t-19.5 83.5q0 76 40 206t89 287.5t89 327.5t40 323q0 57 -2 108.5t-14.5 91.5t-37 63.5t-69.5 23.5q-57 0 -97 -34.5 t-65.5 -87t-37 -112t-11.5 -110.5q0 -68 19 -110q-80 0 -113 44t-33 103z" />
<glyph unicode="W" horiz-adv-x="1857" d="M51 1110q0 63 31 128t82 117t118.5 86t143.5 34q129 0 190.5 -99.5t61.5 -265.5q0 -150 -41 -313.5t-91 -319t-91 -290t-41 -222.5q0 -39 12 -59.5t49 -20.5q51 0 113.5 49.5t127 129t125 181t110.5 204t84 197.5t42 163q68 0 95.5 -35t27.5 -65q0 -41 -36 -123 t-78 -185.5t-77.5 -216t-35.5 -213.5q0 -39 10 -62.5t47 -23.5q57 0 133 59.5t157 159t157.5 227.5t138 265t98.5 271t37 247q0 102 -30.5 149.5t-82.5 63.5q29 49 61 71.5t58 22.5q43 0 84 -55t41 -172q0 -113 -43 -258t-113.5 -297t-163 -299t-191.5 -262t-198.5 -185.5 t-183.5 -70.5q-29 0 -60.5 9t-57 27.5t-42 47t-16.5 69.5q0 31 11.5 78t29.5 107q-53 -74 -106.5 -136.5t-107.5 -106.5t-107.5 -69.5t-102.5 -25.5q-23 0 -52.5 6t-57 24.5t-47 50t-19.5 83.5q0 76 40 206t89 287.5t89 327.5t40 323q0 57 -2 108.5t-14.5 91.5t-37 63.5 t-69.5 23.5q-57 0 -97 -34.5t-65.5 -87t-37 -112t-11.5 -110.5q0 -68 19 -110q-80 0 -113 44t-33 103z" />
<glyph unicode="X" horiz-adv-x="1357" d="M51 -229q4 33 11.5 57.5t19.5 45t29.5 39.5t40.5 44q131 141 245.5 278.5t218.5 268.5q-4 68 -7 110.5t-6 85.5t-4 101.5t-3 156.5q-2 119 -5 205t-14.5 142.5t-35 84t-66.5 27.5q-51 0 -91 -34.5t-66.5 -88t-41 -116t-14.5 -115.5q0 -61 17 -100q-78 0 -110 40.5 t-32 100.5q0 63 32 128.5t85 120t122.5 88.5t145.5 34q100 0 150.5 -61.5t71 -167t21.5 -246t3 -295.5q166 229 280 424.5t175 349.5q16 -10 31.5 -40t15.5 -59q0 -41 -41 -121.5t-109.5 -186t-159 -229.5t-190.5 -251q4 -131 15.5 -256t33 -222.5t56 -156.5t88.5 -59 q61 0 149 118.5t199 315.5l24 -21q-59 -119 -110 -210t-101.5 -153.5t-102.5 -94t-114 -31.5q-86 0 -138 56t-83 142t-44 189.5t-19 196.5q-90 -111 -178.5 -214.5t-164 -187.5t-136 -145.5t-93.5 -87.5z" />
<glyph unicode="Y" horiz-adv-x="1366" d="M47 1104q0 63 31 128.5t85 120t124.5 88.5t150.5 34q57 0 98.5 -18.5t67 -48.5t36.5 -66.5t11 -73.5q0 -57 -21.5 -140.5t-47 -175.5t-47 -187t-21.5 -177q0 -90 33 -143.5t110 -53.5q72 0 135.5 46t119 120t100.5 164t80 180q27 111 56.5 214.5t60 183t63.5 128t65 48.5 q20 0 53 -17.5t62 -48.5q-35 -57 -62.5 -106.5t-51 -105.5t-46 -124.5t-48 -163t-57.5 -219.5t-73 -293q-33 -131 -74 -269t-106.5 -252t-164.5 -186.5t-247 -72.5q-59 0 -110.5 12.5t-89 37t-60 60t-22.5 83.5q0 53 29.5 91.5t92.5 61.5q-10 -31 -13 -59.5t-3 -50.5 q0 -86 44 -135.5t134 -49.5q70 0 125.5 30t99.5 78t77.5 109.5t57 126t41 126t27.5 110.5q16 70 37 180.5t49 239.5q-41 -78 -88 -144.5t-101 -114t-117.5 -74t-137.5 -26.5q-121 0 -172 67.5t-51 176.5q0 80 21.5 174t48 188.5t48 183.5t21.5 158q0 66 -25.5 113t-91.5 47 q-57 0 -98 -37t-68.5 -90t-41 -114.5t-13.5 -112.5q0 -61 16 -100q-78 0 -109.5 40.5t-31.5 100.5z" />
<glyph unicode="Z" horiz-adv-x="1294" d="M-51 53q0 43 35.5 75t121.5 32q59 0 130 -15.5t149 -38.5q98 104 201.5 250t197.5 301q-39 0 -70.5 -2t-62 -5t-62.5 -6t-71 -9l-69 -10q2 43 26.5 70.5t66.5 44t96 22.5t116 6q23 0 46 -1t46 -3q80 141 142.5 268t96.5 217q-51 12 -120.5 41t-146.5 56.5t-155.5 49 t-146.5 21.5q-49 0 -91 -14t-74 -48t-49 -91.5t-17 -141.5q0 -45 8 -71q-59 10 -85 48t-26 99q0 137 105.5 207t290.5 70q106 0 200 -20.5t180 -45.5t167 -45.5t161 -20.5h34.5t31.5 5q-55 -47 -103 -72q-45 -106 -112.5 -241.5t-153.5 -282.5q61 -6 115.5 -12.5t101.5 -6.5 q-16 -25 -34.5 -38t-48.5 -20t-74 -9t-113 -4q-102 -166 -216 -320t-231 -264q133 -41 265.5 -78t236.5 -37q82 0 145 33q-35 -96 -88 -135t-127 -39q-53 0 -115.5 17.5t-129 43t-135 58t-136.5 63.5q-70 -53 -135 -84t-127 -31q-45 0 -79.5 15.5t-59.5 39t-37 52.5t-12 57z M2 57q0 -16 9 -36.5t25.5 -37t39 -27.5t51.5 -11q41 0 88 25.5t100 70.5q-68 29 -129 47t-108 18q-45 0 -60.5 -14t-15.5 -35z" />
<glyph unicode="[" horiz-adv-x="806" d="M39 -137q4 8 9 19.5t13.5 48t22.5 107.5t38.5 196.5t59.5 317t86 468.5q25 129 57.5 211t68.5 128t73 63.5t68 17.5q27 0 65.5 -3t81.5 -3q53 0 107.5 8t97.5 33q-4 -55 -22.5 -88t-47.5 -50.5t-66.5 -21.5t-78.5 -4q-53 0 -108.5 12t-110.5 23q-31 -86 -59.5 -208 t-56.5 -259.5t-53.5 -279.5t-48 -271t-43 -232.5t-36.5 -161.5q111 0 182.5 2.5t123.5 6.5t94 12t91 22q-8 -78 -70.5 -116.5t-195.5 -38.5q-49 0 -100.5 4t-97.5 10t-84 13.5t-60 13.5z" />
<glyph unicode="\" horiz-adv-x="1148" d="M315 1475q49 0 82 -32t43 -61q27 -72 55.5 -179t57.5 -237t58.5 -273.5t58 -283t55.5 -268.5t52.5 -229t49 -165.5t43.5 -78.5q-88 14 -148 100.5t-112 276.5q-20 70 -45.5 196t-55.5 274.5t-58.5 306t-55 292.5t-48.5 233.5t-32 127.5z" />
<glyph unicode="]" horiz-adv-x="841" d="M-49 -180q2 41 20.5 68.5t48 44t67.5 23.5t79 7q53 0 120.5 -6t133.5 -10q29 82 58.5 200.5t58 254t56.5 278.5t52.5 275t46 243t39.5 182h-129q-102 0 -202.5 -7t-204.5 -36q0 43 18 71t52 42t83 19.5t111 5.5q76 0 163 -11.5t179 -31.5q-6 -29 -18.5 -107t-29 -183.5 t-36 -228t-40 -242.5t-38.5 -225.5t-33 -175.5q-10 -47 -25.5 -117.5t-45 -137t-75.5 -113.5t-116 -47q-106 0 -211.5 -5.5t-181.5 -29.5z" />
<glyph unicode="^" horiz-adv-x="417" d="M0 942q0 31 28.5 62.5t67.5 57t78 43t59 17.5q25 0 57 -23.5t60.5 -57t48 -73.5t19.5 -73q0 -20 -8.5 -36.5t-26.5 -27.5q-29 59 -65.5 100.5t-86.5 88.5q-63 -23 -113.5 -49.5t-97.5 -67.5q-12 8 -16 18.5t-4 20.5z" />
<glyph unicode="_" horiz-adv-x="1732" d="M-61 -135q6 51 62 84t151.5 51t225.5 25.5t281 7.5q100 0 178 -3t141.5 -6.5t118 -8.5t107.5 -9t111.5 -7t130.5 -3q-43 -29 -88 -47.5t-88 -28.5t-84 -13t-74 -3q-207 0 -350.5 -1t-244.5 -2t-172 -2t-132 -5.5t-124.5 -11.5t-149.5 -17z" />
<glyph unicode="`" horiz-adv-x="258" d="M0 1077q4 37 16.5 50.5t28.5 13.5q31 0 68 -32t69.5 -74t54 -83t21.5 -59q0 -10 -6 -27.5t-23 -25.5q-45 59 -100 115t-129 122z" />
<glyph unicode="a" horiz-adv-x="894" d="M-53 74q0 61 23.5 130.5t64.5 140.5t96 135.5t117.5 113.5t130 78.5t135.5 29.5q80 0 133 -42t53 -111q0 -51 -27.5 -69.5t-72.5 -18.5q10 37 10 71q0 47 -22.5 81t-77.5 34q-49 0 -98.5 -28.5t-96.5 -76.5t-88 -109.5t-72.5 -126t-49 -127t-17.5 -111.5q0 -80 55 -80 q47 0 106.5 49t119 118.5t113.5 146.5t91 132q8 -2 22.5 -6t28 -10t22.5 -14.5t9 -20.5q0 -18 -18.5 -51t-41 -73t-40.5 -82t-18 -79q0 -31 16 -60.5t53 -29.5q55 0 145.5 80t182.5 244l20 -21q-33 -84 -80 -152.5t-101 -117.5t-111.5 -75.5t-112.5 -26.5q-76 0 -112 45 t-36 98q0 25 7 59q-90 -119 -162 -178t-148 -59q-66 0 -108.5 42t-42.5 128z" />
<glyph unicode="b" horiz-adv-x="808" d="M-20 109q0 102 35.5 242.5t92 291t127 297.5t141 263t134 187.5t106.5 71.5q35 0 50.5 -43t15.5 -86q0 -72 -39 -182.5t-103.5 -225t-149.5 -216t-175 -156.5q-10 -16 -26.5 -62.5t-32 -106.5t-27.5 -130t-12 -133q0 -86 25.5 -139.5t86.5 -53.5q59 0 122 48.5t104 123.5 q-76 39 -113 113t-37 152q0 98 51.5 157.5t120.5 59.5q59 0 94 -48.5t35 -140.5q0 -68 -18.5 -139.5t-52.5 -138.5q25 -6 53 -6q55 0 96 21.5t71.5 54t53 72.5t41.5 75l24 -27q-29 -72 -63.5 -117t-72.5 -70.5t-77.5 -35.5t-78.5 -10q-35 0 -66 6q-55 -94 -136 -161 t-190 -67q-106 0 -158 70t-52 189zM238 633q70 57 137 150.5t120.5 190.5t85 182t31.5 124q0 16 -8 16q-16 0 -62 -59t-102.5 -154.5t-112 -214t-89.5 -235.5zM377 354q0 -55 22.5 -116.5t75.5 -96.5q23 47 35 99.5t12 107.5q0 72 -19.5 113t-47.5 41q-31 0 -54.5 -42.5 t-23.5 -105.5z" />
<glyph unicode="c" horiz-adv-x="663" d="M-10 147q0 102 41 200.5t105.5 175.5t144 123t157.5 46q43 0 71 -13t44 -34.5t23.5 -49.5t7.5 -54q0 -59 -28 -104.5t-75 -45.5q-35 0 -59 31q31 16 53.5 65.5t22.5 96.5q0 25 -9.5 38t-35.5 13q-55 0 -114.5 -50t-109 -126t-81 -163t-31.5 -163q0 -31 7 -61.5t23.5 -55 t46 -39t72.5 -14.5q61 0 124 25.5t121 74t107.5 117t81.5 154.5l27 -21q-35 -92 -91 -171t-124 -136t-143.5 -89t-149.5 -32q-98 0 -163.5 64.5t-65.5 197.5z" />
<glyph unicode="d" horiz-adv-x="970" d="M-33 111q0 57 23.5 125.5t63.5 138t93.5 135t115 116t127 81t128.5 30.5q90 0 90 -63q0 -8 -1 -14.5t-3 -14.5q-23 31 -78 31t-107 -29t-98.5 -76t-85 -106t-66.5 -119.5t-43 -116t-15 -94.5q0 -47 19.5 -72.5t53.5 -25.5q41 0 97.5 40t117 113.5t120 177t108.5 232.5 q57 147 118.5 303t121 283t112.5 208t96 81q16 0 28.5 -13.5t12.5 -34.5q0 -33 -34.5 -111.5t-87 -188t-114 -238.5t-113.5 -261t-87 -258t-35 -227q0 -59 6 -86.5t41 -27.5q31 0 73 21.5t85 60.5t84 95t74 126l24 -19q-31 -80 -77 -146.5t-99 -115.5t-111.5 -76.5 t-109.5 -27.5q-39 0 -64.5 14t-41 35.5t-22.5 49.5t-7 54q0 35 10 91.5t29 127.5q-49 -82 -103.5 -151.5t-109 -120.5t-106.5 -79.5t-99 -28.5q-27 0 -53.5 10t-49 30.5t-37 53.5t-14.5 78z" />
<glyph unicode="e" horiz-adv-x="684" d="M-29 147q0 61 21.5 129t59.5 133.5t88 125t108.5 104.5t120 71.5t123.5 26.5q47 0 86.5 -24.5t39.5 -100.5q0 -78 -46 -146.5t-119.5 -121.5t-163.5 -87t-178 -42q-4 -20 -6.5 -38.5t-2.5 -35.5q0 -31 7.5 -61.5t26 -55t50 -40t78.5 -15.5q66 0 131.5 29t125 79 t111.5 115.5t91 139.5l25 -19q-41 -92 -100.5 -166.5t-128 -127t-145.5 -81t-153 -28.5q-125 0 -187.5 68.5t-62.5 168.5zM121 254q55 18 124.5 54t133 85t106.5 108.5t43 125.5q0 23 -8 35t-35 12q-49 0 -104 -38t-106.5 -98.5t-92.5 -135t-61 -148.5z" />
<glyph unicode="f" horiz-adv-x="641" d="M-139 -393q0 78 23.5 200.5t65.5 268t98 306.5t123 316.5t139.5 296t146 247t145.5 170t135 63.5q43 0 56.5 -27t13.5 -64q0 -88 -49 -192.5t-127 -208.5t-175.5 -200.5t-195.5 -164.5q-10 -25 -19.5 -50t-19.5 -52q23 -4 35 -23.5t16 -41.5q10 -70 21.5 -128.5 t30 -101.5t48 -66.5t79.5 -23.5q72 0 121 51t106 150l31 -21q-27 -61 -61 -105t-69.5 -73t-71.5 -42t-67 -13q-37 0 -76.5 18.5t-74.5 48.5q0 -129 -28 -257t-73 -230t-101 -166.5t-114 -64.5q-16 0 -35.5 7t-37 26.5t-28.5 54t-11 92.5zM-12 -377q0 -47 10 -72.5t29 -25.5 q18 0 41.5 29.5t47 78t45 110.5t38 129t27 132.5t10.5 118.5q0 63 -16.5 115.5t-53.5 123.5q-39 -115 -72 -225t-56.5 -207.5t-36.5 -176.5t-13 -130zM293 702q98 92 179 186.5t137.5 177.5t87 147.5t30.5 95.5q0 28 -29 28q-41 0 -89 -50t-101 -137t-108.5 -203 t-106.5 -245z" />
<glyph unicode="g" horiz-adv-x="798" d="M-41 -455q0 61 38 113.5t97.5 96.5t129 81t134.5 70q29 72 54.5 154.5t50.5 183.5q-78 -113 -163 -187.5t-171 -74.5q-74 0 -114 54t-40 144q0 106 53.5 202.5t135.5 169.5t176 116t178 43q59 0 85 -19.5t26 -46.5q0 -18 -10.5 -28.5t-14.5 -12.5q-23 31 -82 31 q-80 0 -154.5 -48t-132 -120t-91 -153t-33.5 -144q0 -49 19.5 -74.5t51.5 -25.5q29 0 66 21.5t77 58t80.5 86t79.5 104.5l25 109q2 14 10 32.5t20.5 33.5t31 26.5t42.5 11.5q18 0 43 -6q0 -25 -11 -82t-31.5 -133t-50 -165t-64.5 -181q49 25 99 59.5t94 78.5t81 96t60 112 l26 -21q-25 -70 -70 -130t-98 -109t-110.5 -86t-104.5 -60q-43 -104 -89 -195t-96 -159t-103.5 -106.5t-110.5 -38.5q-45 0 -82 27.5t-37 90.5zM23 -436q0 -33 13 -52.5t36 -19.5q20 0 49 19.5t62.5 61.5t72.5 110.5t80 166.5q-61 -31 -117.5 -62.5t-99.5 -67t-69.5 -74.5 t-26.5 -82z" />
<glyph unicode="h" horiz-adv-x="976" d="M12 135q0 98 33 234.5t86 284t120.5 292t135.5 260t130.5 186t107.5 70.5q18 0 31.5 -12t20.5 -31.5t11 -42t4 -43.5q0 -47 -18.5 -113.5t-50 -141t-75.5 -152.5t-96.5 -148.5t-111.5 -129t-119 -95.5q-18 -45 -32.5 -98.5t-23.5 -107.5t-14.5 -105.5t-5.5 -91.5 q0 -23 1 -39.5t4 -30.5q37 104 79.5 200.5t95 170t113 116.5t127.5 43q43 0 73 -16t48.5 -42t26.5 -59.5t8 -66.5q0 -47 -13.5 -93t-31 -89t-30.5 -84t-13 -78q0 -41 17.5 -59.5t43.5 -18.5q35 0 78 26.5t86 70.5t84 103.5t72 127.5l26 -25q-33 -76 -75.5 -140.5t-94 -112.5 t-107.5 -75.5t-116 -27.5q-72 0 -106.5 37t-34.5 92q0 33 10 70.5t21.5 78.5t21.5 82t10 78q0 53 -22.5 75.5t-54.5 22.5q-51 0 -92.5 -42t-75 -104t-62.5 -136t-56.5 -136.5t-54 -104.5t-55.5 -42q-18 0 -34.5 18.5t-26.5 48t-16.5 67.5t-6.5 79zM248 633 q70 57 137.5 150.5t120.5 190.5t85 182t32 124q-1 16 -9 16q-16 0 -60 -56t-99.5 -149.5t-111.5 -213t-95 -244.5z" />
<glyph unicode="i" horiz-adv-x="495" d="M-10 119q0 39 12 96t33.5 121.5t49.5 128t60.5 115t68.5 83t71 31.5q18 0 31.5 -11t13.5 -34q0 -25 -34 -81t-74 -126.5t-72.5 -149.5t-32.5 -151q0 -74 24.5 -98.5t75.5 -24.5q35 0 72 16.5t77 53.5t81.5 96.5t84.5 147.5l19 -21q-31 -88 -75 -156.5t-97 -114.5 t-112.5 -69.5t-119.5 -23.5q-80 0 -118.5 50t-38.5 122zM309 952q0 20 14.5 40t36 35t48 23.5t51.5 8.5q31 0 49 -14.5t18 -49.5q0 -18 -11 -38.5t-30.5 -36t-43 -25.5t-48.5 -10q-35 0 -59.5 16.5t-24.5 50.5z" />
<glyph unicode="j" horiz-adv-x="448" d="M-393 -469q0 37 19.5 80t53 86t80.5 83t105 70q29 16 59.5 31t71.5 35q41 98 75.5 224t61.5 280q-31 -55 -56.5 -96t-39.5 -66l-19 31q35 63 63 137t53.5 137.5t52 105.5t57.5 42q23 0 36 -17.5t13 -44.5q0 -23 -11.5 -88t-33 -156.5t-52 -201t-67.5 -219.5q43 27 88 52 t90 62t90 90.5t88 133.5l27 -15q-39 -92 -89 -152.5t-104.5 -101.5t-108.5 -70.5t-101 -56.5q-35 -96 -78 -185t-92.5 -159.5t-106.5 -112.5t-119 -42q-53 0 -79.5 29.5t-26.5 74.5zM-340 -455q0 -29 10.5 -39t24.5 -10q41 0 117.5 88t156.5 266q-156 -78 -232.5 -158.5 t-76.5 -146.5zM195 961q0 23 14 43t35.5 34.5t48 22.5t51.5 8q29 0 48.5 -14.5t19.5 -42.5q0 -47 -42.5 -82t-93.5 -35q-33 0 -57 16.5t-24 49.5z" />
<glyph unicode="k" horiz-adv-x="915" d="M8 129q0 106 36 246.5t93.5 289t127 292t139 256t129 181t96.5 68.5q29 0 46 -39t17 -94q0 -72 -31.5 -158t-87 -173t-132 -165.5t-167.5 -134.5q-68 -166 -101.5 -322.5t-33.5 -262.5q33 82 80 181t105.5 186t127 146.5t146.5 59.5q76 0 129 -53t53 -129 q0 -66 -33.5 -112t-81 -74.5t-96.5 -41t-80 -12.5q2 -16 12.5 -60t30 -89t48 -80t69.5 -35q43 0 84 25.5t80 70.5t74 106.5t65 131.5l21 -21q-23 -76 -63 -146.5t-89 -124.5t-104 -87t-109 -33q-59 0 -99 40t-64.5 97.5t-35 121t-10.5 110.5q23 0 67 11t87 34.5t76 60.5 t33 90q0 43 -31 68t-72 25q-61 0 -112.5 -42t-95.5 -105.5t-78.5 -139.5t-59.5 -142.5t-41 -116.5t-22 -61q-10 -18 -31 -27t-39 -9q-27 0 -41 16t-21.5 44t-8.5 62.5t-1 69.5zM309 780q70 57 128.5 127t99.5 139.5t63.5 131t22.5 100.5q-1 18 -7 18q-16 0 -48.5 -42 t-75.5 -112.5t-90.5 -164.5t-92.5 -197z" />
<glyph unicode="l" horiz-adv-x="485" d="M6 150q0 98 38 234t96.5 283.5t132 292t144 259t131 185.5t95.5 71q16 0 28.5 -15.5t21.5 -39t13.5 -50.5t4.5 -47q0 -45 -19.5 -116.5t-55.5 -156.5t-86 -179.5t-110.5 -185.5t-130 -173t-143.5 -143q-12 -55 -19.5 -107.5t-7.5 -99.5q0 -158 90 -158q41 0 82 28.5 t79 75t73 105.5t61 119l31 -17q-82 -176 -178 -276t-207 -100q-88 0 -126 59t-38 152zM184 438q88 90 172 213t148.5 245t103.5 225.5t39 154.5q0 20 -5 26.5t-9 6.5q-14 0 -45 -37t-71 -100.5t-87 -149.5t-92 -182.5t-85 -199.5t-69 -202z" />
<glyph unicode="m" horiz-adv-x="1325" d="M-72 -12q0 12 21.5 73.5t48.5 144.5t49.5 172t22.5 157q12 14 38.5 28.5t55.5 14.5q55 0 55 -54q0 -29 -15.5 -92t-37.5 -141q41 66 93 134.5t108.5 125.5t116 93t114.5 36q63 0 87 -46t24 -110q0 -39 -7.5 -81t-16.5 -81.5t-20.5 -72.5t-19.5 -53q33 57 70 114.5 t80 101.5t90 71.5t100 27.5q66 0 91.5 -39t25.5 -92q0 -41 -12.5 -87t-25.5 -92t-25.5 -88t-12.5 -75q0 -29 13.5 -49.5t47.5 -20.5q43 0 82 31t74 79t64.5 104.5t54.5 109.5l24 -29q-25 -66 -60.5 -130t-79.5 -117.5t-98 -86t-116 -32.5q-72 0 -104.5 44t-32.5 105 q0 37 9 76t21.5 76.5t21.5 72.5t9 66q0 41 -18 57.5t-41 16.5q-51 0 -111.5 -79t-156.5 -227q-33 -49 -56 -99t-43 -91q-12 0 -29.5 2t-34.5 7t-28.5 13.5t-11.5 18.5q0 14 20.5 69.5t44 126t44 146.5t20.5 129q0 35 -11.5 56.5t-39.5 21.5q-45 0 -108.5 -55.5t-130 -141.5 t-128 -192.5t-98.5 -210.5q-14 0 -33.5 4t-36 10t-29 13.5t-12.5 15.5z" />
<glyph unicode="n" horiz-adv-x="956" d="M-78 14q0 8 22.5 63.5t49 131.5t50.5 159t24 150q12 14 38.5 28.5t55.5 14.5q55 0 55 -53q0 -33 -18.5 -108.5t-46.5 -161.5q41 61 90 125.5t104 116.5t113.5 85t118.5 33q39 0 67.5 -15.5t47 -42t27.5 -59t9 -67.5q0 -47 -13.5 -90t-28.5 -82t-28.5 -77t-13.5 -75 q0 -43 17.5 -60.5t44.5 -17.5q39 0 77.5 29t75.5 75t71 102t62 114l23 -27q-33 -76 -71 -139.5t-82 -109.5t-94 -71.5t-107 -25.5q-72 0 -108 37t-36 94q0 31 9.5 65.5t20.5 71.5t20.5 74t9.5 74q0 57 -24 78.5t-58 21.5q-63 0 -129 -53t-127.5 -132t-115.5 -166t-93 -155 q-33 0 -63 11t-46 34z" />
<glyph unicode="o" horiz-adv-x="747" d="M-20 121q0 63 20 132t53 126t76 95t86 38q18 0 43 -10q-18 -16 -44 -61.5t-48.5 -100.5t-37.5 -110.5t-15 -94.5q0 -61 19.5 -89t53.5 -28q43 0 102.5 46.5t117.5 117.5q-59 47 -90 124t-31 157q0 51 13 97t38.5 82t62.5 57.5t86 21.5q84 0 113 -45t29 -113 q0 -80 -39 -177t-99 -187q37 -20 78 -21q25 0 54.5 7.5t60.5 24.5t58.5 45t45.5 71l25 -21q-20 -49 -51 -82t-66 -54.5t-71.5 -30.5t-69.5 -9q-55 0 -98 21q-72 -92 -154 -154t-160 -62q-88 0 -124.5 54.5t-36.5 132.5zM373 457q0 -59 17.5 -120t51.5 -101q51 76 85 158.5 t34 156.5q0 59 -17.5 87t-43.5 28q-20 0 -43 -16.5t-41.5 -44t-30.5 -65.5t-12 -83z" />
<glyph unicode="p" horiz-adv-x="802" d="M-193 -496q25 84 47.5 150.5t46 134.5t46 146.5t45 186t46 255t48.5 352.5q2 18 8 26.5t31 8.5q53 0 75.5 -29.5t22.5 -64.5q0 -29 -12 -102.5t-35 -174.5q27 51 62.5 104.5t81 97.5t98.5 71.5t112 27.5q92 0 149.5 -64.5t57.5 -168.5q0 -80 -35.5 -170t-100 -167 t-153 -127t-194.5 -50q-53 0 -86 12t-33 25q0 8 14.5 9t36.5 1q82 0 158 41t133.5 105.5t92 144.5t34.5 157q0 66 -27.5 112t-89.5 46q-53 0 -106 -35t-98 -86t-81 -107.5t-55 -101.5q-37 -154 -73.5 -297t-70.5 -256.5t-61.5 -188.5t-45.5 -91q-10 -10 -25 -10 q-12 0 -24.5 11t-21.5 24.5t-13.5 25.5t-4.5 16z" />
<glyph unicode="q" horiz-adv-x="823" d="M-31 115q0 59 23.5 127.5t64.5 137.5t96.5 132t119 112.5t132 78t138.5 28.5t116 -28.5t46 -71.5q0 -27 -17.5 -51.5t-50.5 -24.5q0 45 -26.5 79t-90.5 34q-55 0 -107.5 -29t-98.5 -75t-82.5 -104.5t-63.5 -117.5t-41 -113.5t-14 -93.5q0 -47 19.5 -72.5t51.5 -25.5 q41 0 88 39t96.5 101.5t100.5 140t98 153.5q23 37 46.5 50.5t43.5 13.5q25 0 33 -12.5t8 -24.5q0 -25 -20.5 -62t-49 -89t-59 -122.5t-51.5 -165.5q43 4 88 18.5t88 46.5t85 82t81 124l25 -23q-35 -78 -79 -132t-93 -89t-100.5 -53.5t-98.5 -22.5q35 -111 35 -231 q0 -72 -11.5 -136.5t-32 -112.5t-48 -75.5t-60.5 -27.5q-29 0 -50 30.5t-21 118.5q0 53 8 128t24.5 159t38 172t49.5 166q-82 -117 -164.5 -189.5t-158.5 -72.5q-27 0 -53.5 9t-49 30.5t-37 55.5t-14.5 81zM436 -403q0 -57 17 -58q12 0 21 23.5t15.5 60.5t10.5 83t4 91 q0 84 -15 154q-27 -111 -40 -205t-13 -149z" />
<glyph unicode="r" horiz-adv-x="714" d="M2 260q29 53 75 155.5t91 233.5q-20 20 -21 49q0 31 10.5 56.5t25 44t28.5 29t22 10.5q23 0 26 -19.5t3 -30.5q0 -6 -3 -17t-8 -23.5t-8 -22.5t-3 -12q0 -29 32.5 -52.5t71.5 -53t72 -71.5t33 -108q0 -47 -16.5 -95t-35 -93t-35 -85t-16.5 -73q0 -37 18.5 -49.5 t43.5 -12.5q49 0 102 31t101 77t87 99.5t58 98.5l26 -21q-29 -66 -74.5 -130t-103 -114.5t-121 -82t-129.5 -31.5q-70 0 -109.5 36.5t-39.5 96.5q0 45 17.5 95t39 100.5t38.5 98.5t17 89q0 33 -10 56.5t-27.5 41t-38 30.5t-38.5 27q-25 -61 -49.5 -119.5t-49 -109.5t-46 -94 t-38.5 -70z" />
<glyph unicode="s" horiz-adv-x="708" d="M-41 164q0 61 17.5 94t40 49.5t44 23.5t29.5 17q61 68 112.5 141.5t90.5 155.5v25q0 76 25.5 107.5t54.5 31.5q33 0 33 -27q0 -10 -6.5 -32.5t-6.5 -57.5q0 -51 16.5 -107.5t37 -119t37 -130t16.5 -136.5q0 -55 -13 -101q72 12 135.5 63.5t122.5 168.5l19 -21 q-39 -113 -117 -171t-170 -72q-33 -88 -103.5 -129t-158.5 -41q-72 0 -121 24.5t-78.5 63.5t-43 86t-13.5 94zM51 166q0 -37 11.5 -73t33 -63.5t52 -45t71.5 -17.5q12 0 29.5 3t36 13.5t35 30t28.5 54.5q-86 16 -152.5 66t-99.5 104q-45 -2 -45 -72zM104 301 q31 -66 95.5 -123t158.5 -78q4 20 6.5 43t2.5 54q0 98 -24 191t-40 179q-47 -78 -99 -148.5t-100 -117.5z" />
<glyph unicode="t" horiz-adv-x="585" d="M-8 109q0 92 32.5 222t86.5 271q-20 4 -39 7t-35 9v37q16 -2 38.5 -4t51.5 -4q43 111 92 214.5t97.5 184t92.5 129t74 48.5q16 0 29.5 -11.5t13.5 -33.5q0 -27 -25.5 -79t-65.5 -122t-88 -156t-93 -180h76q68 0 141.5 2t151.5 10v-37q-216 -24 -350 -24h-11h-31 q-47 -111 -79.5 -223.5t-32.5 -223.5q0 -90 26.5 -126.5t87.5 -36.5q106 0 209 94t181 256l26 -21q-37 -86 -89 -160.5t-113.5 -129t-131 -85t-141.5 -30.5q-182 0 -182 203z" />
<glyph unicode="u" horiz-adv-x="899" d="M0 145q0 57 19.5 138.5t47 153t59.5 122.5t54 51q10 0 35 -11t41 -30q-16 -27 -39.5 -75t-45 -105t-37 -118.5t-15.5 -112.5q0 -12 2 -36t9 -46.5t22.5 -39t40.5 -16.5q47 0 100 61.5t104.5 147.5t95 177.5t72.5 148.5q8 -2 24.5 -5t33 -9t29 -16.5t12.5 -22.5 q0 -8 -21.5 -55.5t-47.5 -112t-47.5 -133t-21.5 -119.5q0 -37 15.5 -59.5t52.5 -22.5q33 0 76 22.5t90 64.5t93 103.5t83 141.5l27 -19q-33 -84 -81 -152.5t-103.5 -117.5t-114 -76.5t-113.5 -27.5q-82 0 -112.5 44t-30.5 107q0 25 4 50.5t10 52.5q-29 -51 -59.5 -97.5 t-64.5 -81t-69.5 -55t-74.5 -20.5q-70 0 -112 61t-42 145z" />
<glyph unicode="v" horiz-adv-x="835" d="M20 145q0 4 2.5 64.5t10.5 204.5q4 55 12 75.5t53 20.5q35 0 44.5 -13.5t9.5 -52.5q0 -68 -9.5 -158.5t-9.5 -170.5q0 -59 9.5 -87t37.5 -28q37 0 83 43t92 109.5t88 145.5t75 151q2 70 10.5 113.5t20.5 70t28.5 37t34.5 10.5q39 0 56.5 -27.5t17.5 -50.5 q0 -20 -11 -39.5t-24.5 -49.5t-25 -74t-11.5 -111q0 -25 3.5 -52.5t13.5 -51t28.5 -38t51.5 -14.5q43 0 81.5 33t79.5 119l27 -21q-45 -102 -99.5 -137t-103.5 -35q-68 0 -112.5 49t-59.5 150q-37 -74 -85 -147.5t-99 -132t-104.5 -94.5t-102.5 -36q-66 0 -89.5 62.5 t-23.5 162.5z" />
<glyph unicode="w" horiz-adv-x="1265" d="M0 145q0 57 19.5 138.5t47 153t59.5 122.5t54 51q6 0 18.5 -3t25 -8t22.5 -13t10 -17q-16 -27 -39.5 -75t-45 -106t-37 -118.5t-15.5 -111.5q0 -12 2 -36t9 -46.5t21.5 -39t38.5 -16.5q35 0 74 35t79 91.5t80 126t75 139.5q12 63 21 100t17.5 55.5t18.5 23.5t25 5 q27 0 43 -11.5t15 -33.5q0 -6 -3 -23q-12 -37 -22.5 -89t-17.5 -110.5t-12 -117.5t-5 -111q0 -100 45 -100q31 0 71.5 39t83.5 99.5t85 135t77 146.5q0 80 9 130t23.5 79.5t33 40t36.5 10.5q39 0 56.5 -27.5t17.5 -50.5q0 -20 -11 -39.5t-24.5 -49.5t-25 -74t-11.5 -111 q0 -25 3.5 -52.5t13.5 -51t28.5 -38t51.5 -14.5q43 0 82 33t80 119l26 -21q-45 -102 -99 -137t-104 -35q-63 0 -107 43t-65 129q-39 -72 -85 -140.5t-95 -122.5t-99 -87t-97 -33q-33 0 -54.5 15.5t-34 43t-17.5 63.5t-5 77t4 89t10 95q-35 -68 -71.5 -133.5t-78.5 -116.5 t-86 -82.5t-91 -31.5q-35 0 -63 16t-48 45t-31.5 65.5t-11.5 79.5z" />
<glyph unicode="x" horiz-adv-x="858" d="M20 297q29 55 53.5 114.5t56.5 109.5t76 83t109 33q80 0 117 -56.5t53 -138.5q47 49 91.5 93.5t81 76t64.5 50t42 18.5q10 0 30.5 -6t20.5 -17q-18 0 -50 -23.5t-75 -63.5t-92 -94t-100 -114q6 -61 10 -122.5t13 -110.5t29.5 -79t57.5 -30t79 32t82 78t74 100.5t54 99.5 l21 -21q-23 -66 -62 -131t-87 -116.5t-103.5 -83t-108.5 -31.5q-45 0 -75.5 23.5t-50 62.5t-31 89t-17.5 105q-86 -102 -158.5 -194t-109.5 -139q-12 -14 -25 -15q-20 0 -20 31q0 18 24.5 59t66.5 96.5t97 121t115 132.5q-6 47 -11.5 90.5t-15.5 76t-24.5 52t-38.5 19.5 q-37 0 -68 -24.5t-59.5 -65.5t-56 -93t-60.5 -110z" />
<glyph unicode="y" horiz-adv-x="798" d="M-41 -465q0 66 33 117t88 94t127 82t149 78q29 76 57.5 169t57.5 206q-33 -53 -68.5 -101.5t-72.5 -83.5t-77 -55.5t-81 -20.5q-31 0 -59.5 10.5t-52 30t-38 51t-14.5 74.5q0 57 19.5 134t48 147t59.5 118t53 48q6 0 20.5 -4t30 -10.5t28 -15.5t12.5 -17q-18 -27 -41 -77 t-44.5 -108.5t-36 -117t-14.5 -99.5q0 -37 16.5 -59.5t57.5 -22.5q29 0 63.5 21.5t70.5 58.5t72 84t66 99q6 23 11.5 46t9.5 48q2 14 10 32.5t20.5 34t31 26.5t42.5 11q18 0 43 -6q0 -25 -11 -83t-32.5 -136t-50 -170t-65.5 -184q96 37 187 121.5t151 226.5l26 -21 q-23 -74 -64.5 -133t-95 -106t-112 -82t-115.5 -62q-41 -98 -86 -189t-94 -159.5t-101.5 -110.5t-105.5 -42t-91 27.5t-38 80.5zM23 -446q0 -16 12 -39t43 -23q14 0 41.5 18.5t61.5 61.5t74 112.5t81 172.5q-63 -35 -120.5 -67t-100.5 -67.5t-67.5 -76.5t-24.5 -92z" />
<glyph unicode="z" horiz-adv-x="651" d="M-145 -469q0 66 45 121t116.5 107.5t160.5 104.5t179 111q0 74 -30.5 135.5t-110.5 125.5q53 14 95 48.5t71 76.5t43 88.5t14 87.5q0 47 -19.5 77.5t-60.5 30.5q-51 0 -93 -29.5t-78.5 -81t-70.5 -118t-69 -142.5l-24 21q33 92 68.5 170t77.5 135t95 90t123 33t120 -45 t50 -123q0 -55 -20.5 -105.5t-54 -91.5t-78 -74.5t-89.5 -56.5q106 -82 144 -184q78 59 138 130t89 159l23 -25q-29 -92 -92.5 -166.5t-145.5 -136.5q4 -16 6 -33.5t2 -33.5q0 -92 -41 -184.5t-109.5 -164t-156.5 -116.5t-182 -45q-63 0 -99 23.5t-36 80.5zM-88 -446 q0 -35 17 -51.5t46 -16.5q37 0 97.5 29.5t120 86t105.5 138.5t56 188q-82 -53 -160.5 -98t-141 -90t-101.5 -90t-39 -96z" />
<glyph unicode="{" horiz-adv-x="534" d="M55 -43q0 51 23.5 116.5t52.5 135.5t52.5 138.5t23.5 129.5t-13.5 112.5t-60.5 88.5q76 8 111 69.5t49 150.5t19 190.5t20.5 186.5t52.5 142.5t117 57.5q39 0 72.5 -22.5t39.5 -86.5q-16 10 -33.5 19.5t-33.5 9.5q-45 0 -68.5 -52.5t-37 -132.5t-23.5 -173t-26.5 -174 t-44.5 -137t-79 -60q29 -29 41.5 -62t12.5 -80q0 -96 -25 -176t-53.5 -150.5t-53 -134t-24.5 -124.5q0 -29 14.5 -47.5t52.5 -18.5q12 0 26.5 4t25.5 12q-4 -39 -33 -53t-64 -14q-39 0 -64.5 11t-40.5 29.5t-21.5 43t-6.5 51.5z" />
<glyph unicode="|" horiz-adv-x="532" d="M92 -270q29 78 52.5 220t42 314t34 356.5t29.5 347t27.5 285.5t27.5 174q35 -16 46 -53t11 -63q0 -59 -3 -154.5t-8 -208t-12 -234.5t-14.5 -237t-15.5 -212t-14 -159q-18 -178 -64.5 -277t-138.5 -99z" />
<glyph unicode="}" horiz-adv-x="526" d="M-63 -70q37 -25 69 -24q31 0 52.5 30.5t37 82t25.5 115.5t18 130q8 68 18.5 137.5t28 131t45 108.5t68.5 70q-29 33 -40 69.5t-11 77.5q0 66 22.5 139.5t50 143t50 131t22.5 104.5q0 12 -2 21.5t-12 9.5q-8 0 -32.5 -7t-51.5 -28q10 45 55 74t84 29q41 0 61.5 -21.5 t20.5 -48.5q0 -35 -23.5 -94.5t-52 -130t-52 -146.5t-23.5 -145q0 -53 12 -107.5t59 -87.5q-59 -14 -94 -59t-54.5 -109.5t-27.5 -141.5t-15 -154.5t-15.5 -151.5t-28 -131.5t-54 -91t-94.5 -33.5q-41 0 -75.5 22.5t-40.5 85.5z" />
<glyph unicode="~" horiz-adv-x="892" d="M61 328q41 53 82 73.5t88 20.5q43 0 89.5 -14.5t95.5 -31t102 -30.5t111 -14q31 0 61 6q-37 -41 -77 -57.5t-83 -16.5t-89 12.5t-93 27.5t-95 27.5t-97 12.5q-54 0 -95 -16z" />
<glyph unicode="&#xa1;" horiz-adv-x="542" d="M-182 -465q0 29 33.5 115t88 202.5t122 251t135 260t126 229.5t97.5 159q0 -37 -11.5 -86.5t-29 -101.5t-36.5 -105t-36 -97q-57 -147 -118.5 -302.5t-121 -282.5t-112.5 -208t-96 -81q-16 0 -28.5 13.5t-12.5 33.5zM373 893q0 31 32.5 60.5t73.5 29.5q27 0 46.5 -13.5 t19.5 -41.5q0 -35 -39 -59.5t-80 -24.5q-25 0 -39 10t-14 39z" />
<glyph unicode="&#xa2;" horiz-adv-x="827" d="M86 496q0 90 37 177t95 158.5t131 124t147 72.5q23 111 39 201t26 153q4 31 21.5 55.5t70.5 37.5l-82 -435q43 0 73 -13t46.5 -34.5t23.5 -49.5t7 -54q0 -59 -27.5 -104.5t-75.5 -45.5q-35 0 -59 31q31 16 53.5 65.5t22.5 96.5q0 25 -9.5 38t-35.5 13q-20 0 -31 -2 q-16 -82 -31.5 -168t-33 -172t-34 -168t-30.5 -156q63 10 127 40t121 81l35 -32q-61 -59 -140 -100.5t-157 -59.5q-31 -135 -58.5 -241.5t-61.5 -181.5t-76 -115t-101 -40q18 20 40.5 72.5t48 127.5t52.5 168t53 197q-98 0 -162.5 64.5t-64.5 198.5zM213 481 q0 -59 24.5 -109t96.5 -61q41 160 78 325t69 316q-55 -31 -104 -85t-85 -119.5t-57.5 -135.5t-21.5 -131z" />
<glyph unicode="&#xa3;" horiz-adv-x="1333" d="M-63 70q0 37 32.5 63.5t116.5 26.5q53 0 117.5 -12.5t134.5 -30.5q55 94 102 231q-39 -4 -78.5 -8t-89.5 -12l-69 -11q2 41 24.5 68t59.5 43t87 23.5t105 9.5l31 94q-47 -8 -92 -11t-105 -12l-69 -10q2 43 26.5 71t65.5 44t94 22.5t115 6.5l49 153q-96 31 -149.5 90.5 t-53.5 128.5q0 27 9.5 55.5t25.5 52t39.5 39t52.5 15.5q-16 -23 -21 -60.5t-5 -66.5q0 -78 32.5 -130t83.5 -81q39 123 84 233.5t98.5 194.5t117 134.5t141.5 50.5q31 0 65.5 -9.5t64 -34t49 -64.5t19.5 -101q0 -72 -29.5 -154t-90 -152.5t-152.5 -117.5t-219 -47h-33 q-25 -66 -45 -136q92 -6 172 -17t145 -11q-16 -25 -36.5 -38t-57.5 -19.5t-97.5 -8.5t-160.5 -4q-10 -27 -19.5 -52.5t-19.5 -51.5q100 -6 189.5 -17.5t160.5 -13.5q-16 -25 -36.5 -38t-61.5 -19.5t-109.5 -9.5t-183.5 -5q-33 -74 -65.5 -141.5t-69.5 -122.5 q70 -23 142.5 -45t142 -40.5t135 -30t123.5 -11.5q82 0 145 33q-35 -96 -88 -135t-127 -39q-55 0 -119.5 18.5t-133 46t-139.5 61.5t-140 64q-51 -57 -106.5 -89t-121.5 -32q-49 0 -88 18.5t-64.5 45.5t-38.5 58.5t-13 56.5zM-10 68q0 -18 10 -39t29.5 -38.5t46 -28.5 t57.5 -11q45 0 84 24.5t74 69.5q-66 27 -125.5 44t-108.5 17q-39 0 -53 -10t-14 -28zM735 834q92 0 167 54t127 130t80 159t28 144q0 59 -22.5 80.5t-51.5 21.5q-47 0 -90 -48t-83 -129t-78 -187.5t-77 -224.5z" />
<glyph unicode="&#xa4;" horiz-adv-x="1429" d="M150 88q25 25 57.5 47.5t71 53t83 73.5t87.5 107q-10 33 -14.5 66.5t-4.5 70.5q0 86 23.5 181t70.5 181q-72 78 -133 140.5t-108 105.5q-16 14 -26.5 49t-10.5 74t12 70q14 -12 44 -44t72 -78t94 -103.5t112 -120.5q53 70 120.5 113.5t145.5 43.5q74 0 128 -37t83 -102 q41 49 70.5 94t60.5 81t71.5 56.5t104.5 20.5q10 0 18.5 -1t18.5 -3q-12 -16 -41 -51t-70 -84.5t-94 -109.5t-111 -128q0 -8 1 -16.5t1 -16.5q0 -88 -28.5 -191.5t-81.5 -195.5q100 -94 166.5 -184t66.5 -164v-18.5t-4 -18.5q-29 53 -108.5 123t-177.5 174 q-53 -66 -117 -107.5t-137 -41.5q-57 0 -99.5 21.5t-70.5 60.5q-94 -104 -182.5 -147.5t-163.5 -43.5zM547 485q0 -41 12 -73.5t32.5 -56t44 -37t46.5 -13.5q51 0 104.5 53.5t96.5 134t69.5 175t26.5 176.5q0 76 -42 124t-91 48q-63 0 -117.5 -57.5t-94.5 -140.5t-63.5 -174 t-23.5 -159z" />
<glyph unicode="&#xa5;" horiz-adv-x="1660" d="M205 1104q0 63 30.5 128.5t85 120t125 88.5t150.5 34q57 0 98 -18.5t66.5 -48.5t37 -66.5t11.5 -73.5q0 -57 -21.5 -140.5t-47 -175.5t-47 -187t-21.5 -177q0 -90 32.5 -143.5t110.5 -53.5q72 0 135.5 46t118.5 120t100 164t80 180q27 111 56.5 214.5t60.5 183t63.5 128 t65.5 48.5q20 0 53 -17.5t62 -48.5q-35 -57 -62.5 -106.5t-51 -105.5t-46.5 -124.5t-48.5 -163t-57 -219.5t-72.5 -293q-10 -41 -20.5 -83t-22.5 -83q70 -4 124 -7t85 -7q-51 -37 -109.5 -48t-101.5 -11h-19q-20 -66 -45 -129q90 -2 164 -7.5t111 -9.5q-51 -37 -109.5 -48 t-101.5 -11h-97q-33 -72 -74.5 -133.5t-97 -106.5t-124 -70.5t-154.5 -25.5q-59 0 -110.5 12.5t-89.5 37t-60.5 60t-22.5 83.5q0 53 30 91.5t93 61.5q-10 -31 -13 -59.5t-3 -50.5q0 -86 44 -135.5t134 -49.5q61 0 111.5 23.5t91.5 62.5t73.5 91.5t57.5 107.5 q-74 0 -149.5 -4t-159.5 -19q23 57 115.5 77t224.5 24q12 33 21 64.5t19 62.5h-10q-88 0 -179 -3t-191 -20q12 31 45.5 50.5t85 30.5t117 15.5t139.5 4.5h12l4 12q16 70 36.5 180.5t49.5 239.5q-41 -78 -88 -144.5t-101.5 -114t-118 -74t-136.5 -26.5q-121 0 -172.5 67.5 t-51.5 176.5q0 80 21.5 174t48.5 188.5t48.5 183.5t21.5 158q0 66 -26 113t-91 47q-57 0 -98 -37t-69 -90t-41 -114.5t-13 -112.5q0 -61 16 -100q-78 0 -109.5 40.5t-31.5 100.5z" />
<glyph unicode="&#xa6;" horiz-adv-x="534" d="M92 -270q18 47 32.5 117.5t28 158.5t26 189.5t22.5 207.5q14 14 39.5 27.5t54.5 13.5q16 0 20 -16t4 -31q-10 -158 -23 -281.5t-36.5 -209.5t-63.5 -131t-104 -45zM219 606q12 137 23.5 268.5t21.5 242t20.5 191.5t20.5 119q35 -16 46 -53t11 -63q0 -41 -3 -97.5t-7 -126 t-7 -147.5t-3 -158q0 -18 -13.5 -62t-52.5 -73z" />
<glyph unicode="&#xa7;" horiz-adv-x="854" d="M-6 57q0 51 15.5 84t40 53.5t54 28.5t56.5 8q-35 -37 -53.5 -83t-18.5 -91q0 -72 48 -128t153 -56q45 0 88 12.5t77.5 36t56 59t21.5 82.5q0 55 -29.5 97.5t-74.5 78t-98.5 69.5t-98.5 75t-74.5 91t-29.5 120q0 53 20.5 105.5t61.5 92t102.5 64.5t143.5 25h24.5t24.5 -2 q-39 23 -77 46t-68.5 52t-49 64.5t-18.5 82.5q0 53 26.5 114.5t74.5 114t115.5 86.5t147.5 34q84 0 115 -36t31 -94q0 -37 -10.5 -77.5t-24.5 -78.5t-32.5 -73t-33.5 -59q-27 4 -35 20.5t-8 34.5q0 29 12.5 64.5t26 72.5t25.5 74t12 65q0 27 -15.5 41.5t-55.5 14.5 q-61 0 -114.5 -30t-92.5 -74t-60.5 -94t-21.5 -93q0 -49 27.5 -83t67.5 -61.5t88 -55t88 -66.5t67.5 -94.5t27.5 -135.5q0 -135 -75.5 -199.5t-204.5 -64.5q-27 0 -41.5 3t-27.5 7.5t-28.5 11.5t-42.5 17q23 -25 73 -50.5t101.5 -62t90.5 -89t39 -126.5q0 -66 -33 -118 t-85 -87.5t-114.5 -55t-124.5 -19.5q-53 0 -102 14t-87 43t-60.5 74t-22.5 104zM242 635q0 -18 5 -46t23.5 -53.5t55 -44t102.5 -18.5q195 0 195 174q0 78 -43 126t-136 48q-39 0 -75.5 -10t-64.5 -32.5t-45 -57.5t-17 -86z" />
<glyph unicode="&#xa8;" horiz-adv-x="491" d="M0 954q0 18 12.5 36t33 31t44 21.5t45.5 8.5q29 0 45.5 -12.5t16.5 -45.5q0 -18 -10.5 -35.5t-28 -32t-38.5 -23.5t-44 -9q-31 0 -53.5 14.5t-22.5 46.5zM295 911q0 18 12 36t32.5 31t44.5 21.5t46 8.5q29 0 45.5 -12.5t16.5 -45.5q0 -18 -10.5 -35.5t-28 -32 t-38.5 -23.5t-44 -9q-31 0 -53.5 14.5t-22.5 46.5z" />
<glyph unicode="&#xa9;" d="M141 733q0 137 47.5 238.5t121 167t163.5 98.5t176 33t175 -33t162 -98.5t118 -165t45 -232.5q0 -137 -47 -238.5t-121 -167t-164 -98t-176 -32.5t-175 32.5t-162 98t-118 165t-45 232.5zM199 733q0 -102 31.5 -188t90 -149.5t140.5 -98.5t180 -35t180 35t142.5 98.5 t94.5 151.5t34 194q0 102 -32 188.5t-90.5 150t-140 98t-180.5 34.5q-98 0 -180 -34.5t-142.5 -98t-94 -151.5t-33.5 -195zM481 612v271q0 102 48.5 144t117.5 42q47 0 80 -16.5t52.5 -39t27.5 -47t8 -42.5q0 -23 -10 -29t-21 -6q-20 0 -24 7t-6 17q-2 14 -7.5 32t-16.5 33 t-30.5 25.5t-50.5 10.5q-49 0 -77.5 -32t-28.5 -99v-271q0 -131 110 -131q29 0 48.5 12.5t30.5 29t16.5 32.5t5.5 27q0 14 10 19t16 5q35 0 35 -28q-4 -61 -46 -105.5t-122 -44.5q-72 0 -119 42t-47 142z" />
<glyph unicode="&#xaa;" horiz-adv-x="786" d="M195 1036q0 63 35.5 140t93 142.5t128 111t140.5 45.5q55 0 92 -30t37 -77q0 -35 -19.5 -48t-50.5 -13q4 12 6 25.5t2 23.5q0 33 -16 57.5t-55 24.5q-51 0 -103.5 -44t-95.5 -107.5t-69.5 -134.5t-26.5 -122q0 -55 39 -55q33 0 75 33.5t82.5 83t78.5 103.5t65 93 q12 -4 34.5 -12t22.5 -25q0 -12 -13 -34.5t-28.5 -50t-29 -57.5t-13.5 -56q0 -23 11.5 -43.5t37.5 -20.5q39 0 101.5 56.5t128.5 171.5l14 -15q-23 -59 -55.5 -107t-70.5 -82t-79 -53.5t-78 -19.5q-53 0 -78.5 32t-25.5 68q0 10 1 20.5t3 22.5q-61 -84 -111.5 -126 t-103.5 -42q-47 0 -76.5 30t-29.5 91z" />
<glyph unicode="&#xab;" horiz-adv-x="892" d="M-8 324l26 4q41 20 90.5 56t99.5 79t95 91t78 93q4 -4 7 -19.5t3 -25.5q0 -41 -34.5 -83t-87 -82t-113 -74.5t-111.5 -61.5q35 -25 64.5 -46.5t65.5 -41.5t84 -41.5t118 -48.5q-10 -10 -24.5 -21.5t-35.5 -11.5q-37 0 -89 24.5t-102 61.5t-88 77t-46 71zM299 324l27 4 q41 20 90 56t99 79t95 91t78 93q4 -4 7 -19.5t3 -25.5q0 -41 -34.5 -83t-87 -82t-113 -74.5t-111.5 -61.5q35 -25 64.5 -46.5t65.5 -41.5t84 -41.5t118 -48.5q-10 -10 -24.5 -21.5t-34.5 -11.5q-37 0 -89.5 24.5t-102.5 61.5t-88 77t-46 71z" />
<glyph unicode="&#xac;" horiz-adv-x="1368" d="M70 377q18 31 73.5 50t137 30.5t186 15.5t221.5 4q86 0 166 -1t152 -5q4 27 17 54.5t40 52.5q2 -16 5 -45t7 -66q53 -2 94 -4t70 -4q-37 -16 -78 -27.5t-82 -19.5q0 -18 1 -37t1 -37q0 -104 -19.5 -179t-80.5 -91q10 43 14 76.5t6.5 69.5t2.5 80v109q-29 -4 -54.5 -4 h-48.5q-115 0 -202 -1t-155.5 -1h-125t-109.5 -2t-110.5 -7t-128.5 -11z" />
<glyph unicode="&#xad;" horiz-adv-x="993" d="M51 295q12 31 46 50.5t85 30.5t117 15t139 4q111 0 205 -7t139 -11q-23 -16 -51.5 -27.5t-74.5 -18.5t-116.5 -10.5t-174.5 -3.5q-47 0 -84 -1t-73 -3t-73 -6t-84 -12z" />
<glyph unicode="&#xae;" d="M141 733q0 137 47.5 238.5t121 167t163.5 98.5t176 33t175 -33t162 -98.5t118 -165t45 -232.5q0 -137 -47 -238.5t-121 -167t-164 -98t-176 -32.5t-175 32.5t-162 98t-118 165t-45 232.5zM199 733q0 -102 31.5 -188t90 -149.5t140.5 -98.5t180 -35t180 35t142.5 98.5 t94.5 151.5t34 194q0 102 -32 188.5t-90.5 150t-140 98t-180.5 34.5q-98 0 -180 -34.5t-142.5 -98t-94 -151.5t-33.5 -195zM494 459v581q0 10 8 18.5t22 8.5h129q72 0 124 -37t52 -135q0 -78 -35.5 -118t-86.5 -50l118 -254q4 -8 4 -14q0 -29 -28 -29q-18 0 -32.5 25.5 t-18.5 33.5l-109 234h-84v-264q0 -14 -10 -21.5t-21 -7.5q-12 0 -22 7t-10 22zM557 776h96q51 0 82 27.5t31 91.5q0 63 -30.5 90t-82.5 27h-96v-236z" />
<glyph unicode="&#xb0;" horiz-adv-x="544" d="M168 922q0 37 19.5 76.5t53 73.5t79 56.5t98.5 22.5q86 0 120.5 -32t34.5 -79q0 -37 -20.5 -77.5t-56 -74.5t-82.5 -55.5t-99 -21.5q-80 0 -113.5 31.5t-33.5 79.5zM233 922q0 -33 21.5 -54.5t71.5 -21.5q33 0 66.5 19.5t60 49t43 63.5t16.5 64q0 33 -21.5 53.5 t-72.5 20.5q-35 0 -68 -19.5t-59.5 -48t-42 -62.5t-15.5 -64z" />
<glyph unicode="&#xb1;" horiz-adv-x="921" d="M90 172q20 49 117.5 64.5t230.5 15.5q98 0 183.5 -5t126.5 -9q-23 -12 -47.5 -21.5t-60.5 -15.5t-86 -8.5t-120 -2.5q-86 0 -170 -3t-174 -15zM90 592q16 43 97 59.5t196 20.5v82q0 35 9 81t44 87q4 -35 9.5 -102.5t7.5 -147.5q94 -2 175 -6t120 -9q-47 -31 -98.5 -40 t-92.5 -9h-104q-4 -104 -22 -179t-69 -91q6 37 10.5 69.5t6.5 63.5t3 63.5t1 73.5h-80t-67.5 -2t-67.5 -5t-78 -9z" />
<glyph unicode="&#xb2;" horiz-adv-x="727" d="M127 715q0 53 84 53q23 0 48.5 -4t55.5 -10q45 41 93.5 102.5t86 132t62.5 145t25 142.5q0 74 -29 106.5t-72 32.5q-61 0 -96 -57.5t-35 -143.5q0 -20 3 -35.5t12 -37.5h-17q-39 10 -58.5 30.5t-19.5 63.5q0 41 16.5 80t47.5 68.5t73 48t91 18.5q78 0 125 -55.5 t47 -132.5q0 -68 -24.5 -140.5t-64.5 -142.5t-92.5 -131.5t-107.5 -106.5l16 -4q53 -12 102.5 -22t84.5 -10q16 0 35.5 7t54.5 29q-16 -61 -43 -89.5t-74 -28.5q-41 0 -94 18t-105 41l-39 16q-66 -43 -114 -43q-35 0 -56.5 16.5t-21.5 43.5zM174 713q0 -10 9.5 -15.5 t19.5 -5.5q14 0 28.5 7.5t34.5 19.5q-37 14 -63 14q-16 0 -22.5 -7t-6.5 -13z" />
<glyph unicode="&#xb3;" horiz-adv-x="604" d="M145 793q0 39 22.5 75.5t70.5 36.5h12t16 -4q-16 -14 -25.5 -42t-9.5 -54q0 -47 26 -84t73 -37q29 0 56.5 16.5t50 45t36.5 69.5t14 90q0 59 -26.5 114.5t-93.5 72.5q39 18 70.5 46.5t54 63.5t35 70.5t12.5 66.5q0 53 -26 75t-58 22q-41 0 -75 -28t-34 -79q0 -29 16 -67 q-6 -12 -21 -22.5t-28 -10.5q-23 0 -33 28.5t-10 55.5q0 37 17.5 66.5t45 50t62.5 30.5t72 10q63 0 113.5 -33.5t50.5 -101.5q0 -33 -12.5 -68.5t-35 -68.5t-53 -58.5t-67.5 -37.5q80 -29 111.5 -87.5t31.5 -109.5q0 -49 -21.5 -96t-60.5 -84t-91 -59.5t-114 -22.5 q-49 0 -81.5 14.5t-53 36t-30 48t-9.5 51.5z" />
<glyph unicode="&#xb4;" horiz-adv-x="258" d="M180 893q0 18 21.5 59t54.5 83t69.5 74t67.5 32q16 0 28.5 -13.5t16.5 -50.5q-74 -66 -129 -122t-100 -115q-16 8 -22.5 25.5t-6.5 27.5z" />
<glyph unicode="&#xb5;" horiz-adv-x="1198" d="M-102 -496q25 84 49 150.5t48.5 134.5t49.5 146.5t50.5 186t50 255t49.5 352.5q2 18 8 26.5t30 8.5q53 0 76 -29.5t23 -64.5q-45 -201 -72 -336t-27 -211q0 -102 60 -103q47 0 100 61.5t104.5 147.5t95.5 177.5t73 148.5q8 -2 24.5 -5t32.5 -9t28.5 -16.5t12.5 -22.5 q0 -8 -21.5 -55.5t-47 -112t-47 -133t-21.5 -119.5q0 -37 15 -59.5t52 -22.5q33 0 76 22.5t90 64.5t93 103.5t83 141.5l27 -19q-33 -84 -81 -152.5t-103.5 -117.5t-113.5 -76.5t-114 -27.5q-82 0 -112.5 44t-30.5 107q0 25 4 50.5t10 52.5q-29 -51 -59.5 -97.5t-64 -81 t-69.5 -55t-75 -20.5q-51 0 -86 34q-76 -268 -127 -407t-80 -139q-14 0 -25.5 11t-19.5 24.5t-13 25.5t-5 16z" />
<glyph unicode="&#xb6;" horiz-adv-x="1320" d="M104 688q0 115 60.5 203t154 150.5t206 98.5t216.5 46q-4 152 -18 264q33 16 59 16q35 0 50.5 -30.5t20.5 -74.5t5 -92t2 -85q23 -2 43.5 -5t42.5 -8q-2 86 -5 158t-7 121q24 16 53 16q18 0 30.5 -26.5t21 -71.5t13.5 -103.5t9 -121.5q53 -16 96 -33.5t74 -34.5 q-4 -8 -14.5 -17t-24.5 -17.5t-26.5 -14.5t-18.5 -6q-10 0 -30.5 13.5t-53.5 29.5q2 -27 2 -53.5v-51.5q0 -481 -12.5 -741t-20.5 -293q-16 -47 -55 -74.5t-84 -27.5q2 6 7 68.5t11.5 164t12.5 231.5t11 271t8 283.5t3 267.5v8q-35 10 -84 21q2 -39 3 -97.5t2 -122t1 -126 v-107.5q0 -346 -13 -541.5t-21 -218.5t-28 -41t-45.5 -32.5t-53 -21.5t-54.5 -7q8 109 20.5 235.5t22.5 261.5q-41 2 -101 9.5t-126 23t-131.5 42t-116.5 66.5t-84 96t-33 132z" />
<glyph unicode="&#xb7;" horiz-adv-x="430" d="M57 309q0 35 39 59.5t80 24.5q25 0 39 -10t14 -39q0 -31 -32.5 -60.5t-73.5 -29.5q-27 0 -46.5 13.5t-19.5 41.5z" />
<glyph unicode="&#xb8;" horiz-adv-x="446" d="M41 -281q0 35 45 68q10 -49 34.5 -70.5t51.5 -21.5q29 0 59.5 17.5t55 44t40 58t15.5 58.5q0 16 -7 33.5t-28 17.5q-20 0 -47 -13t-51.5 -28.5t-46 -29t-29.5 -13.5q-14 0 -21.5 13.5t-7.5 23.5q0 2 12.5 20.5t30 43t36 47t30.5 35.5l72 55l-109 -166q23 16 55.5 32.5 t81.5 16.5q92 0 93 -86q0 -43 -19.5 -85t-52.5 -73.5t-77 -51t-91 -19.5q-59 0 -92 22.5t-33 50.5z" />
<glyph unicode="&#xb9;" horiz-adv-x="532" d="M115 692h24q4 0 9.5 -1t9.5 -1q45 0 102 10q25 53 44.5 137.5t35.5 173.5t30.5 170t28.5 130q-49 -33 -71.5 -43.5t-32.5 -10.5q-16 0 -23.5 7.5t-7.5 29.5q12 6 38 23.5t55.5 41t61.5 52.5t60 57h13q6 -6 8 -15t2 -17q0 -16 -4 -34t-9 -34q-6 -25 -14 -66.5t-18.5 -92 t-21.5 -105.5l-21 -105l-27 -127q-12 -57 -24.5 -97t-32.5 -64q10 2 26 2q41 0 70 -12.5t37 -53.5q-20 2 -44 3t-44 1q-53 0 -91 -4t-81 -4q-20 0 -46 12.5t-42 36.5z" />
<glyph unicode="&#xba;" horiz-adv-x="573" d="M199 1049q0 57 29.5 130.5t78.5 139t111.5 111t128.5 45.5q47 0 61 -29q33 0 46.5 -19.5t13.5 -35.5q0 -12 -9.5 -32t-19.5 -43.5t-19.5 -50t-9.5 -55.5q0 -20 12.5 -26t28.5 -6q14 0 29 2t27 4q-10 -16 -34 -28.5t-50 -12.5q-39 0 -54 26q-47 -106 -113.5 -174.5 t-142.5 -68.5q-53 0 -83.5 34.5t-30.5 88.5zM291 1059q0 -33 14 -52.5t41 -19.5q25 0 52.5 17.5t55 46t53 68.5t44.5 87q-8 33 -8 82t7 81t19 50q-61 0 -112 -41t-88 -98t-57.5 -118.5t-20.5 -102.5z" />
<glyph unicode="&#xbb;" horiz-adv-x="931" d="M84 602q0 10 3 25.5t7 19.5q33 -45 78 -93t95 -91t99.5 -79t90.5 -56l26 -4q-8 -31 -46 -71t-88 -77t-102 -61.5t-89 -24.5q-20 0 -34.5 11.5t-25.5 21.5q70 27 118 48.5t84 41.5t65.5 41.5t64.5 46.5q-51 27 -111.5 61.5t-112.5 74.5t-87 82t-35 83zM391 602 q0 10 3 25.5t7 19.5q33 -45 78 -93t95.5 -91t99.5 -79t90 -56l27 -4q-8 -31 -46 -71t-88.5 -77t-102.5 -61.5t-89 -24.5q-20 0 -34.5 11.5t-24.5 21.5q70 27 117.5 48.5t83.5 41.5t65.5 41.5t64.5 46.5q-51 27 -111.5 61.5t-112.5 74.5t-87 82t-35 83z" />
<glyph unicode="&#xbc;" horiz-adv-x="1316" d="M72 -178q47 47 120.5 155.5t159.5 250t177.5 304t173 320.5t147 297t102.5 233q6 14 24.5 31t43 30t52 22.5t52.5 9.5q-10 -29 -53 -115l-102.5 -205t-132 -256t-143 -269t-135 -247t-107.5 -184q-106 -170 -198.5 -273.5t-180.5 -103.5zM115 692h24q4 0 9.5 -1t9.5 -1 q45 0 102 10q25 53 44.5 137.5t35.5 173.5t30.5 170t28.5 130q-49 -33 -71.5 -43.5t-32.5 -10.5q-16 0 -23.5 7.5t-7.5 29.5q12 6 38 23.5t55.5 41t61.5 52.5t60 57h13q6 -6 8 -15t2 -17q0 -16 -4 -34t-9 -34q-6 -25 -14 -66.5t-18.5 -92t-21.5 -105.5l-21 -105l-27 -127 q-12 -57 -24.5 -97t-32.5 -64q10 2 26 2q41 0 70 -12.5t37 -53.5q-20 2 -44 3t-44 1q-53 0 -91 -4t-81 -4q-20 0 -46 12.5t-42 36.5zM696 258q0 18 6.5 30.5t14.5 20.5q47 41 107.5 95.5t120 116t112.5 126t88 125.5q27 -4 26 -29q0 -6 -7 -30.5t-19 -72.5t-29.5 -123 t-38.5 -181h35q16 0 33.5 3t40.5 7q-23 -33 -52.5 -52.5t-52.5 -19.5h-14q-4 -16 -10 -57t-14.5 -90t-13.5 -99.5t-5 -80.5q-45 4 -71.5 16t-26.5 37q0 2 2 16.5t7 46t15.5 83t26.5 128.5q-10 0 -19.5 1t-19.5 1h-35q-66 0 -116 -4t-91 -14zM809 338q18 2 39.5 3t48.5 1 q16 0 29.5 -1t27.5 -1h39l11 47q10 53 20 97t25 87l-91 -88q-35 -35 -74.5 -71.5t-74.5 -73.5z" />
<glyph unicode="&#xbd;" horiz-adv-x="1431" d="M84 -178q47 47 121 155.5t160 250t177 304t173 320.5t147.5 297t102.5 233q6 14 24.5 31t43 30t52 22.5t52.5 9.5q-10 -29 -53.5 -115t-102.5 -205t-132 -256t-143.5 -269t-135 -247t-107.5 -184q-106 -170 -198.5 -273.5t-180.5 -103.5zM127 692h25q4 0 9 -1t9 -1 q45 0 102 10q25 53 44.5 137.5t36 173.5t30.5 170t29 130q-49 -33 -72 -43.5t-33 -10.5q-16 0 -23.5 7.5t-7.5 29.5q12 6 38 23.5t55.5 41t61.5 52.5t61 57h12q6 -6 8 -15t2 -17q0 -16 -4 -34t-8 -34q-6 -25 -14.5 -66.5t-18.5 -92t-21.5 -105.5t-21.5 -105l-27 -127 q-12 -57 -24.5 -97t-32.5 -64q10 2 27 2q41 0 69.5 -12.5t36.5 -53.5q-20 2 -43.5 3t-44.5 1q-53 0 -91 -4t-81 -4q-20 0 -46 12.5t-42 36.5zM686 39q0 53 84 53q23 0 48.5 -4t55.5 -10q45 41 93.5 102.5t86.5 132t62.5 145t24.5 142.5q0 74 -29 106.5t-72 32.5 q-61 0 -96 -57t-35 -143q0 -20 3 -36t12 -38h-17q-39 10 -58.5 30.5t-19.5 63.5q0 41 16.5 80t47.5 68.5t73 48t91 18.5q78 0 125 -55t47 -133q0 -68 -24.5 -140.5t-64.5 -142.5t-92.5 -131t-107.5 -106l16 -5q53 -12 102.5 -22t84.5 -10q16 0 35.5 7t54.5 30 q-16 -61 -43 -90t-74 -29q-41 0 -94 18.5t-104 40.5l-39 17q-66 -43 -115 -43q-35 0 -56.5 16t-21.5 43zM733 37q0 -10 9.5 -15.5t19.5 -5.5q14 0 28.5 7.5t34.5 19.5q-37 14 -63 14q-16 0 -22.5 -7t-6.5 -13z" />
<glyph unicode="&#xbe;" horiz-adv-x="1404" d="M150 793q0 39 22.5 75.5t69.5 36.5h12t16 -4q-16 -14 -25 -42t-9 -54q0 -47 25.5 -84t72.5 -37q29 0 56.5 16.5t50 45t37 69.5t14.5 90q0 59 -27 114.5t-94 72.5q39 18 70.5 46.5t54 63.5t35 70.5t12.5 66.5q0 53 -25.5 75t-58.5 22q-41 0 -75 -28t-34 -79q0 -29 17 -67 q-6 -12 -21.5 -22.5t-28.5 -10.5q-23 0 -33 28.5t-10 55.5q0 37 17.5 66.5t45.5 50t62.5 30.5t71.5 10q63 0 113.5 -33.5t50.5 -101.5q0 -33 -12.5 -68.5t-35 -68.5t-53 -58.5t-67.5 -37.5q80 -29 111.5 -87.5t31.5 -109.5q0 -49 -21.5 -96t-60.5 -84t-91 -59.5t-113 -22.5 q-49 0 -82 14.5t-53.5 36t-29.5 48t-9 51.5zM160 -178q47 47 120.5 155.5t159.5 250t177.5 304t173 320.5t147.5 297t102 233q6 14 24.5 31t43.5 30t52 22.5t52 9.5q-10 -29 -53 -115l-102.5 -205t-132 -256t-143 -269t-135 -247t-107.5 -184q-106 -170 -198.5 -273.5 t-180.5 -103.5zM784 258q0 18 6.5 30.5t14.5 20.5q47 41 107.5 95.5t120 116t112.5 126t88 125.5q27 -4 27 -29q0 -6 -7.5 -30.5t-19.5 -72.5t-29.5 -123t-38.5 -181h35q16 0 33.5 3t40.5 7q-23 -33 -52.5 -52.5t-52.5 -19.5h-14q-4 -16 -10 -57t-14.5 -90t-13.5 -99.5 t-5 -80.5q-45 4 -71.5 16t-26.5 37q0 2 2 16.5t7 46t15.5 83t26.5 128.5q-10 0 -19.5 1t-19.5 1h-35q-66 0 -116 -4t-91 -14zM897 338q18 2 39.5 3t48.5 1q16 0 29.5 -1t27.5 -1h39l11 47q10 53 20 97t25 87l-90 -88q-35 -35 -75 -71.5t-75 -73.5z" />
<glyph unicode="&#xbf;" horiz-adv-x="851" d="M-123 -330q0 68 23.5 122t60.5 102.5t82 93.5t90 94t83 105.5t60 127.5q20 63 24.5 112.5t27.5 96.5q41 -18 52 -34.5t11 -51.5q0 -74 -28.5 -135t-72.5 -117.5t-94.5 -111t-94.5 -113.5t-72.5 -125.5t-28.5 -148.5q0 -104 46 -156.5t116 -52.5q53 0 108.5 30.5t99.5 84 t72.5 124t28.5 152.5q0 31 -4 54.5t-10 49.5q78 -10 102.5 -48t24.5 -93q0 -78 -32 -151.5t-88 -130t-136 -90t-174 -33.5q-129 0 -203 62t-74 181zM299 705q0 35 33 64.5t74 29.5q27 0 46 -13.5t19 -40.5q0 -37 -39 -61.5t-80 -24.5q-53 0 -53 46z" />
<glyph unicode="&#xc0;" d="M-35 -72q0 43 24.5 109.5t66.5 150.5t98.5 181.5t121.5 199.5q-76 6 -129 8.5t-92 2.5h-71q23 59 79 82.5t134 23.5q35 0 70.5 -4t76.5 -10q78 117 160 231.5t158.5 214t144 177t115.5 122.5q59 57 98 58q43 0 108 -66q-20 -16 -52 -88t-67.5 -177.5t-70.5 -233.5 t-63.5 -258t-47 -249.5t-18.5 -209.5q0 -78 17.5 -121t58.5 -43q53 0 120.5 73.5t147.5 229.5l21 -21q-31 -82 -71 -150.5t-86 -117.5t-96.5 -76.5t-101.5 -27.5q-86 0 -123 74.5t-37 199.5q0 131 35 305q-92 14 -165.5 23.5t-137.5 17.5q-98 -180 -188 -367.5t-168 -369.5 q-47 27 -58.5 56.5t-11.5 49.5zM444 653q70 -16 137.5 -32.5t127.5 -30.5q23 100 52.5 204.5t61 204t66 187.5t65.5 160q-47 -29 -106.5 -93.5t-125 -154.5t-136 -204t-142.5 -241zM891 1769q4 37 16.5 50.5t28.5 13.5q31 0 67.5 -32t69.5 -73.5t54.5 -82.5t21.5 -60 q0 -10 -6 -27.5t-23 -25.5q-45 59 -100 115t-129 122z" />
<glyph unicode="&#xc1;" d="M-35 -72q0 43 24.5 109.5t66.5 150.5t98.5 181.5t121.5 199.5q-76 6 -129 8.5t-92 2.5h-71q23 59 79 82.5t134 23.5q35 0 70.5 -4t76.5 -10q78 117 160 231.5t158.5 214t144 177t115.5 122.5q59 57 98 58q43 0 108 -66q-20 -16 -52 -88t-67.5 -177.5t-70.5 -233.5 t-63.5 -258t-47 -249.5t-18.5 -209.5q0 -78 17.5 -121t58.5 -43q53 0 120.5 73.5t147.5 229.5l21 -21q-31 -82 -71 -150.5t-86 -117.5t-96.5 -76.5t-101.5 -27.5q-86 0 -123 74.5t-37 199.5q0 131 35 305q-92 14 -165.5 23.5t-137.5 17.5q-98 -180 -188 -367.5t-168 -369.5 q-47 27 -58.5 56.5t-11.5 49.5zM444 653q70 -16 137.5 -32.5t127.5 -30.5q23 100 52.5 204.5t61 204t66 187.5t65.5 160q-47 -29 -106.5 -93.5t-125 -154.5t-136 -204t-142.5 -241zM1057 1585q0 18 21.5 59.5t54 83t69.5 73.5t68 32q16 0 28.5 -13.5t16.5 -50.5 q-74 -66 -129.5 -122t-100.5 -115q-16 8 -22 25.5t-6 27.5z" />
<glyph unicode="&#xc2;" d="M-35 -72q0 43 24.5 109.5t66.5 150.5t98.5 181.5t121.5 199.5q-76 6 -129 8.5t-92 2.5h-71q23 59 79 82.5t134 23.5q35 0 70.5 -4t76.5 -10q78 117 160 231.5t158.5 214t144 177t115.5 122.5q59 57 98 58q43 0 108 -66q-20 -16 -52 -88t-67.5 -177.5t-70.5 -233.5 t-63.5 -258t-47 -249.5t-18.5 -209.5q0 -78 17.5 -121t58.5 -43q53 0 120.5 73.5t147.5 229.5l21 -21q-31 -82 -71 -150.5t-86 -117.5t-96.5 -76.5t-101.5 -27.5q-86 0 -123 74.5t-37 199.5q0 131 35 305q-92 14 -165.5 23.5t-137.5 17.5q-98 -180 -188 -367.5t-168 -369.5 q-47 27 -58.5 56.5t-11.5 49.5zM444 653q70 -16 137.5 -32.5t127.5 -30.5q23 100 52.5 204.5t61 204t66 187.5t65.5 160q-47 -29 -106.5 -93.5t-125 -154.5t-136 -204t-142.5 -241zM856 1634q0 31 28.5 63t67.5 57.5t78 43t60 17.5q25 0 56.5 -24t60 -57.5t48 -73.5 t19.5 -73q0 -20 -8.5 -36.5t-26.5 -26.5q-29 59 -65.5 100t-86.5 88q-63 -23 -113 -49.5t-97 -67.5q-12 8 -16.5 18.5t-4.5 20.5z" />
<glyph unicode="&#xc3;" d="M-35 -72q0 43 24.5 109.5t66.5 150.5t98.5 181.5t121.5 199.5q-76 6 -129 8.5t-92 2.5h-71q23 59 79 82.5t134 23.5q35 0 70.5 -4t76.5 -10q78 117 160 231.5t158.5 214t144 177t115.5 122.5q59 57 98 58q43 0 108 -66q-20 -16 -52 -88t-67.5 -177.5t-70.5 -233.5 t-63.5 -258t-47 -249.5t-18.5 -209.5q0 -78 17.5 -121t58.5 -43q53 0 120.5 73.5t147.5 229.5l21 -21q-31 -82 -71 -150.5t-86 -117.5t-96.5 -76.5t-101.5 -27.5q-86 0 -123 74.5t-37 199.5q0 131 35 305q-92 14 -165.5 23.5t-137.5 17.5q-98 -180 -188 -367.5t-168 -369.5 q-47 27 -58.5 56.5t-11.5 49.5zM444 653q70 -16 137.5 -32.5t127.5 -30.5q23 100 52.5 204.5t61 204t66 187.5t65.5 160q-47 -29 -106.5 -93.5t-125 -154.5t-136 -204t-142.5 -241zM764 1554q41 53 82 74t88 21q43 0 89 -14.5t95 -31t102.5 -30.5t110.5 -14q31 0 62 6 q-37 -41 -77 -57.5t-83 -16.5t-89 12.5t-93 27.5t-95.5 27.5t-97.5 12.5q-53 -1 -94 -17z" />
<glyph unicode="&#xc4;" d="M-35 -72q0 43 24.5 109.5t66.5 150.5t98.5 181.5t121.5 199.5q-76 6 -129 8.5t-92 2.5h-71q23 59 79 82.5t134 23.5q35 0 70.5 -4t76.5 -10q78 117 160 231.5t158.5 214t144 177t115.5 122.5q59 57 98 58q43 0 108 -66q-20 -16 -52 -88t-67.5 -177.5t-70.5 -233.5 t-63.5 -258t-47 -249.5t-18.5 -209.5q0 -78 17.5 -121t58.5 -43q53 0 120.5 73.5t147.5 229.5l21 -21q-31 -82 -71 -150.5t-86 -117.5t-96.5 -76.5t-101.5 -27.5q-86 0 -123 74.5t-37 199.5q0 131 35 305q-92 14 -165.5 23.5t-137.5 17.5q-98 -180 -188 -367.5t-168 -369.5 q-47 27 -58.5 56.5t-11.5 49.5zM444 653q70 -16 137.5 -32.5t127.5 -30.5q23 100 52.5 204.5t61 204t66 187.5t65.5 160q-47 -29 -106.5 -93.5t-125 -154.5t-136 -204t-142.5 -241zM842 1647q0 18 12 35.5t32.5 30.5t44 21.5t46.5 8.5q29 0 45 -12.5t16 -44.5q0 -18 -10 -36 t-27.5 -32t-38.5 -23.5t-44 -9.5q-31 0 -53.5 14.5t-22.5 47.5zM1137 1604q0 18 12 35.5t32.5 30.5t44 21.5t46.5 8.5q29 0 45 -12.5t16 -45.5q0 -18 -10 -35.5t-27.5 -31.5t-39 -23.5t-44.5 -9.5q-31 0 -53 14.5t-22 47.5z" />
<glyph unicode="&#xc5;" d="M-35 -72q0 43 24.5 109.5t66.5 150.5t98.5 181.5t121.5 199.5q-76 6 -129 8.5t-92 2.5h-71q23 59 79 82.5t134 23.5q35 0 70.5 -4t76.5 -10q78 117 160 231.5t158.5 214t144 177t115.5 122.5q59 57 98 58q43 0 108 -66q-20 -16 -52 -88t-67.5 -177.5t-70.5 -233.5 t-63.5 -258t-47 -249.5t-18.5 -209.5q0 -78 17.5 -121t58.5 -43q53 0 120.5 73.5t147.5 229.5l21 -21q-31 -82 -71 -150.5t-86 -117.5t-96.5 -76.5t-101.5 -27.5q-86 0 -123 74.5t-37 199.5q0 131 35 305q-92 14 -165.5 23.5t-137.5 17.5q-98 -180 -188 -367.5t-168 -369.5 q-47 27 -58.5 56.5t-11.5 49.5zM444 653q70 -16 137.5 -32.5t127.5 -30.5q23 100 52.5 204.5t61 204t66 187.5t65.5 160q-47 -29 -106.5 -93.5t-125 -154.5t-136 -204t-142.5 -241zM926 1655q0 37 19.5 77t53 73.5t79 56t98.5 22.5q86 0 120.5 -31.5t34.5 -78.5 q0 -37 -20.5 -78t-56 -75t-83 -55.5t-98.5 -21.5q-80 0 -113.5 32t-33.5 79zM1006 1669q0 -29 20.5 -56.5t65.5 -27.5q31 0 59.5 17.5t52 44t37.5 57.5t14 57q0 29 -21.5 52.5t-68.5 23.5q-31 0 -59.5 -16.5t-51 -41t-35.5 -54t-13 -56.5z" />
<glyph unicode="&#xc6;" horiz-adv-x="1531" d="M-35 -72q0 43 24.5 109.5t66.5 150.5t98.5 181.5t121.5 199.5q-76 6 -129 8.5t-92 2.5h-71q23 59 79 82.5t134 23.5q35 0 70.5 -4t76.5 -10q104 158 211 303t199 255.5t161.5 177.5t104.5 67q82 0 175 -5.5t180 -12.5t161 -15t117 -15q-8 -23 -41 -37t-80 -22t-106.5 -11 t-120.5 -3q-55 0 -109.5 1t-101.5 3q-18 -35 -39 -88t-43.5 -119t-46 -142.5t-43.5 -158.5q141 -4 248.5 -20.5t177.5 -26.5q-8 -23 -41 -37t-80 -22.5t-106.5 -11.5t-121.5 -3h-60.5t-47.5 2q-35 -152 -58.5 -293t-23.5 -245q0 -51 6 -84q63 -10 146 -17.5t163 -14.5 t146.5 -14.5t101.5 -15.5q-8 -23 -41 -37t-80 -22t-106.5 -11.5t-120.5 -3.5q-86 0 -166 1t-139 8q-31 31 -45.5 92t-14.5 139q0 131 35 305q-92 14 -165.5 23.5t-137.5 17.5q-98 -180 -188 -367.5t-168 -369.5q-47 27 -58.5 56.5t-11.5 49.5zM444 653q70 -16 137.5 -32.5 t127.5 -30.5q23 100 52.5 204.5t61 204t66 187.5t65.5 160q-47 -29 -106.5 -93.5t-125 -154.5t-136 -204t-142.5 -241z" />
<glyph unicode="&#xc7;" horiz-adv-x="1153" d="M45 322q0 135 36 273t96.5 265t142 239.5t176 194.5t193.5 130.5t198 48.5q84 0 136 -40t52 -137q0 -59 -21.5 -135t-55 -142.5t-75.5 -112.5t-85 -46q-16 0 -34 10.5t-30 36.5q31 35 70 87.5t71.5 109.5t55 114.5t22.5 100.5q0 41 -23.5 66.5t-76.5 25.5 q-74 0 -152.5 -51t-155.5 -138t-144.5 -201t-120 -239t-82 -253t-29.5 -242q0 -76 16.5 -147.5t51 -127t89 -88.5t132.5 -33q82 0 163.5 36t155.5 96.5t135.5 140.5t102.5 168l28 -21q-41 -78 -88 -147.5t-104 -128.5l-80 -123q23 16 55.5 32.5t81.5 16.5q92 0 92 -86 q0 -43 -19.5 -85t-52 -73.5t-76.5 -51t-91 -19.5q-59 0 -92 22.5t-33 50.5q0 35 45 68q10 -49 34.5 -70.5t51.5 -21.5q29 0 59.5 17.5t55 44t40 58t15.5 58.5q0 16 -7 33.5t-28 17.5q-20 0 -47 -13t-51.5 -28.5t-46 -29t-29.5 -13.5q-14 0 -21.5 13.5t-7.5 23.5 q0 4 10.5 19.5t26.5 37.5q-74 -53 -155.5 -82.5t-171.5 -29.5q-109 0 -186 43t-125 113.5t-70.5 159.5t-22.5 184z" />
<glyph unicode="&#xc8;" horiz-adv-x="1021" d="M-31 195q0 94 41 185t114 163.5t169 122t207 59.5q-80 66 -118 152t-38 172q0 82 32 157.5t88 135t133 95.5t169 36q115 0 174 -57.5t59 -164.5q0 -57 -16 -112.5t-40.5 -99.5t-53.5 -70.5t-53 -26.5q-23 0 -43.5 19.5t-32.5 46.5q72 63 122 133.5t50 150.5q0 63 -37 98 t-109 35t-126 -32.5t-91 -89t-56 -131t-19 -158.5q0 -37 5 -78t17 -82t35.5 -80t60.5 -69q-102 -16 -186 -68.5t-143.5 -125.5t-91 -157t-31.5 -166q0 -51 14 -103t45 -95t81 -71t122 -28q82 0 164 36t155.5 96.5t135 140.5t102.5 168l29 -21q-53 -104 -122 -193 t-149 -155.5t-173 -103.5t-195 -37q-92 0 -166 29.5t-126 81t-80 119t-28 143.5zM629 1769q4 37 16 50.5t29 13.5q31 0 67.5 -32t69.5 -73.5t54.5 -82.5t21.5 -60q0 -10 -6.5 -27.5t-22.5 -25.5q-45 59 -100 115t-129 122z" />
<glyph unicode="&#xc9;" horiz-adv-x="1021" d="M-31 195q0 94 41 185t114 163.5t169 122t207 59.5q-80 66 -118 152t-38 172q0 82 32 157.5t88 135t133 95.5t169 36q115 0 174 -57.5t59 -164.5q0 -57 -16 -112.5t-40.5 -99.5t-53.5 -70.5t-53 -26.5q-23 0 -43.5 19.5t-32.5 46.5q72 63 122 133.5t50 150.5q0 63 -37 98 t-109 35t-126 -32.5t-91 -89t-56 -131t-19 -158.5q0 -37 5 -78t17 -82t35.5 -80t60.5 -69q-102 -16 -186 -68.5t-143.5 -125.5t-91 -157t-31.5 -166q0 -51 14 -103t45 -95t81 -71t122 -28q82 0 164 36t155.5 96.5t135 140.5t102.5 168l29 -21q-53 -104 -122 -193 t-149 -155.5t-173 -103.5t-195 -37q-92 0 -166 29.5t-126 81t-80 119t-28 143.5zM850 1585q0 18 21.5 59.5t54 83t69.5 73.5t68 32q16 0 28.5 -13.5t16.5 -50.5q-74 -66 -129 -122t-100 -115q-16 8 -22.5 25.5t-6.5 27.5z" />
<glyph unicode="&#xca;" horiz-adv-x="1021" d="M-31 195q0 94 41 185t114 163.5t169 122t207 59.5q-80 66 -118 152t-38 172q0 82 32 157.5t88 135t133 95.5t169 36q115 0 174 -57.5t59 -164.5q0 -57 -16 -112.5t-40.5 -99.5t-53.5 -70.5t-53 -26.5q-23 0 -43.5 19.5t-32.5 46.5q72 63 122 133.5t50 150.5q0 63 -37 98 t-109 35t-126 -32.5t-91 -89t-56 -131t-19 -158.5q0 -37 5 -78t17 -82t35.5 -80t60.5 -69q-102 -16 -186 -68.5t-143.5 -125.5t-91 -157t-31.5 -166q0 -51 14 -103t45 -95t81 -71t122 -28q82 0 164 36t155.5 96.5t135 140.5t102.5 168l29 -21q-53 -104 -122 -193 t-149 -155.5t-173 -103.5t-195 -37q-92 0 -166 29.5t-126 81t-80 119t-28 143.5zM686 1634q0 31 28.5 63t67.5 57.5t78 43t60 17.5q25 0 56.5 -24t60 -57.5t48 -73.5t19.5 -73q0 -20 -8.5 -36.5t-26.5 -26.5q-29 59 -65.5 100t-85.5 88q-63 -23 -113.5 -49.5t-97.5 -67.5 q-12 8 -16.5 18.5t-4.5 20.5z" />
<glyph unicode="&#xcb;" horiz-adv-x="1021" d="M-31 195q0 94 41 185t114 163.5t169 122t207 59.5q-80 66 -118 152t-38 172q0 82 32 157.5t88 135t133 95.5t169 36q115 0 174 -57.5t59 -164.5q0 -57 -16 -112.5t-40.5 -99.5t-53.5 -70.5t-53 -26.5q-23 0 -43.5 19.5t-32.5 46.5q72 63 122 133.5t50 150.5q0 63 -37 98 t-109 35t-126 -32.5t-91 -89t-56 -131t-19 -158.5q0 -37 5 -78t17 -82t35.5 -80t60.5 -69q-102 -16 -186 -68.5t-143.5 -125.5t-91 -157t-31.5 -166q0 -51 14 -103t45 -95t81 -71t122 -28q82 0 164 36t155.5 96.5t135 140.5t102.5 168l29 -21q-53 -104 -122 -193 t-149 -155.5t-173 -103.5t-195 -37q-92 0 -166 29.5t-126 81t-80 119t-28 143.5zM641 1647q0 18 12.5 35.5t33 30.5t44 21.5t45.5 8.5q29 0 45.5 -12.5t16.5 -44.5q0 -18 -10.5 -36t-28 -32t-38.5 -23.5t-44 -9.5q-31 0 -53.5 14.5t-22.5 47.5zM936 1604q0 18 12.5 35.5 t32.5 30.5t44 21.5t46 8.5q29 0 45.5 -12.5t16.5 -45.5q0 -18 -10.5 -35.5t-28 -31.5t-38.5 -23.5t-44 -9.5q-31 0 -53.5 14.5t-22.5 47.5z" />
<glyph unicode="&#xcc;" horiz-adv-x="942" d="M-78 -180q6 55 35 88t74 50t102 21.5t123 4.5q37 80 74 196.5t70.5 248.5t66.5 270.5t61.5 264.5t54 228t46.5 162q-80 -2 -140.5 -4t-112.5 -7.5t-101.5 -12.5t-106.5 -17q14 78 111.5 117.5t306.5 39.5q76 0 155.5 -5t152.5 -11t132 -13t96 -14q-49 -49 -103 -60 t-95 -11h-121t-103 -2q-6 -37 -19 -107.5t-29.5 -161t-37 -194t-40 -205.5t-40 -194.5t-36.5 -159.5q-35 -133 -75 -222.5t-97 -127.5q53 -4 110.5 -10.5t115.5 -12.5t113.5 -11t104.5 -5q-59 -59 -123.5 -73.5t-107.5 -14.5q-166 -2 -316.5 -4.5t-300.5 -30.5zM479 1769 q4 37 16.5 50.5t28.5 13.5q31 0 68 -32t69.5 -73.5t54 -82.5t21.5 -60q0 -10 -6 -27.5t-22 -25.5q-45 59 -100.5 115t-129.5 122z" />
<glyph unicode="&#xcd;" horiz-adv-x="942" d="M-78 -180q6 55 35 88t74 50t102 21.5t123 4.5q37 80 74 196.5t70.5 248.5t66.5 270.5t61.5 264.5t54 228t46.5 162q-80 -2 -140.5 -4t-112.5 -7.5t-101.5 -12.5t-106.5 -17q14 78 111.5 117.5t306.5 39.5q76 0 155.5 -5t152.5 -11t132 -13t96 -14q-49 -49 -103 -60 t-95 -11h-121t-103 -2q-6 -37 -19 -107.5t-29.5 -161t-37 -194t-40 -205.5t-40 -194.5t-36.5 -159.5q-35 -133 -75 -222.5t-97 -127.5q53 -4 110.5 -10.5t115.5 -12.5t113.5 -11t104.5 -5q-59 -59 -123.5 -73.5t-107.5 -14.5q-166 -2 -316.5 -4.5t-300.5 -30.5zM700 1585 q0 18 21.5 59.5t54.5 83t70 73.5t67 32q16 0 28.5 -13.5t16.5 -50.5q-74 -66 -129 -122t-100 -115q-16 8 -22.5 25.5t-6.5 27.5z" />
<glyph unicode="&#xce;" horiz-adv-x="942" d="M-78 -180q6 55 35 88t74 50t102 21.5t123 4.5q37 80 74 196.5t70.5 248.5t66.5 270.5t61.5 264.5t54 228t46.5 162q-80 -2 -140.5 -4t-112.5 -7.5t-101.5 -12.5t-106.5 -17q14 78 111.5 117.5t306.5 39.5q76 0 155.5 -5t152.5 -11t132 -13t96 -14q-49 -49 -103 -60 t-95 -11h-121t-103 -2q-6 -37 -19 -107.5t-29.5 -161t-37 -194t-40 -205.5t-40 -194.5t-36.5 -159.5q-35 -133 -75 -222.5t-97 -127.5q53 -4 110.5 -10.5t115.5 -12.5t113.5 -11t104.5 -5q-59 -59 -123.5 -73.5t-107.5 -14.5q-166 -2 -316.5 -4.5t-300.5 -30.5zM541 1634 q0 31 28.5 63t67.5 57.5t78 43t59 17.5q25 0 56.5 -24t60.5 -57.5t48 -73.5t19 -73q0 -20 -8 -36.5t-26 -26.5q-29 59 -66 100t-86 88q-63 -23 -113.5 -49.5t-97.5 -67.5q-12 8 -16 18.5t-4 20.5z" />
<glyph unicode="&#xcf;" horiz-adv-x="942" d="M-78 -180q6 55 35 88t74 50t102 21.5t123 4.5q37 80 74 196.5t70.5 248.5t66.5 270.5t61.5 264.5t54 228t46.5 162q-80 -2 -140.5 -4t-112.5 -7.5t-101.5 -12.5t-106.5 -17q14 78 111.5 117.5t306.5 39.5q76 0 155.5 -5t152.5 -11t132 -13t96 -14q-49 -49 -103 -60 t-95 -11h-121t-103 -2q-6 -37 -19 -107.5t-29.5 -161t-37 -194t-40 -205.5t-40 -194.5t-36.5 -159.5q-35 -133 -75 -222.5t-97 -127.5q53 -4 110.5 -10.5t115.5 -12.5t113.5 -11t104.5 -5q-59 -59 -123.5 -73.5t-107.5 -14.5q-166 -2 -316.5 -4.5t-300.5 -30.5zM494 1647 q0 18 12 35.5t32.5 30.5t44 21.5t46.5 8.5q29 0 45 -12.5t16 -44.5q0 -18 -10 -36t-27.5 -32t-39 -23.5t-44.5 -9.5q-31 0 -53 14.5t-22 47.5zM788 1604q0 18 12.5 35.5t33 30.5t44 21.5t46.5 8.5q29 0 45 -12.5t16 -45.5q0 -18 -10 -35.5t-27.5 -31.5t-39 -23.5t-44.5 -9.5 q-31 0 -53.5 14.5t-22.5 47.5z" />
<glyph unicode="&#xd0;" horiz-adv-x="1341" d="M66 561q16 47 85.5 68.5t170.5 27.5q47 154 88 273t61 172q6 16 20.5 48t35 64.5t47 56t57.5 23.5q29 0 57 -20q-57 -131 -115.5 -289t-111.5 -323q106 0 198.5 -7.5t137.5 -11.5q-51 -37 -109.5 -48t-101.5 -11h-150q-59 -190 -108 -370.5t-82 -330.5q29 -4 48 -6t40 -2 q109 0 213 43t196.5 119t170 178t134 220t88 246t31.5 255q0 125 -30.5 216t-86 150.5t-133 88t-169.5 28.5q-100 0 -186.5 -30.5t-149 -85t-98 -127t-35.5 -156.5q0 -45 10 -76q-68 0 -95.5 34t-27.5 81q0 72 51 145.5t138 134t204 98.5t250 38q137 0 234.5 -43t159 -119 t89 -178.5t27.5 -221.5q0 -147 -40 -285.5t-108.5 -260t-163 -222t-204 -172t-229 -111.5t-238.5 -40q-66 0 -122 17.5t-97 74.5q14 72 34.5 154t44 168t49 174t52.5 172q-59 0 -109 -5.5t-122 -15.5z" />
<glyph unicode="&#xd1;" horiz-adv-x="1312" d="M94 -178q25 98 62 218t89 289t121.5 397t161.5 542q4 10 9.5 35.5t5.5 48.5q0 20 -7.5 33.5t-23.5 13.5q-49 0 -93 -38t-76 -94.5t-50.5 -120t-18.5 -112.5q0 -41 11 -71q-68 0 -95.5 33.5t-27.5 82.5q0 70 42 140.5t103.5 127t133 92.5t130.5 36q61 0 101.5 -53.5 t66 -142.5t41 -205t29.5 -238q12 -102 24.5 -204t24.5 -193t22.5 -166.5t18.5 -125.5q14 96 42 219t61.5 253.5t70.5 257.5t69 231t55.5 176t31.5 90q6 12 18.5 29.5t28.5 33t37.5 27t44.5 11.5q-37 -94 -80 -231.5t-88 -294t-88 -322.5t-76 -318.5t-54.5 -279.5t-21.5 -207 q-66 0 -104.5 37t-54.5 129q-10 53 -25.5 147t-33 208t-36 239t-36 241.5t-33 217t-23.5 165.5q-82 -295 -143.5 -513t-107.5 -371.5t-80.5 -251t-63.5 -152.5t-56.5 -75.5t-58.5 -20.5zM635 1554q41 53 82 74t88 21q43 0 89 -14.5t95 -31t102.5 -30.5t110.5 -14q31 0 62 6 q-37 -41 -77 -57.5t-83 -16.5t-89 12.5t-93.5 27.5t-95.5 27.5t-97 12.5q-53 -1 -94 -17z" />
<glyph unicode="&#xd2;" horiz-adv-x="1277" d="M43 330q0 131 36 267t97.5 263t144 238.5t177 194.5t195 131.5t198.5 48.5q76 0 123 -25h-23q-88 0 -179 -50t-176 -136t-161 -201t-131 -242t-88 -260t-33 -258q0 -82 15.5 -156.5t49.5 -131t85 -89.5t125 -33q96 0 182 51.5t158.5 137.5t131 200.5t99.5 241.5t63.5 259 t22.5 253q0 43 -5 92.5t-15.5 91.5t-27.5 70.5t-44 28.5q-37 0 -81 -47t-83 -115t-69.5 -143.5t-43.5 -132.5q-53 12 -75.5 38.5t-22.5 61.5q0 55 39 122.5t95.5 128t121 101.5t115.5 41q53 0 87 -39t53.5 -98t26.5 -129t7 -129q0 -186 -36 -344t-97.5 -287t-141 -226 t-169 -164t-180.5 -100.5t-173 -33.5q-88 0 -159.5 36t-124 102.5t-81 160.5t-28.5 209zM895 1769q4 37 16.5 50.5t28.5 13.5q31 0 67.5 -32t69.5 -73.5t54.5 -82.5t21.5 -60q0 -10 -6 -27.5t-23 -25.5q-45 59 -100 115t-129 122z" />
<glyph unicode="&#xd3;" horiz-adv-x="1277" d="M43 330q0 131 36 267t97.5 263t144 238.5t177 194.5t195 131.5t198.5 48.5q76 0 123 -25h-23q-88 0 -179 -50t-176 -136t-161 -201t-131 -242t-88 -260t-33 -258q0 -82 15.5 -156.5t49.5 -131t85 -89.5t125 -33q96 0 182 51.5t158.5 137.5t131 200.5t99.5 241.5t63.5 259 t22.5 253q0 43 -5 92.5t-15.5 91.5t-27.5 70.5t-44 28.5q-37 0 -81 -47t-83 -115t-69.5 -143.5t-43.5 -132.5q-53 12 -75.5 38.5t-22.5 61.5q0 55 39 122.5t95.5 128t121 101.5t115.5 41q53 0 87 -39t53.5 -98t26.5 -129t7 -129q0 -186 -36 -344t-97.5 -287t-141 -226 t-169 -164t-180.5 -100.5t-173 -33.5q-88 0 -159.5 36t-124 102.5t-81 160.5t-28.5 209zM1155 1585q0 18 21.5 59.5t54.5 83t69.5 73.5t67.5 32q16 0 28.5 -13.5t16.5 -50.5q-74 -66 -129 -122t-100 -115q-16 8 -22.5 25.5t-6.5 27.5z" />
<glyph unicode="&#xd4;" horiz-adv-x="1277" d="M43 330q0 131 36 267t97.5 263t144 238.5t177 194.5t195 131.5t198.5 48.5q76 0 123 -25h-23q-88 0 -179 -50t-176 -136t-161 -201t-131 -242t-88 -260t-33 -258q0 -82 15.5 -156.5t49.5 -131t85 -89.5t125 -33q96 0 182 51.5t158.5 137.5t131 200.5t99.5 241.5t63.5 259 t22.5 253q0 43 -5 92.5t-15.5 91.5t-27.5 70.5t-44 28.5q-37 0 -81 -47t-83 -115t-69.5 -143.5t-43.5 -132.5q-53 12 -75.5 38.5t-22.5 61.5q0 55 39 122.5t95.5 128t121 101.5t115.5 41q53 0 87 -39t53.5 -98t26.5 -129t7 -129q0 -186 -36 -344t-97.5 -287t-141 -226 t-169 -164t-180.5 -100.5t-173 -33.5q-88 0 -159.5 36t-124 102.5t-81 160.5t-28.5 209zM854 1634q0 31 28.5 63t67.5 57.5t78 43t59 17.5q25 0 57 -24t60.5 -57.5t48 -73.5t19.5 -73q0 -20 -8.5 -36.5t-26.5 -26.5q-29 59 -65.5 100t-86.5 88q-63 -23 -113.5 -49.5 t-97.5 -67.5q-12 8 -16 18.5t-4 20.5z" />
<glyph unicode="&#xd5;" horiz-adv-x="1277" d="M43 330q0 131 36 267t97.5 263t144 238.5t177 194.5t195 131.5t198.5 48.5q76 0 123 -25h-23q-88 0 -179 -50t-176 -136t-161 -201t-131 -242t-88 -260t-33 -258q0 -82 15.5 -156.5t49.5 -131t85 -89.5t125 -33q96 0 182 51.5t158.5 137.5t131 200.5t99.5 241.5t63.5 259 t22.5 253q0 43 -5 92.5t-15.5 91.5t-27.5 70.5t-44 28.5q-37 0 -81 -47t-83 -115t-69.5 -143.5t-43.5 -132.5q-53 12 -75.5 38.5t-22.5 61.5q0 55 39 122.5t95.5 128t121 101.5t115.5 41q53 0 87 -39t53.5 -98t26.5 -129t7 -129q0 -186 -36 -344t-97.5 -287t-141 -226 t-169 -164t-180.5 -100.5t-173 -33.5q-88 0 -159.5 36t-124 102.5t-81 160.5t-28.5 209zM770 1554q41 53 82 74t88 21q43 0 89 -14.5t95.5 -31t102.5 -30.5t110 -14q31 0 62 6q-37 -41 -77 -57.5t-83 -16.5t-89 12.5t-93 27.5t-95.5 27.5t-97.5 12.5q-53 -1 -94 -17z" />
<glyph unicode="&#xd6;" horiz-adv-x="1277" d="M43 330q0 131 36 267t97.5 263t144 238.5t177 194.5t195 131.5t198.5 48.5q76 0 123 -25h-23q-88 0 -179 -50t-176 -136t-161 -201t-131 -242t-88 -260t-33 -258q0 -82 15.5 -156.5t49.5 -131t85 -89.5t125 -33q96 0 182 51.5t158.5 137.5t131 200.5t99.5 241.5t63.5 259 t22.5 253q0 43 -5 92.5t-15.5 91.5t-27.5 70.5t-44 28.5q-37 0 -81 -47t-83 -115t-69.5 -143.5t-43.5 -132.5q-53 12 -75.5 38.5t-22.5 61.5q0 55 39 122.5t95.5 128t121 101.5t115.5 41q53 0 87 -39t53.5 -98t26.5 -129t7 -129q0 -186 -36 -344t-97.5 -287t-141 -226 t-169 -164t-180.5 -100.5t-173 -33.5q-88 0 -159.5 36t-124 102.5t-81 160.5t-28.5 209zM799 1647q0 18 12 35.5t32.5 30.5t44 21.5t46.5 8.5q29 0 45 -12.5t16 -44.5q0 -18 -10 -36t-27.5 -32t-39 -23.5t-44.5 -9.5q-31 0 -53 14.5t-22 47.5zM1094 1604q0 18 12 35.5 t32.5 30.5t44 21.5t46.5 8.5q29 0 45 -12.5t16 -45.5q0 -18 -10 -35.5t-27.5 -31.5t-39 -23.5t-44.5 -9.5q-31 0 -53 14.5t-22 47.5z" />
<glyph unicode="&#xd7;" horiz-adv-x="774" d="M78 88q0 51 44 114.5t114 139.5q-63 68 -102.5 128t-39.5 108q0 20 8 36q25 -35 46.5 -62.5t43 -53t45 -50t52.5 -53.5q78 78 149.5 139.5t106.5 90.5q-10 -61 -43 -110.5t-64 -80.5l-92 -94l109 -109q29 -31 62.5 -81t43.5 -109q-35 29 -106.5 90.5t-149.5 138.5l-16 15 q-33 -33 -58.5 -59.5t-48 -52.5t-46 -55.5t-50.5 -66.5q-8 16 -8 37z" />
<glyph unicode="&#xd8;" horiz-adv-x="1277" d="M43 330q0 131 36 267t97.5 263t144 238.5t177 194.5t195 131.5t198.5 48.5q76 0 123 -25h-23q-88 0 -179 -50t-176 -136t-161 -201t-131 -242t-88 -260t-33 -258q0 -78 13.5 -149.5t44.5 -126.5q68 84 143.5 186t153 214t155.5 226.5t149.5 222t134 202.5t109.5 169 q-10 31 -25.5 51.5t-37.5 20.5q-37 0 -81 -47t-83 -115t-69.5 -143.5t-43.5 -132.5q-53 12 -75.5 38.5t-22.5 61.5q0 55 39 122.5t95.5 128t121 101.5t115.5 41q35 0 61.5 -18.5t44.5 -46.5l9 10q14 23 60 40t93 17q23 0 33 -2q-14 -20 -51 -76.5t-92 -136.5q10 -47 13 -94 t3 -88q0 -186 -36 -344t-97.5 -287t-141 -226t-169 -164t-180.5 -100.5t-173 -33.5q-88 0 -166 39q-96 -68 -176 -68q-10 0 -17 1t-16 3q25 16 57 48t70 75q-70 66 -107.5 170.5t-37.5 239.5zM356 -66q29 -20 64 -31.5t78 -11.5q96 0 182 51.5t158.5 137.5t131 200.5 t99.5 241.5t63.5 259t22.5 253v33q-82 -121 -179 -264.5t-190.5 -279.5t-172.5 -251t-124 -178q-35 -47 -66.5 -87t-66.5 -73z" />
<glyph unicode="&#xd9;" horiz-adv-x="1447" d="M51 1104q0 63 31 128.5t85 120t124.5 88.5t150.5 34q113 0 162 -68t49 -180q0 -113 -39 -258.5t-87 -295t-87 -291.5t-39 -249q0 -96 40 -162.5t132 -66.5q84 0 154 56t123 139t90 180.5t57 179.5q25 102 53.5 217t58.5 227.5t61.5 216t63.5 182t61.5 126t58.5 47.5 q16 0 44.5 -17.5t57.5 -48.5q-18 -12 -52 -88t-76 -190.5t-86 -256t-80 -285t-59.5 -275.5t-23.5 -228q0 -72 9.5 -118t29 -72.5t51 -38t74.5 -11.5q-39 -27 -72.5 -38t-62.5 -11q-78 0 -122 64.5t-44 152.5q0 29 4 77t15 110q-39 -84 -85.5 -154t-100.5 -120t-118.5 -77.5 t-138.5 -27.5q-133 0 -199.5 80t-66.5 198q0 66 19.5 155t47 189.5t61.5 208t61.5 212t47 199.5t19.5 173q0 180 -115 180q-55 0 -96 -37t-67.5 -90t-40 -115.5t-13.5 -111.5q0 -61 17 -100q-78 0 -110 40.5t-32 100.5zM862 1769q4 37 16.5 50.5t28.5 13.5q31 0 68 -32 t69.5 -73.5t54 -82.5t21.5 -60q0 -10 -6 -27.5t-22 -25.5q-45 59 -100.5 115t-129.5 122z" />
<glyph unicode="&#xda;" horiz-adv-x="1447" d="M51 1104q0 63 31 128.5t85 120t124.5 88.5t150.5 34q113 0 162 -68t49 -180q0 -113 -39 -258.5t-87 -295t-87 -291.5t-39 -249q0 -96 40 -162.5t132 -66.5q84 0 154 56t123 139t90 180.5t57 179.5q25 102 53.5 217t58.5 227.5t61.5 216t63.5 182t61.5 126t58.5 47.5 q16 0 44.5 -17.5t57.5 -48.5q-18 -12 -52 -88t-76 -190.5t-86 -256t-80 -285t-59.5 -275.5t-23.5 -228q0 -72 9.5 -118t29 -72.5t51 -38t74.5 -11.5q-39 -27 -72.5 -38t-62.5 -11q-78 0 -122 64.5t-44 152.5q0 29 4 77t15 110q-39 -84 -85.5 -154t-100.5 -120t-118.5 -77.5 t-138.5 -27.5q-133 0 -199.5 80t-66.5 198q0 66 19.5 155t47 189.5t61.5 208t61.5 212t47 199.5t19.5 173q0 180 -115 180q-55 0 -96 -37t-67.5 -90t-40 -115.5t-13.5 -111.5q0 -61 17 -100q-78 0 -110 40.5t-32 100.5zM948 1585q0 18 21.5 59.5t54.5 83t69.5 73.5t67.5 32 q16 0 28.5 -13.5t16.5 -50.5q-74 -66 -129 -122t-100 -115q-16 8 -22.5 25.5t-6.5 27.5z" />
<glyph unicode="&#xdb;" horiz-adv-x="1447" d="M51 1104q0 63 31 128.5t85 120t124.5 88.5t150.5 34q113 0 162 -68t49 -180q0 -113 -39 -258.5t-87 -295t-87 -291.5t-39 -249q0 -96 40 -162.5t132 -66.5q84 0 154 56t123 139t90 180.5t57 179.5q25 102 53.5 217t58.5 227.5t61.5 216t63.5 182t61.5 126t58.5 47.5 q16 0 44.5 -17.5t57.5 -48.5q-18 -12 -52 -88t-76 -190.5t-86 -256t-80 -285t-59.5 -275.5t-23.5 -228q0 -72 9.5 -118t29 -72.5t51 -38t74.5 -11.5q-39 -27 -72.5 -38t-62.5 -11q-78 0 -122 64.5t-44 152.5q0 29 4 77t15 110q-39 -84 -85.5 -154t-100.5 -120t-118.5 -77.5 t-138.5 -27.5q-133 0 -199.5 80t-66.5 198q0 66 19.5 155t47 189.5t61.5 208t61.5 212t47 199.5t19.5 173q0 180 -115 180q-55 0 -96 -37t-67.5 -90t-40 -115.5t-13.5 -111.5q0 -61 17 -100q-78 0 -110 40.5t-32 100.5zM788 1634q0 31 29 63t68 57.5t77.5 43t59.5 17.5 q25 0 56.5 -24t60 -57.5t48 -73.5t19.5 -73q0 -20 -8 -36.5t-27 -26.5q-29 59 -65.5 100t-85.5 88q-63 -23 -113.5 -49.5t-97.5 -67.5q-12 8 -16.5 18.5t-4.5 20.5z" />
<glyph unicode="&#xdc;" horiz-adv-x="1447" d="M51 1104q0 63 31 128.5t85 120t124.5 88.5t150.5 34q113 0 162 -68t49 -180q0 -113 -39 -258.5t-87 -295t-87 -291.5t-39 -249q0 -96 40 -162.5t132 -66.5q84 0 154 56t123 139t90 180.5t57 179.5q25 102 53.5 217t58.5 227.5t61.5 216t63.5 182t61.5 126t58.5 47.5 q16 0 44.5 -17.5t57.5 -48.5q-18 -12 -52 -88t-76 -190.5t-86 -256t-80 -285t-59.5 -275.5t-23.5 -228q0 -72 9.5 -118t29 -72.5t51 -38t74.5 -11.5q-39 -27 -72.5 -38t-62.5 -11q-78 0 -122 64.5t-44 152.5q0 29 4 77t15 110q-39 -84 -85.5 -154t-100.5 -120t-118.5 -77.5 t-138.5 -27.5q-133 0 -199.5 80t-66.5 198q0 66 19.5 155t47 189.5t61.5 208t61.5 212t47 199.5t19.5 173q0 180 -115 180q-55 0 -96 -37t-67.5 -90t-40 -115.5t-13.5 -111.5q0 -61 17 -100q-78 0 -110 40.5t-32 100.5zM784 1647q0 18 12.5 35.5t33 30.5t44 21.5t46.5 8.5 q29 0 45 -12.5t16 -44.5q0 -18 -10 -36t-27.5 -32t-39 -23.5t-44.5 -9.5q-31 0 -53.5 14.5t-22.5 47.5zM1079 1604q0 18 12.5 35.5t33 30.5t44 21.5t45.5 8.5q29 0 45.5 -12.5t16.5 -45.5q0 -18 -10.5 -35.5t-27.5 -31.5t-38.5 -23.5t-44.5 -9.5q-31 0 -53.5 14.5 t-22.5 47.5z" />
<glyph unicode="&#xdd;" horiz-adv-x="1366" d="M47 1104q0 63 31 128.5t85 120t124.5 88.5t150.5 34q57 0 98.5 -18.5t67 -48.5t36.5 -66.5t11 -73.5q0 -57 -21.5 -140.5t-47 -175.5t-47 -187t-21.5 -177q0 -90 33 -143.5t110 -53.5q72 0 135.5 46t119 120t100.5 164t80 180q27 111 56.5 214.5t60 183t63.5 128t65 48.5 q20 0 53 -17.5t62 -48.5q-35 -57 -62.5 -106.5t-51 -105.5t-46 -124.5t-48 -163t-57.5 -219.5t-73 -293q-33 -131 -74 -269t-106.5 -252t-164.5 -186.5t-247 -72.5q-59 0 -110.5 12.5t-89 37t-60 60t-22.5 83.5q0 53 29.5 91.5t92.5 61.5q-10 -31 -13 -59.5t-3 -50.5 q0 -86 44 -135.5t134 -49.5q70 0 125.5 30t99.5 78t77.5 109.5t57 126t41 126t27.5 110.5q16 70 37 180.5t49 239.5q-41 -78 -88 -144.5t-101 -114t-117.5 -74t-137.5 -26.5q-121 0 -172 67.5t-51 176.5q0 80 21.5 174t48 188.5t48 183.5t21.5 158q0 66 -25.5 113t-91.5 47 q-57 0 -98 -37t-68.5 -90t-41 -114.5t-13.5 -112.5q0 -61 16 -100q-78 0 -109.5 40.5t-31.5 100.5zM967 1585q0 18 21.5 59.5t54 83t69.5 73.5t68 32q16 0 28.5 -13.5t16.5 -50.5q-74 -66 -129.5 -122t-100.5 -115q-16 8 -22 25.5t-6 27.5z" />
<glyph unicode="&#xde;" horiz-adv-x="1042" d="M63 -76q0 23 9.5 53.5t19.5 59.5q88 276 180.5 549.5t202.5 550.5q-63 -10 -115.5 -30t-92.5 -39t-65.5 -33.5t-33.5 -14.5q-6 0 -16.5 6t-21.5 14.5t-18.5 17.5t-7.5 17q35 14 79 31.5t94.5 33t104.5 28t112 16.5q14 37 32.5 85t40 92t48 74.5t61.5 30.5q26 0 53 -16 q-57 -113 -115 -264q86 -8 170 -37t150.5 -78t107.5 -118.5t41 -159.5q0 -98 -42 -171t-107.5 -125.5t-148.5 -86t-164.5 -53t-155.5 -27.5t-121 -11q-39 -135 -72.5 -262t-66.5 -235q-53 0 -97.5 28.5t-44.5 73.5zM354 358q106 12 212 46t191 91.5t137 140t52 191.5 q0 80 -28.5 138.5t-76.5 96.5t-110.5 57.5t-132.5 23.5q-66 -178 -126 -380t-118 -405z" />
<glyph unicode="&#xdf;" horiz-adv-x="876" d="M-88 -236q23 29 40 118t36.5 215t43 276.5t55.5 304t74 297t100 254t135 178.5t177 68q92 0 153.5 -59.5t61.5 -166.5q0 -78 -29.5 -146.5t-76.5 -128t-103.5 -107.5t-107.5 -81q-25 -16 -25 -26q0 -6 8.5 -12.5t18.5 -10.5q57 -25 106.5 -75t85 -111.5t55 -127 t19.5 -122.5q0 -82 -33.5 -167t-88 -154.5t-124 -113.5t-139.5 -44q-37 0 -63.5 23.5t-44 61.5t-26.5 86t-9 97q0 45 8 89t23.5 79t39 55.5t54.5 20.5h16t17 -2q-16 -8 -29.5 -38t-24 -71t-15.5 -90t-5 -94q0 -72 14.5 -124t46.5 -52q39 0 82 42t77 109.5t56.5 150.5 t22.5 165q0 55 -11.5 111.5t-33 106.5t-50 91t-65.5 70q-41 31 -41 53q0 26 49 69q43 39 85 84.5t76 95.5t54.5 109.5t20.5 130.5q0 31 -5 60.5t-19.5 54.5t-37 39t-59.5 14q-76 0 -132 -67.5t-98 -178t-73 -253t-57.5 -293t-53 -297t-59.5 -266t-74 -200.5t-98 -100z" />
<glyph unicode="&#xe0;" horiz-adv-x="894" d="M-53 74q0 61 23.5 130.5t64.5 140.5t96 135.5t117.5 113.5t130 78.5t135.5 29.5q80 0 133 -42t53 -111q0 -51 -27.5 -69.5t-72.5 -18.5q10 37 10 71q0 47 -22.5 81t-77.5 34q-49 0 -98.5 -28.5t-96.5 -76.5t-88 -109.5t-72.5 -126t-49 -127t-17.5 -111.5q0 -80 55 -80 q47 0 106.5 49t119 118.5t113.5 146.5t91 132q8 -2 22.5 -6t28 -10t22.5 -14.5t9 -20.5q0 -18 -18.5 -51t-41 -73t-40.5 -82t-18 -79q0 -31 16 -60.5t53 -29.5q55 0 145.5 80t182.5 244l20 -21q-33 -84 -80 -152.5t-101 -117.5t-111.5 -75.5t-112.5 -26.5q-76 0 -112 45 t-36 98q0 25 7 59q-90 -119 -162 -178t-148 -59q-66 0 -108.5 42t-42.5 128zM436 1077q4 37 16.5 50.5t28.5 13.5q31 0 68 -32t69.5 -74t54 -83t21.5 -59q0 -10 -6 -27.5t-22 -25.5q-45 59 -100.5 115t-129.5 122z" />
<glyph unicode="&#xe1;" horiz-adv-x="894" d="M-53 74q0 61 23.5 130.5t64.5 140.5t96 135.5t117.5 113.5t130 78.5t135.5 29.5q80 0 133 -42t53 -111q0 -51 -27.5 -69.5t-72.5 -18.5q10 37 10 71q0 47 -22.5 81t-77.5 34q-49 0 -98.5 -28.5t-96.5 -76.5t-88 -109.5t-72.5 -126t-49 -127t-17.5 -111.5q0 -80 55 -80 q47 0 106.5 49t119 118.5t113.5 146.5t91 132q8 -2 22.5 -6t28 -10t22.5 -14.5t9 -20.5q0 -18 -18.5 -51t-41 -73t-40.5 -82t-18 -79q0 -31 16 -60.5t53 -29.5q55 0 145.5 80t182.5 244l20 -21q-33 -84 -80 -152.5t-101 -117.5t-111.5 -75.5t-112.5 -26.5q-76 0 -112 45 t-36 98q0 25 7 59q-90 -119 -162 -178t-148 -59q-66 0 -108.5 42t-42.5 128zM582 907q0 18 21.5 59.5t54 83.5t69.5 73.5t68 31.5q16 0 28.5 -13t16.5 -50q-74 -66 -129.5 -122.5t-100.5 -115.5q-16 8 -22 25.5t-6 27.5z" />
<glyph unicode="&#xe2;" horiz-adv-x="894" d="M-53 74q0 61 23.5 130.5t64.5 140.5t96 135.5t117.5 113.5t130 78.5t135.5 29.5q80 0 133 -42t53 -111q0 -51 -27.5 -69.5t-72.5 -18.5q10 37 10 71q0 47 -22.5 81t-77.5 34q-49 0 -98.5 -28.5t-96.5 -76.5t-88 -109.5t-72.5 -126t-49 -127t-17.5 -111.5q0 -80 55 -80 q47 0 106.5 49t119 118.5t113.5 146.5t91 132q8 -2 22.5 -6t28 -10t22.5 -14.5t9 -20.5q0 -18 -18.5 -51t-41 -73t-40.5 -82t-18 -79q0 -31 16 -60.5t53 -29.5q55 0 145.5 80t182.5 244l20 -21q-33 -84 -80 -152.5t-101 -117.5t-111.5 -75.5t-112.5 -26.5q-76 0 -112 45 t-36 98q0 25 7 59q-90 -119 -162 -178t-148 -59q-66 0 -108.5 42t-42.5 128zM455 942q0 31 28.5 62.5t67.5 57t78 43t59 17.5q25 0 56.5 -23.5t60.5 -57t48 -73.5t19 -73q0 -20 -8 -36.5t-26 -27.5q-29 59 -66 100.5t-86 88.5q-63 -23 -113.5 -49.5t-97.5 -67.5 q-12 8 -16 18.5t-4 20.5z" />
<glyph unicode="&#xe3;" horiz-adv-x="894" d="M-53 74q0 61 23.5 130.5t64.5 140.5t96 135.5t117.5 113.5t130 78.5t135.5 29.5q80 0 133 -42t53 -111q0 -51 -27.5 -69.5t-72.5 -18.5q10 37 10 71q0 47 -22.5 81t-77.5 34q-49 0 -98.5 -28.5t-96.5 -76.5t-88 -109.5t-72.5 -126t-49 -127t-17.5 -111.5q0 -80 55 -80 q47 0 106.5 49t119 118.5t113.5 146.5t91 132q8 -2 22.5 -6t28 -10t22.5 -14.5t9 -20.5q0 -18 -18.5 -51t-41 -73t-40.5 -82t-18 -79q0 -31 16 -60.5t53 -29.5q55 0 145.5 80t182.5 244l20 -21q-33 -84 -80 -152.5t-101 -117.5t-111.5 -75.5t-112.5 -26.5q-76 0 -112 45 t-36 98q0 25 7 59q-90 -119 -162 -178t-148 -59q-66 0 -108.5 42t-42.5 128zM287 877q41 53 82 73.5t88 20.5q43 0 89 -14.5t95 -31t102.5 -30.5t110.5 -14q31 0 61 6q-37 -41 -76.5 -57.5t-82.5 -16.5t-89 12.5t-93.5 27.5t-95.5 27.5t-97 12.5q-53 0 -94 -16z" />
<glyph unicode="&#xe4;" horiz-adv-x="894" d="M-53 74q0 61 23.5 130.5t64.5 140.5t96 135.5t117.5 113.5t130 78.5t135.5 29.5q80 0 133 -42t53 -111q0 -51 -27.5 -69.5t-72.5 -18.5q10 37 10 71q0 47 -22.5 81t-77.5 34q-49 0 -98.5 -28.5t-96.5 -76.5t-88 -109.5t-72.5 -126t-49 -127t-17.5 -111.5q0 -80 55 -80 q47 0 106.5 49t119 118.5t113.5 146.5t91 132q8 -2 22.5 -6t28 -10t22.5 -14.5t9 -20.5q0 -18 -18.5 -51t-41 -73t-40.5 -82t-18 -79q0 -31 16 -60.5t53 -29.5q55 0 145.5 80t182.5 244l20 -21q-33 -84 -80 -152.5t-101 -117.5t-111.5 -75.5t-112.5 -26.5q-76 0 -112 45 t-36 98q0 25 7 59q-90 -119 -162 -178t-148 -59q-66 0 -108.5 42t-42.5 128zM315 954q0 18 12.5 36t33 31t44 21.5t46.5 8.5q29 0 45 -12.5t16 -45.5q0 -18 -10 -35.5t-27.5 -32t-39 -23.5t-44.5 -9q-31 0 -53.5 14.5t-22.5 46.5zM610 911q0 18 12.5 36t33 31t44 21.5 t45.5 8.5q29 0 45.5 -12.5t16.5 -45.5q0 -18 -10.5 -35.5t-27.5 -32t-38.5 -23.5t-44.5 -9q-31 0 -53.5 14.5t-22.5 46.5z" />
<glyph unicode="&#xe5;" horiz-adv-x="894" d="M-53 74q0 61 23.5 130.5t64.5 140.5t96 135.5t117.5 113.5t130 78.5t135.5 29.5q80 0 133 -42t53 -111q0 -51 -27.5 -69.5t-72.5 -18.5q10 37 10 71q0 47 -22.5 81t-77.5 34q-49 0 -98.5 -28.5t-96.5 -76.5t-88 -109.5t-72.5 -126t-49 -127t-17.5 -111.5q0 -80 55 -80 q47 0 106.5 49t119 118.5t113.5 146.5t91 132q8 -2 22.5 -6t28 -10t22.5 -14.5t9 -20.5q0 -18 -18.5 -51t-41 -73t-40.5 -82t-18 -79q0 -31 16 -60.5t53 -29.5q55 0 145.5 80t182.5 244l20 -21q-33 -84 -80 -152.5t-101 -117.5t-111.5 -75.5t-112.5 -26.5q-76 0 -112 45 t-36 98q0 25 7 59q-90 -119 -162 -178t-148 -59q-66 0 -108.5 42t-42.5 128zM442 924q0 37 19.5 76.5t53.5 73.5t79 56.5t98 22.5q86 0 121 -31.5t35 -79.5q0 -37 -20.5 -77.5t-56.5 -74.5t-83 -55.5t-98 -21.5q-80 0 -114 32t-34 79zM522 938q0 -29 20.5 -56.5t65.5 -27.5 q31 0 59.5 17.5t52 44t38 57.5t14.5 57q0 29 -21.5 52.5t-68.5 23.5q-31 0 -59.5 -16.5t-51 -41t-36 -54t-13.5 -56.5z" />
<glyph unicode="&#xe6;" horiz-adv-x="1114" d="M-53 74q0 61 23.5 130.5t64.5 140.5t96 135.5t117.5 113.5t130 78.5t135.5 29.5q57 0 92 -22.5t49 -63.5q63 55 132 88t137 33q47 0 87 -24.5t40 -100.5q0 -78 -46.5 -146.5t-120 -121.5t-163.5 -87t-178 -42q-4 -20 -6 -38.5t-2 -35.5q0 -31 7 -61.5t25.5 -55t50 -40 t78.5 -15.5q66 0 131.5 29t125 79t111.5 115.5t91 139.5l25 -19q-41 -92 -100.5 -166.5t-128 -127t-145.5 -81t-153 -28.5q-123 0 -184 64.5t-66 160.5q-88 -117 -159.5 -174t-145.5 -57q-66 0 -108.5 42t-42.5 128zM88 68q0 -80 55 -80q27 0 60 17.5t66.5 47t68.5 68.5 t70 82q14 92 67 190.5t131 175.5q-8 35 -30.5 56.5t-65.5 21.5q-49 0 -98.5 -28.5t-96.5 -76.5t-88 -109.5t-72.5 -126t-49 -127t-17.5 -111.5zM553 254q55 18 125 54t133 85t106.5 108.5t43.5 125.5q0 23 -8 35t-35 12q-49 0 -104.5 -38t-107 -98.5t-92.5 -135t-61 -148.5z " />
<glyph unicode="&#xe7;" horiz-adv-x="663" d="M-10 147q0 102 41 200.5t105.5 175.5t144 123t157.5 46q43 0 71 -13t44 -34.5t23.5 -49.5t7.5 -54q0 -59 -28 -104.5t-75 -45.5q-35 0 -59 31q31 16 53.5 65.5t22.5 96.5q0 25 -9.5 38t-35.5 13q-55 0 -114.5 -50t-109 -126t-81 -163t-31.5 -163q0 -31 7 -61.5t23.5 -55 t46 -39t72.5 -14.5q61 0 124 25.5t121 74t107.5 117t81.5 154.5l27 -21q-35 -88 -86 -162.5t-115 -132.5l-69 -106q23 16 55.5 32.5t81.5 16.5q92 0 92 -86q0 -43 -19.5 -85t-52 -73.5t-76.5 -51t-92 -19.5q-59 0 -91.5 22.5t-32.5 50.5q0 35 45 68q10 -49 34.5 -70.5 t51.5 -21.5q29 0 59.5 17.5t55 44t40 58t15.5 58.5q0 16 -7.5 33.5t-27.5 17.5t-47 -13t-51.5 -28.5t-46 -29t-29.5 -13.5q-14 0 -21.5 13.5t-7.5 23.5q0 4 14.5 25.5t32.5 48.5q-53 -31 -106.5 -48.5t-106.5 -17.5q-98 0 -163.5 64.5t-65.5 197.5z" />
<glyph unicode="&#xe8;" horiz-adv-x="684" d="M-29 147q0 61 21.5 129t59.5 133.5t88 125t108.5 104.5t120 71.5t123.5 26.5q47 0 86.5 -24.5t39.5 -100.5q0 -78 -46 -146.5t-119.5 -121.5t-163.5 -87t-178 -42q-4 -20 -6.5 -38.5t-2.5 -35.5q0 -31 7.5 -61.5t26 -55t50 -40t78.5 -15.5q66 0 131.5 29t125 79 t111.5 115.5t91 139.5l25 -19q-41 -92 -100.5 -166.5t-128 -127t-145.5 -81t-153 -28.5q-125 0 -187.5 68.5t-62.5 168.5zM121 254q55 18 124.5 54t133 85t106.5 108.5t43 125.5q0 23 -8 35t-35 12q-49 0 -104 -38t-106.5 -98.5t-92.5 -135t-61 -148.5zM352 1094 q4 37 16.5 50t28.5 13q31 0 68 -31.5t69.5 -73.5t54 -83t21.5 -60q0 -10 -6 -27.5t-22 -25.5q-45 59 -100.5 115.5t-129.5 122.5z" />
<glyph unicode="&#xe9;" horiz-adv-x="684" d="M-29 147q0 61 21.5 129t59.5 133.5t88 125t108.5 104.5t120 71.5t123.5 26.5q47 0 86.5 -24.5t39.5 -100.5q0 -78 -46 -146.5t-119.5 -121.5t-163.5 -87t-178 -42q-4 -20 -6.5 -38.5t-2.5 -35.5q0 -31 7.5 -61.5t26 -55t50 -40t78.5 -15.5q66 0 131.5 29t125 79 t111.5 115.5t91 139.5l25 -19q-41 -92 -100.5 -166.5t-128 -127t-145.5 -81t-153 -28.5q-125 0 -187.5 68.5t-62.5 168.5zM121 254q55 18 124.5 54t133 85t106.5 108.5t43 125.5q0 23 -8 35t-35 12q-49 0 -104 -38t-106.5 -98.5t-92.5 -135t-61 -148.5zM598 932 q0 18 21.5 59t54.5 83t69.5 74t67.5 32q16 0 28.5 -13.5t16.5 -50.5q-74 -66 -129 -122t-100 -115q-16 8 -22.5 25.5t-6.5 27.5z" />
<glyph unicode="&#xea;" horiz-adv-x="684" d="M-29 147q0 61 21.5 129t59.5 133.5t88 125t108.5 104.5t120 71.5t123.5 26.5q47 0 86.5 -24.5t39.5 -100.5q0 -78 -46 -146.5t-119.5 -121.5t-163.5 -87t-178 -42q-4 -20 -6.5 -38.5t-2.5 -35.5q0 -31 7.5 -61.5t26 -55t50 -40t78.5 -15.5q66 0 131.5 29t125 79 t111.5 115.5t91 139.5l25 -19q-41 -92 -100.5 -166.5t-128 -127t-145.5 -81t-153 -28.5q-125 0 -187.5 68.5t-62.5 168.5zM121 254q55 18 124.5 54t133 85t106.5 108.5t43 125.5q0 23 -8 35t-35 12q-49 0 -104 -38t-106.5 -98.5t-92.5 -135t-61 -148.5zM373 942 q0 31 28.5 62.5t67.5 57t78 43t59 17.5q25 0 56.5 -23.5t60.5 -57t48.5 -73.5t19.5 -73q0 -20 -8.5 -36.5t-26.5 -27.5q-29 59 -66 100.5t-86 88.5q-63 -23 -113.5 -49.5t-97.5 -67.5q-12 8 -16 18.5t-4 20.5z" />
<glyph unicode="&#xeb;" horiz-adv-x="684" d="M-29 147q0 61 21.5 129t59.5 133.5t88 125t108.5 104.5t120 71.5t123.5 26.5q47 0 86.5 -24.5t39.5 -100.5q0 -78 -46 -146.5t-119.5 -121.5t-163.5 -87t-178 -42q-4 -20 -6.5 -38.5t-2.5 -35.5q0 -31 7.5 -61.5t26 -55t50 -40t78.5 -15.5q66 0 131.5 29t125 79 t111.5 115.5t91 139.5l25 -19q-41 -92 -100.5 -166.5t-128 -127t-145.5 -81t-153 -28.5q-125 0 -187.5 68.5t-62.5 168.5zM121 254q55 18 124.5 54t133 85t106.5 108.5t43 125.5q0 23 -8 35t-35 12q-49 0 -104 -38t-106.5 -98.5t-92.5 -135t-61 -148.5zM281 954q0 18 12 36 t32.5 31t44 21.5t46.5 8.5q29 0 45 -12.5t16 -45.5q0 -18 -10 -35.5t-27.5 -32t-39 -23.5t-44.5 -9q-31 0 -53 14.5t-22 46.5zM575 911q0 18 12.5 36t33 31t44 21.5t46.5 8.5q29 0 45 -12.5t16 -45.5q0 -18 -10 -35.5t-27.5 -32t-39 -23.5t-44.5 -9q-31 0 -53.5 14.5 t-22.5 46.5z" />
<glyph unicode="&#xec;" horiz-adv-x="495" d="M-10 119q0 39 12 96t33.5 121.5t49.5 128t60.5 115t68.5 83t71 31.5q18 0 31.5 -11t13.5 -34q0 -25 -34 -81t-74 -126.5t-72.5 -149.5t-32.5 -151q0 -74 24.5 -98.5t75.5 -24.5q35 0 72 16.5t77 53.5t81.5 96.5t84.5 147.5l19 -21q-31 -88 -75 -156.5t-97 -114.5 t-112.5 -69.5t-119.5 -23.5q-80 0 -118.5 50t-38.5 122zM184 1087q4 37 16.5 50.5t28.5 13.5q31 0 68 -32t69.5 -73.5t54 -82.5t21.5 -60q0 -10 -6 -27.5t-22 -25.5q-45 59 -100.5 115t-129.5 122z" />
<glyph unicode="&#xed;" horiz-adv-x="495" d="M-10 119q0 39 12 96t33.5 121.5t49.5 128t60.5 115t68.5 83t71 31.5q18 0 31.5 -11t13.5 -34q0 -25 -34 -81t-74 -126.5t-72.5 -149.5t-32.5 -151q0 -74 24.5 -98.5t75.5 -24.5q35 0 72 16.5t77 53.5t81.5 96.5t84.5 147.5l19 -21q-31 -88 -75 -156.5t-97 -114.5 t-112.5 -69.5t-119.5 -23.5q-80 0 -118.5 50t-38.5 122zM336 893q0 18 21.5 59t54 83t69.5 74t68 32q16 0 28.5 -13.5t16.5 -50.5q-74 -66 -129 -122t-100 -115q-16 8 -22.5 25.5t-6.5 27.5z" />
<glyph unicode="&#xee;" horiz-adv-x="495" d="M-10 119q0 39 12 96t33.5 121.5t49.5 128t60.5 115t68.5 83t71 31.5q18 0 31.5 -11t13.5 -34q0 -25 -34 -81t-74 -126.5t-72.5 -149.5t-32.5 -151q0 -74 24.5 -98.5t75.5 -24.5q35 0 72 16.5t77 53.5t81.5 96.5t84.5 147.5l19 -21q-31 -88 -75 -156.5t-97 -114.5 t-112.5 -69.5t-119.5 -23.5q-80 0 -118.5 50t-38.5 122zM205 942q0 31 28.5 62.5t67.5 57t78 43t59 17.5q25 0 56.5 -23.5t60.5 -57t48.5 -73.5t19.5 -73q0 -20 -8.5 -36.5t-26.5 -27.5q-29 59 -66 100.5t-86 88.5q-63 -23 -113.5 -49.5t-97.5 -67.5q-12 8 -16 18.5t-4 20.5 z" />
<glyph unicode="&#xef;" horiz-adv-x="495" d="M-10 119q0 39 12 96t33.5 121.5t49.5 128t60.5 115t68.5 83t71 31.5q18 0 31.5 -11t13.5 -34q0 -25 -34 -81t-74 -126.5t-72.5 -149.5t-32.5 -151q0 -74 24.5 -98.5t75.5 -24.5q35 0 72 16.5t77 53.5t81.5 96.5t84.5 147.5l19 -21q-31 -88 -75 -156.5t-97 -114.5 t-112.5 -69.5t-119.5 -23.5q-80 0 -118.5 50t-38.5 122zM121 954q0 18 12 36t32.5 31t44 21.5t46.5 8.5q29 0 45 -12.5t16 -45.5q0 -18 -10 -35.5t-27.5 -32t-38.5 -23.5t-44 -9q-31 0 -53.5 14.5t-22.5 46.5zM416 911q0 18 12 36t32.5 31t44 21.5t46.5 8.5q29 0 45 -12.5 t16 -45.5q0 -18 -10 -35.5t-27.5 -32t-38.5 -23.5t-44 -9q-31 0 -53.5 14.5t-22.5 46.5z" />
<glyph unicode="&#xf0;" horiz-adv-x="970" d="M-33 111q0 57 23.5 125.5t63.5 138t93.5 135t115 116t127 81t128.5 30.5q90 0 90 -63q0 -8 -1 -14.5t-3 -14.5q-23 31 -78 31t-107 -29t-98.5 -76t-85 -106t-66.5 -119.5t-43 -116t-15 -94.5q0 -47 19.5 -72.5t53.5 -25.5q45 0 103.5 45t120 122t120 179t101.5 217 q31 80 61.5 187.5t30.5 213.5q0 47 -8 89q-23 -4 -53.5 -9.5t-64.5 -11.5t-66 -13.5t-52 -13.5q0 31 18.5 50.5t49 33t70.5 20.5t83 13q-20 74 -63 143.5t-115 131.5q16 20 33.5 29.5t46.5 9.5q47 0 86 -26t69.5 -68t52 -95t36.5 -108q25 2 51.5 4t53 5t48 7t33.5 8 q-16 -27 -31.5 -42t-36 -24.5t-46 -14.5t-60.5 -9q4 -27 6 -50.5t2 -45.5q0 -104 -35.5 -226t-78.5 -243t-79 -232.5t-36 -195.5q0 -41 12 -64.5t45 -23.5q31 0 73 21.5t85 60.5t84 95t74 126l24 -19q-31 -80 -77 -146.5t-99 -115.5t-111.5 -76.5t-109.5 -27.5 q-39 0 -64.5 14t-41 35.5t-22.5 49.5t-7 54q0 35 10 91.5t29 127.5q-49 -82 -103.5 -151.5t-109 -120.5t-106.5 -79.5t-99 -28.5q-27 0 -53.5 10t-49 30.5t-37 53.5t-14.5 78z" />
<glyph unicode="&#xf1;" horiz-adv-x="956" d="M-78 14q0 8 22.5 63.5t49 131.5t50.5 159t24 150q12 14 38.5 28.5t55.5 14.5q55 0 55 -53q0 -33 -18.5 -108.5t-46.5 -161.5q41 61 90 125.5t104 116.5t113.5 85t118.5 33q39 0 67.5 -15.5t47 -42t27.5 -59t9 -67.5q0 -47 -13.5 -90t-28.5 -82t-28.5 -77t-13.5 -75 q0 -43 17.5 -60.5t44.5 -17.5q39 0 77.5 29t75.5 75t71 102t62 114l23 -27q-33 -76 -71 -139.5t-82 -109.5t-94 -71.5t-107 -25.5q-72 0 -108 37t-36 94q0 31 9.5 65.5t20.5 71.5t20.5 74t9.5 74q0 57 -24 78.5t-58 21.5q-63 0 -129 -53t-127.5 -132t-115.5 -166t-93 -155 q-33 0 -63 11t-46 34zM201 862q41 53 82 73.5t88 20.5q43 0 89 -14t95 -30.5t102.5 -31t110.5 -14.5q31 0 61 6q-37 -41 -76.5 -57t-82.5 -16t-89 12t-93.5 27.5t-95.5 28t-97 12.5q-53 -1 -94 -17z" />
<glyph unicode="&#xf2;" horiz-adv-x="747" d="M-20 121q0 63 20 132t53 126t76 95t86 38q18 0 43 -10q-18 -16 -44 -61.5t-48.5 -100.5t-37.5 -110.5t-15 -94.5q0 -61 19.5 -89t53.5 -28q43 0 102.5 46.5t117.5 117.5q-59 47 -90 124t-31 157q0 51 13 97t38.5 82t62.5 57.5t86 21.5q84 0 113 -45t29 -113 q0 -80 -39 -177t-99 -187q37 -20 78 -21q25 0 54.5 7.5t60.5 24.5t58.5 45t45.5 71l25 -21q-20 -49 -51 -82t-66 -54.5t-71.5 -30.5t-69.5 -9q-55 0 -98 21q-72 -92 -154 -154t-160 -62q-88 0 -124.5 54.5t-36.5 132.5zM373 457q0 -59 17.5 -120t51.5 -101q51 76 85 158.5 t34 156.5q0 59 -17.5 87t-43.5 28q-20 0 -43 -16.5t-41.5 -44t-30.5 -65.5t-12 -83zM383 1077q4 37 16.5 50.5t28.5 13.5q31 0 67.5 -32t69.5 -74t54.5 -83t21.5 -59q0 -10 -6 -27.5t-23 -25.5q-45 59 -100 115t-129 122z" />
<glyph unicode="&#xf3;" horiz-adv-x="747" d="M-20 121q0 63 20 132t53 126t76 95t86 38q18 0 43 -10q-18 -16 -44 -61.5t-48.5 -100.5t-37.5 -110.5t-15 -94.5q0 -61 19.5 -89t53.5 -28q43 0 102.5 46.5t117.5 117.5q-59 47 -90 124t-31 157q0 51 13 97t38.5 82t62.5 57.5t86 21.5q84 0 113 -45t29 -113 q0 -80 -39 -177t-99 -187q37 -20 78 -21q25 0 54.5 7.5t60.5 24.5t58.5 45t45.5 71l25 -21q-20 -49 -51 -82t-66 -54.5t-71.5 -30.5t-69.5 -9q-55 0 -98 21q-72 -92 -154 -154t-160 -62q-88 0 -124.5 54.5t-36.5 132.5zM373 457q0 -59 17.5 -120t51.5 -101q51 76 85 158.5 t34 156.5q0 59 -17.5 87t-43.5 28q-20 0 -43 -16.5t-41.5 -44t-30.5 -65.5t-12 -83zM668 901q0 18 21.5 59t54 83t69.5 74t68 32q16 0 28.5 -13.5t16.5 -50.5q-74 -66 -129.5 -122t-100.5 -115q-16 8 -22 25.5t-6 27.5z" />
<glyph unicode="&#xf4;" horiz-adv-x="747" d="M-20 121q0 63 20 132t53 126t76 95t86 38q18 0 43 -10q-18 -16 -44 -61.5t-48.5 -100.5t-37.5 -110.5t-15 -94.5q0 -61 19.5 -89t53.5 -28q43 0 102.5 46.5t117.5 117.5q-59 47 -90 124t-31 157q0 51 13 97t38.5 82t62.5 57.5t86 21.5q84 0 113 -45t29 -113 q0 -80 -39 -177t-99 -187q37 -20 78 -21q25 0 54.5 7.5t60.5 24.5t58.5 45t45.5 71l25 -21q-20 -49 -51 -82t-66 -54.5t-71.5 -30.5t-69.5 -9q-55 0 -98 21q-72 -92 -154 -154t-160 -62q-88 0 -124.5 54.5t-36.5 132.5zM362 942q0 31 29 62.5t68 57t77.5 43t59.5 17.5 q25 0 56.5 -23.5t60 -57t48 -73.5t19.5 -73q0 -20 -8 -36.5t-27 -27.5q-29 59 -65.5 100.5t-85.5 88.5q-63 -23 -113.5 -49.5t-97.5 -67.5q-12 8 -16.5 18.5t-4.5 20.5zM373 457q0 -59 17.5 -120t51.5 -101q51 76 85 158.5t34 156.5q0 59 -17.5 87t-43.5 28q-20 0 -43 -16.5 t-41.5 -44t-30.5 -65.5t-12 -83z" />
<glyph unicode="&#xf5;" horiz-adv-x="747" d="M-20 121q0 63 20 132t53 126t76 95t86 38q18 0 43 -10q-18 -16 -44 -61.5t-48.5 -100.5t-37.5 -110.5t-15 -94.5q0 -61 19.5 -89t53.5 -28q43 0 102.5 46.5t117.5 117.5q-59 47 -90 124t-31 157q0 51 13 97t38.5 82t62.5 57.5t86 21.5q84 0 113 -45t29 -113 q0 -80 -39 -177t-99 -187q37 -20 78 -21q25 0 54.5 7.5t60.5 24.5t58.5 45t45.5 71l25 -21q-20 -49 -51 -82t-66 -54.5t-71.5 -30.5t-69.5 -9q-55 0 -98 21q-72 -92 -154 -154t-160 -62q-88 0 -124.5 54.5t-36.5 132.5zM311 862q31 53 65 73.5t70 20.5q35 0 72 -14t77 -30.5 t82 -31t87 -14.5q25 0 49 6q-29 -41 -60.5 -57t-66.5 -16t-71.5 12t-74.5 27.5t-77 28t-78 12.5q-41 -1 -74 -17zM373 457q0 -59 17.5 -120t51.5 -101q51 76 85 158.5t34 156.5q0 59 -17.5 87t-43.5 28q-20 0 -43 -16.5t-41.5 -44t-30.5 -65.5t-12 -83z" />
<glyph unicode="&#xf6;" horiz-adv-x="747" d="M-20 121q0 63 20 132t53 126t76 95t86 38q18 0 43 -10q-18 -16 -44 -61.5t-48.5 -100.5t-37.5 -110.5t-15 -94.5q0 -61 19.5 -89t53.5 -28q43 0 102.5 46.5t117.5 117.5q-59 47 -90 124t-31 157q0 51 13 97t38.5 82t62.5 57.5t86 21.5q84 0 113 -45t29 -113 q0 -80 -39 -177t-99 -187q37 -20 78 -21q25 0 54.5 7.5t60.5 24.5t58.5 45t45.5 71l25 -21q-20 -49 -51 -82t-66 -54.5t-71.5 -30.5t-69.5 -9q-55 0 -98 21q-72 -92 -154 -154t-160 -62q-88 0 -124.5 54.5t-36.5 132.5zM266 954q0 18 12.5 36t33 31t44 21.5t45.5 8.5 q29 0 45.5 -12.5t16.5 -45.5q0 -18 -10.5 -35.5t-27.5 -32t-38.5 -23.5t-44.5 -9q-31 0 -53.5 14.5t-22.5 46.5zM373 457q0 -59 17.5 -120t51.5 -101q51 76 85 158.5t34 156.5q0 59 -17.5 87t-43.5 28q-20 0 -43 -16.5t-41.5 -44t-30.5 -65.5t-12 -83zM561 911q0 18 12.5 36 t33 31t44 21.5t45.5 8.5q29 0 45.5 -12.5t16.5 -45.5q0 -18 -10.5 -35.5t-28 -32t-38.5 -23.5t-44 -9q-31 0 -53.5 14.5t-22.5 46.5z" />
<glyph unicode="&#xf7;" horiz-adv-x="944" d="M31 254q12 31 46 50.5t85 30.5t116.5 15t139.5 4q111 0 205 -7t139 -11q-23 -16 -50.5 -27.5t-68.5 -18.5t-99.5 -10.5t-142.5 -3.5q-88 0 -179 -3t-191 -19zM264 35q0 35 39 59.5t80 24.5q25 0 39 -10.5t14 -38.5q0 -31 -32.5 -60.5t-73.5 -29.5q-27 0 -46.5 13 t-19.5 42zM387 547q0 35 39 59.5t80 24.5q25 0 39 -10.5t14 -38.5q0 -31 -32.5 -60.5t-73.5 -29.5q-27 0 -46.5 13t-19.5 42z" />
<glyph unicode="&#xf8;" horiz-adv-x="829" d="M-133 -129q31 16 66.5 48t76.5 75q-35 47 -35 119q0 82 43 186t114 198.5t159 159t180 64.5q37 0 61 -14l33 55q8 12 36 21.5t56 9.5q6 0 13.5 -1t13.5 -1q-10 -12 -29.5 -44t-48.5 -77q20 -14 28.5 -35t8.5 -35q0 -18 -12.5 -46t-27.5 -61.5t-27.5 -71.5t-12.5 -79 q0 -78 45 -124t99 -46q43 0 81.5 35t79.5 121l27 -21q-45 -102 -99.5 -139t-105.5 -37q-57 0 -109.5 36t-82.5 107q-66 -152 -158 -246t-201 -94q-43 0 -76 17q-47 -39 -91 -60.5t-78 -21.5h-13.5t-13.5 2zM106 104q51 63 104.5 133t102.5 141t94.5 137.5t81.5 123.5 q-84 -4 -154.5 -63.5t-120.5 -140.5t-79 -166t-29 -142v-23zM152 29q14 -6 32 -6q35 0 75 24.5t79 67.5t75 100t64 123q-12 45 -12 108q-41 -59 -82 -119.5t-81 -114.5t-76 -99t-64 -74z" />
<glyph unicode="&#xf9;" horiz-adv-x="899" d="M0 145q0 57 19.5 138.5t47 153t59.5 122.5t54 51q10 0 35 -11t41 -30q-16 -27 -39.5 -75t-45 -105t-37 -118.5t-15.5 -112.5q0 -12 2 -36t9 -46.5t22.5 -39t40.5 -16.5q47 0 100 61.5t104.5 147.5t95 177.5t72.5 148.5q8 -2 24.5 -5t33 -9t29 -16.5t12.5 -22.5 q0 -8 -21.5 -55.5t-47.5 -112t-47.5 -133t-21.5 -119.5q0 -37 15.5 -59.5t52.5 -22.5q33 0 76 22.5t90 64.5t93 103.5t83 141.5l27 -19q-33 -84 -81 -152.5t-103.5 -117.5t-114 -76.5t-113.5 -27.5q-82 0 -112.5 44t-30.5 107q0 25 4 50.5t10 52.5q-29 -51 -59.5 -97.5 t-64.5 -81t-69.5 -55t-74.5 -20.5q-70 0 -112 61t-42 145zM336 1077q4 37 16.5 50.5t28.5 13.5q31 0 67.5 -32t69.5 -74t54.5 -83t21.5 -59q0 -10 -6 -27.5t-23 -25.5q-45 59 -100 115t-129 122z" />
<glyph unicode="&#xfa;" horiz-adv-x="899" d="M0 145q0 57 19.5 138.5t47 153t59.5 122.5t54 51q10 0 35 -11t41 -30q-16 -27 -39.5 -75t-45 -105t-37 -118.5t-15.5 -112.5q0 -12 2 -36t9 -46.5t22.5 -39t40.5 -16.5q47 0 100 61.5t104.5 147.5t95 177.5t72.5 148.5q8 -2 24.5 -5t33 -9t29 -16.5t12.5 -22.5 q0 -8 -21.5 -55.5t-47.5 -112t-47.5 -133t-21.5 -119.5q0 -37 15.5 -59.5t52.5 -22.5q33 0 76 22.5t90 64.5t93 103.5t83 141.5l27 -19q-33 -84 -81 -152.5t-103.5 -117.5t-114 -76.5t-113.5 -27.5q-82 0 -112.5 44t-30.5 107q0 25 4 50.5t10 52.5q-29 -51 -59.5 -97.5 t-64.5 -81t-69.5 -55t-74.5 -20.5q-70 0 -112 61t-42 145zM430 811q0 18 21.5 59t54.5 83t69.5 74t67.5 32q16 0 28.5 -13.5t16.5 -50.5q-74 -66 -129 -122t-100 -115q-16 8 -22.5 25.5t-6.5 27.5z" />
<glyph unicode="&#xfb;" horiz-adv-x="899" d="M0 145q0 57 19.5 138.5t47 153t59.5 122.5t54 51q10 0 35 -11t41 -30q-16 -27 -39.5 -75t-45 -105t-37 -118.5t-15.5 -112.5q0 -12 2 -36t9 -46.5t22.5 -39t40.5 -16.5q47 0 100 61.5t104.5 147.5t95 177.5t72.5 148.5q8 -2 24.5 -5t33 -9t29 -16.5t12.5 -22.5 q0 -8 -21.5 -55.5t-47.5 -112t-47.5 -133t-21.5 -119.5q0 -37 15.5 -59.5t52.5 -22.5q33 0 76 22.5t90 64.5t93 103.5t83 141.5l27 -19q-33 -84 -81 -152.5t-103.5 -117.5t-114 -76.5t-113.5 -27.5q-82 0 -112.5 44t-30.5 107q0 25 4 50.5t10 52.5q-29 -51 -59.5 -97.5 t-64.5 -81t-69.5 -55t-74.5 -20.5q-70 0 -112 61t-42 145zM356 942q0 31 29 62.5t68 57t77.5 43t59.5 17.5q25 0 56.5 -23.5t60 -57t48 -73.5t19.5 -73q0 -20 -8 -36.5t-27 -27.5q-29 59 -65.5 100.5t-85.5 88.5q-63 -23 -113.5 -49.5t-97.5 -67.5q-12 8 -16.5 18.5 t-4.5 20.5z" />
<glyph unicode="&#xfc;" horiz-adv-x="899" d="M0 145q0 57 19.5 138.5t47 153t59.5 122.5t54 51q10 0 35 -11t41 -30q-16 -27 -39.5 -75t-45 -105t-37 -118.5t-15.5 -112.5q0 -12 2 -36t9 -46.5t22.5 -39t40.5 -16.5q47 0 100 61.5t104.5 147.5t95 177.5t72.5 148.5q8 -2 24.5 -5t33 -9t29 -16.5t12.5 -22.5 q0 -8 -21.5 -55.5t-47.5 -112t-47.5 -133t-21.5 -119.5q0 -37 15.5 -59.5t52.5 -22.5q33 0 76 22.5t90 64.5t93 103.5t83 141.5l27 -19q-33 -84 -81 -152.5t-103.5 -117.5t-114 -76.5t-113.5 -27.5q-82 0 -112.5 44t-30.5 107q0 25 4 50.5t10 52.5q-29 -51 -59.5 -97.5 t-64.5 -81t-69.5 -55t-74.5 -20.5q-70 0 -112 61t-42 145zM258 954q0 18 12.5 36t33 31t44 21.5t45.5 8.5q29 0 45.5 -12.5t16.5 -45.5q0 -18 -10.5 -35.5t-28 -32t-38.5 -23.5t-44 -9q-31 0 -53.5 14.5t-22.5 46.5zM553 911q0 18 12.5 36t32.5 31t44 21.5t46 8.5 q29 0 45.5 -12.5t16.5 -45.5q0 -18 -10.5 -35.5t-28 -32t-38.5 -23.5t-44 -9q-31 0 -53.5 14.5t-22.5 46.5z" />
<glyph unicode="&#xfd;" horiz-adv-x="798" d="M-41 -465q0 66 33 117t88 94t127 82t149 78q29 76 57.5 169t57.5 206q-33 -53 -68.5 -101.5t-72.5 -83.5t-77 -55.5t-81 -20.5q-31 0 -59.5 10.5t-52 30t-38 51t-14.5 74.5q0 57 19.5 134t48 147t59.5 118t53 48q6 0 20.5 -4t30 -10.5t28 -15.5t12.5 -17q-18 -27 -41 -77 t-44.5 -108.5t-36 -117t-14.5 -99.5q0 -37 16.5 -59.5t57.5 -22.5q29 0 63.5 21.5t70.5 58.5t72 84t66 99q6 23 11.5 46t9.5 48q2 14 10 32.5t20.5 34t31 26.5t42.5 11q18 0 43 -6q0 -25 -11 -83t-32.5 -136t-50 -170t-65.5 -184q96 37 187 121.5t151 226.5l26 -21 q-23 -74 -64.5 -133t-95 -106t-112 -82t-115.5 -62q-41 -98 -86 -189t-94 -159.5t-101.5 -110.5t-105.5 -42t-91 27.5t-38 80.5zM23 -446q0 -16 12 -39t43 -23q14 0 41.5 18.5t61.5 61.5t74 112.5t81 172.5q-63 -35 -120.5 -67t-100.5 -67.5t-67.5 -76.5t-24.5 -92zM500 811 q0 18 21.5 59t54 83t69.5 74t68 32q16 0 28.5 -13.5t16.5 -50.5q-74 -66 -129.5 -122t-100.5 -115q-16 8 -22 25.5t-6 27.5z" />
<glyph unicode="&#xfe;" horiz-adv-x="802" d="M-193 -496q37 127 78 266.5t83 318.5t84 409.5t79 537.5q2 18 8 26.5t31 8.5q53 0 75.5 -29.5t22.5 -64.5q0 -10 -5 -48t-12 -91.5t-17.5 -117t-20.5 -126t-20.5 -115.5t-16.5 -86q27 51 62.5 104.5t81 97.5t98.5 71.5t112 27.5q92 0 149.5 -64.5t57.5 -168.5 q0 -80 -35.5 -170t-100 -167t-153 -127t-194.5 -50q-53 0 -86 12t-33 25q0 8 14.5 9t36.5 1q82 0 158 41t133.5 105.5t92 144.5t34.5 157q0 66 -27.5 112t-89.5 46q-53 0 -106 -35t-98 -86t-81 -107.5t-55 -101.5q-37 -154 -73.5 -297t-70.5 -256.5t-61.5 -188.5t-45.5 -91 q-10 -10 -25 -10q-12 0 -24.5 11t-21.5 24.5t-13.5 25.5t-4.5 16z" />
<glyph unicode="&#xff;" horiz-adv-x="798" d="M-41 -465q0 66 33 117t88 94t127 82t149 78q29 76 57.5 169t57.5 206q-33 -53 -68.5 -101.5t-72.5 -83.5t-77 -55.5t-81 -20.5q-31 0 -59.5 10.5t-52 30t-38 51t-14.5 74.5q0 57 19.5 134t48 147t59.5 118t53 48q6 0 20.5 -4t30 -10.5t28 -15.5t12.5 -17q-18 -27 -41 -77 t-44.5 -108.5t-36 -117t-14.5 -99.5q0 -37 16.5 -59.5t57.5 -22.5q29 0 63.5 21.5t70.5 58.5t72 84t66 99q6 23 11.5 46t9.5 48q2 14 10 32.5t20.5 34t31 26.5t42.5 11q18 0 43 -6q0 -25 -11 -83t-32.5 -136t-50 -170t-65.5 -184q96 37 187 121.5t151 226.5l26 -21 q-23 -74 -64.5 -133t-95 -106t-112 -82t-115.5 -62q-41 -98 -86 -189t-94 -159.5t-101.5 -110.5t-105.5 -42t-91 27.5t-38 80.5zM23 -446q0 -16 12 -39t43 -23q14 0 41.5 18.5t61.5 61.5t74 112.5t81 172.5q-63 -35 -120.5 -67t-100.5 -67.5t-67.5 -76.5t-24.5 -92zM258 954 q0 18 12.5 36t33 31t44 21.5t45.5 8.5q29 0 45.5 -12.5t16.5 -45.5q0 -18 -10.5 -35.5t-28 -32t-38.5 -23.5t-44 -9q-31 0 -53.5 14.5t-22.5 46.5zM553 911q0 18 12.5 36t32.5 31t44 21.5t46 8.5q29 0 45.5 -12.5t16.5 -45.5q0 -18 -10.5 -35.5t-28 -32t-38.5 -23.5t-44 -9 q-31 0 -53.5 14.5t-22.5 46.5z" />
<glyph unicode="&#x152;" horiz-adv-x="1638" d="M43 330q0 131 36 267t97.5 263t144 238.5t177 194.5t195 131.5t198.5 48.5q76 0 123 -25h-23q-88 0 -179 -50t-176 -136t-161 -201t-131 -242t-88 -260t-33 -258q0 -82 15.5 -156.5t49.5 -131t85 -89.5t125 -33q82 0 158.5 51.5t142 137.5t120 200.5t92.5 241.5t59.5 259 t21.5 253q0 141 -16.5 200.5t-45.5 59.5q-25 0 -54.5 -36.5t-61 -96t-64.5 -134.5t-64 -148q-53 12 -75.5 38.5t-22.5 61.5q0 55 39 122.5t96.5 128t122 101.5t117.5 41q51 4 111.5 6t121.5 2t121 -2t112 -6t94 -11t71 -15q-8 -23 -41 -37.5t-80 -22.5t-106.5 -11t-120.5 -3 q-49 0 -86 3t-78 3q6 -18 14 -67.5t8 -92.5q0 -49 -3 -103t-7 -105.5t-8 -94.5t-8 -67q125 0 234.5 -5.5t180.5 -15.5q-16 -47 -87.5 -73.5t-196.5 -26.5q-55 0 -89 1t-63 3q-29 -131 -57.5 -243t-65.5 -202t-88 -158.5t-125 -113.5q80 -4 162 -4h180q20 0 51 1t66 3t68.5 3 t58.5 1q33 0 41 -2q-10 -27 -70.5 -45t-148.5 -29.5t-192.5 -16.5t-198.5 -5q-86 0 -175.5 1t-179.5 1q-98 0 -179 30.5t-139.5 93t-90 158t-31.5 226.5z" />
<glyph unicode="&#x153;" horiz-adv-x="1114" d="M-53 74q0 61 23.5 130.5t64.5 140.5t96 135.5t117.5 113.5t130 78.5t135.5 29.5q57 0 92 -22.5t49 -63.5q63 55 132 88t137 33q47 0 87 -24.5t40 -100.5q0 -78 -46.5 -146.5t-120 -121.5t-163.5 -87t-178 -42q-4 -20 -6 -38.5t-2 -35.5q0 -31 7 -61.5t25.5 -55t50 -40 t78.5 -15.5q66 0 131.5 29t125 79t111.5 115.5t91 139.5l25 -19q-41 -92 -100.5 -166.5t-128 -127t-145.5 -81t-153 -28.5q-123 0 -184 64.5t-66 160.5q-88 -117 -159.5 -174t-145.5 -57q-66 0 -108.5 42t-42.5 128zM88 68q0 -80 55 -80q27 0 60 17.5t66.5 47t68.5 68.5 t70 82l6 30q-68 23 -103 84.5t-35 131.5q0 29 7 57q-41 -49 -77 -106.5t-62.5 -116t-41 -114.5t-14.5 -101zM356 418q0 -43 20.5 -76t51.5 -55q27 76 73 148.5t105 133.5q-8 35 -30.5 56.5t-65.5 21.5q-29 0 -56.5 -18.5t-49 -50t-35 -73.5t-13.5 -87zM553 254q55 18 125 54 t133 85t106.5 108.5t43.5 125.5q0 23 -8 35t-35 12q-49 0 -104.5 -38t-107 -98.5t-92.5 -135t-61 -148.5z" />
<glyph unicode="&#x178;" horiz-adv-x="1366" d="M47 1104q0 63 31 128.5t85 120t124.5 88.5t150.5 34q57 0 98.5 -18.5t67 -48.5t36.5 -66.5t11 -73.5q0 -57 -21.5 -140.5t-47 -175.5t-47 -187t-21.5 -177q0 -90 33 -143.5t110 -53.5q72 0 135.5 46t119 120t100.5 164t80 180q27 111 56.5 214.5t60 183t63.5 128t65 48.5 q20 0 53 -17.5t62 -48.5q-35 -57 -62.5 -106.5t-51 -105.5t-46 -124.5t-48 -163t-57.5 -219.5t-73 -293q-33 -131 -74 -269t-106.5 -252t-164.5 -186.5t-247 -72.5q-59 0 -110.5 12.5t-89 37t-60 60t-22.5 83.5q0 53 29.5 91.5t92.5 61.5q-10 -31 -13 -59.5t-3 -50.5 q0 -86 44 -135.5t134 -49.5q70 0 125.5 30t99.5 78t77.5 109.5t57 126t41 126t27.5 110.5q16 70 37 180.5t49 239.5q-41 -78 -88 -144.5t-101 -114t-117.5 -74t-137.5 -26.5q-121 0 -172 67.5t-51 176.5q0 80 21.5 174t48 188.5t48 183.5t21.5 158q0 66 -25.5 113t-91.5 47 q-57 0 -98 -37t-68.5 -90t-41 -114.5t-13.5 -112.5q0 -61 16 -100q-78 0 -109.5 40.5t-31.5 100.5zM772 1647q0 18 12.5 35.5t33 30.5t44 21.5t45.5 8.5q29 0 45.5 -12.5t16.5 -44.5q0 -18 -10.5 -36t-28 -32t-38.5 -23.5t-44 -9.5q-31 0 -53.5 14.5t-22.5 47.5zM1067 1604 q0 18 12.5 35.5t33 30.5t44 21.5t45.5 8.5q29 0 45.5 -12.5t16.5 -45.5q0 -18 -10.5 -35.5t-28 -31.5t-38.5 -23.5t-44 -9.5q-31 0 -53.5 14.5t-22.5 47.5z" />
<glyph unicode="&#x2c6;" horiz-adv-x="417" d="M0 942q0 31 28.5 62.5t67.5 57t78 43t59 17.5q25 0 57 -23.5t60.5 -57t48 -73.5t19.5 -73q0 -20 -8.5 -36.5t-26.5 -27.5q-29 59 -65.5 100.5t-86.5 88.5q-63 -23 -113.5 -49.5t-97.5 -67.5q-12 8 -16 18.5t-4 20.5z" />
<glyph unicode="&#x2dc;" horiz-adv-x="628" d="M0 862q41 53 82 73.5t88 20.5q43 0 89 -14t95 -30.5t102.5 -31t110.5 -14.5q31 0 62 6q-37 -41 -77 -57t-83 -16t-89 12t-93 27.5t-95.5 28t-97.5 12.5q-53 -1 -94 -17z" />
<glyph unicode="&#x2000;" horiz-adv-x="942" />
<glyph unicode="&#x2001;" horiz-adv-x="1884" />
<glyph unicode="&#x2002;" horiz-adv-x="942" />
<glyph unicode="&#x2003;" horiz-adv-x="1884" />
<glyph unicode="&#x2004;" horiz-adv-x="628" />
<glyph unicode="&#x2005;" horiz-adv-x="471" />
<glyph unicode="&#x2006;" horiz-adv-x="314" />
<glyph unicode="&#x2007;" horiz-adv-x="314" />
<glyph unicode="&#x2008;" horiz-adv-x="235" />
<glyph unicode="&#x2009;" horiz-adv-x="376" />
<glyph unicode="&#x200a;" horiz-adv-x="104" />
<glyph unicode="&#x2010;" horiz-adv-x="993" d="M53 295q12 31 46 50.5t85.5 30.5t117 15t138.5 4q111 0 205 -7t139 -11q-51 -37 -109.5 -48.5t-101.5 -11.5h-194q-49 0 -88 -1t-76 -3t-75 -6t-87 -12z" />
<glyph unicode="&#x2011;" horiz-adv-x="993" d="M53 295q12 31 46 50.5t85.5 30.5t117 15t138.5 4q111 0 205 -7t139 -11q-51 -37 -109.5 -48.5t-101.5 -11.5h-194q-49 0 -88 -1t-76 -3t-75 -6t-87 -12z" />
<glyph unicode="&#x2012;" horiz-adv-x="993" d="M53 295q12 31 46 50.5t85.5 30.5t117 15t138.5 4q111 0 205 -7t139 -11q-51 -37 -109.5 -48.5t-101.5 -11.5h-194q-49 0 -88 -1t-76 -3t-75 -6t-87 -12z" />
<glyph unicode="&#x2013;" horiz-adv-x="1388" d="M31 233q4 51 49 84t122 51.5t180 25.5t226 7q121 0 202 -5t147.5 -12t130 -13t149.5 -6q-68 -59 -141.5 -76t-126.5 -17q-164 0 -279 -1t-196.5 -2t-138 -2t-105.5 -5t-100 -11.5z" />
<glyph unicode="&#x2014;" horiz-adv-x="1718" d="M51 233q6 51 62.5 84t151.5 51.5t225.5 25.5t281.5 7q100 0 178 -3t141.5 -6t118 -8t107.5 -9t111.5 -7t130.5 -3q-43 -29 -88.5 -47.5t-88.5 -28.5t-84 -13.5t-73 -3.5q-207 0 -350.5 -1t-245 -2t-172 -2t-132 -5t-125 -11.5t-149.5 -17.5z" />
<glyph unicode="&#x2018;" horiz-adv-x="296" d="M238 1417q0 23 15 40.5t36 17.5q6 -25 21.5 -50.5t33.5 -53.5t37.5 -56.5t32.5 -59.5q4 -12 4 -18q0 -18 -11.5 -32.5t-27.5 -24.5q-18 29 -43 61.5t-46.5 65t-36.5 61.5t-15 49z" />
<glyph unicode="&#x2019;" horiz-adv-x="258" d="M233 1237q0 6 5 18q12 31 31.5 59.5t38 56.5t33.5 53.5t21 50.5q20 0 36 -17.5t16 -40.5q0 -20 -15.5 -49t-37 -61.5t-46 -65.5t-43.5 -61q-16 10 -27.5 24.5t-11.5 32.5z" />
<glyph unicode="&#x201a;" horiz-adv-x="403" d="M-41 -104q0 31 11.5 69.5t28.5 71.5t39.5 55.5t45.5 22.5q20 0 35.5 -17.5t15.5 -40.5q-57 -59 -84.5 -118.5t-56.5 -118.5q-18 10 -26.5 30.5t-8.5 45.5z" />
<glyph unicode="&#x201c;" horiz-adv-x="522" d="M238 1417q0 23 15 40.5t36 17.5q6 -25 21.5 -50.5t33.5 -53.5t37.5 -56.5t32.5 -59.5q4 -12 4 -18q0 -18 -11.5 -32.5t-27.5 -24.5q-18 29 -43 61.5t-46.5 65t-36.5 61.5t-15 49zM463 1417q0 23 15.5 40.5t35.5 17.5q6 -25 21.5 -50.5t34 -53.5t38 -56.5t31.5 -59.5 q4 -12 4 -18q0 -18 -11 -32.5t-28 -24.5q-18 29 -42.5 61.5t-46 65t-37 61.5t-15.5 49z" />
<glyph unicode="&#x201d;" horiz-adv-x="483" d="M233 1237q0 6 5 18q12 31 31.5 59.5t38 56.5t33.5 53.5t21 50.5q20 0 36 -17.5t16 -40.5q0 -20 -15.5 -49t-37 -61.5t-46 -65.5t-43.5 -61q-16 10 -27.5 24.5t-11.5 32.5zM459 1237q0 6 4 18q12 31 31.5 59.5t38 56.5t34 53.5t21.5 50.5q20 0 35.5 -17.5t15.5 -40.5 q0 -20 -15.5 -49t-37 -61.5t-46 -65.5t-42.5 -61q-16 10 -27.5 24.5t-11.5 32.5z" />
<glyph unicode="&#x201e;" horiz-adv-x="628" d="M-41 -104q0 31 11.5 69.5t28.5 71.5t39.5 55.5t45.5 22.5q20 0 35.5 -17.5t15.5 -40.5q-57 -59 -84.5 -118.5t-56.5 -118.5q-18 10 -26.5 30.5t-8.5 45.5zM184 -104q0 31 11.5 69.5t29 71.5t40 55.5t44.5 22.5q20 0 35.5 -17.5t15.5 -40.5q-57 -59 -84.5 -118.5 t-56.5 -118.5q-18 10 -26.5 30.5t-8.5 45.5z" />
<glyph unicode="&#x2022;" horiz-adv-x="497" d="M61 319q0 25 12.5 49.5t32 44t45 33t54.5 13.5q35 0 66.5 -25.5t31.5 -64.5q0 -23 -13.5 -45.5t-33.5 -41t-47.5 -29.5t-54.5 -11q-37 0 -65 18.5t-28 58.5z" />
<glyph unicode="&#x2026;" horiz-adv-x="1079" d="M-4 35q0 35 39 59.5t80 24.5q25 0 39 -10.5t14 -38.5q0 -31 -33 -60.5t-74 -29.5q-27 0 -46 13t-19 42zM315 35q0 35 39 59.5t80 24.5q25 0 39 -10.5t14 -38.5q0 -31 -32.5 -60.5t-73.5 -29.5q-27 0 -46.5 13t-19.5 42zM635 35q0 35 39 59.5t80 24.5q25 0 39 -10.5 t14 -38.5q0 -31 -33 -60.5t-74 -29.5q-27 0 -46 13t-19 42z" />
<glyph unicode="&#x202f;" horiz-adv-x="376" />
<glyph unicode="&#x2039;" horiz-adv-x="585" d="M-8 324l26 4q41 20 90.5 56t99.5 79t95 91t78 93q4 -4 7 -19.5t3 -25.5q0 -41 -34.5 -83t-87 -82t-113 -74.5t-111.5 -61.5q33 -25 63.5 -45t66.5 -40.5t84 -43t118 -49.5q-10 -10 -24.5 -21.5t-35.5 -11.5q-37 0 -89 24.5t-102 61.5t-88 77t-46 71z" />
<glyph unicode="&#x203a;" horiz-adv-x="624" d="M84 602q0 10 3 25.5t7 19.5q33 -45 78 -93t95 -91t99.5 -79t90.5 -56l26 -4q-8 -31 -46 -71t-88 -77t-102 -61.5t-89 -24.5q-20 0 -34.5 11.5t-25.5 21.5q70 27 118 48.5t84 41.5t65.5 41.5t64.5 46.5q-51 27 -111.5 61.5t-112.5 74.5t-87 82t-35 83z" />
<glyph unicode="&#x205f;" horiz-adv-x="471" />
<glyph unicode="&#x20ac;" horiz-adv-x="1406" d="M16 317q4 72 67.5 103t158.5 37l8 46l8 46l-201 -27q4 72 68.5 102.5t161.5 39.5q49 160 135 306t192.5 257.5t225 178.5t235.5 67q84 0 136.5 -40t52.5 -137q0 -59 -21.5 -135t-55.5 -142.5t-76 -112.5t-85 -46q-16 0 -33.5 10.5t-29.5 36.5q31 35 69.5 87.5t71.5 109.5 t55.5 114.5t22.5 100.5q0 41 -23.5 66.5t-77.5 25.5q-84 0 -173 -63.5t-172 -169t-154.5 -240.5t-116.5 -276q98 -6 185 -17.5t159 -13.5q-16 -25 -36.5 -38t-59.5 -19.5t-104.5 -9.5t-174.5 -5q-6 -25 -11 -50.5t-9 -49.5q102 -6 191 -18.5t163 -14.5q-16 -25 -36.5 -38 t-58.5 -19.5t-102.5 -8.5t-171.5 -4q-2 -18 -2 -35.5v-33.5q0 -76 16.5 -147.5t51.5 -127t89 -88.5t132 -33q82 0 164 36t155.5 96.5t135 140.5t102.5 168l29 -21q-51 -100 -119 -189t-147.5 -155.5t-173 -105.5t-195.5 -39q-109 0 -185.5 43t-124.5 113.5t-71 159.5 t-23 184v24q-35 -4 -69.5 -8t-77.5 -10z" />
<glyph unicode="&#x2122;" horiz-adv-x="1142" d="M268 1393q0 25 33 40t86 22t125 9t152 2h157q45 0 67.5 -36.5t22.5 -149.5q0 -31 -2 -70t-5 -75.5t-5 -67.5t-2 -45q31 49 62.5 124t65.5 143.5t66.5 117.5t67.5 49q10 0 29 -6l6 -6q-12 -29 -30.5 -100.5t-37 -157.5t-32 -171t-13.5 -141q0 -18 1 -27t5 -20l9 -24 q-51 0 -67.5 21.5t-16.5 72.5q0 88 19.5 188.5t47.5 206.5q-25 -43 -53.5 -100t-54 -115.5t-48 -111t-34.5 -84.5q-8 -8 -19 -9q-27 0 -35 27t-8 76q0 33 2 79t4.5 93t4.5 93t2 81v8q-68 -164 -112 -266t-73.5 -159.5t-51 -79t-46.5 -21.5l41 92q35 76 92.5 199t122.5 276 q4 6 7 14.5t3 16.5q0 16 -20 16q-66 0 -138.5 -3t-117.5 -9q-18 -49 -47 -126t-55.5 -161t-46 -162.5t-19.5 -130.5v-8t4 -14q-47 0 -65.5 17.5t-18.5 43.5q0 20 17.5 81t45 138.5t61.5 162.5t69 157q-76 0 -119 -2t-94 -12z" />
<glyph unicode="&#xe000;" horiz-adv-x="675" d="M0 0v676h676v-676h-676z" />
</font>
</defs>
</svg>
