<?xml version="1.0" standalone="no"?>
<!DOCTYPE svg PUBLIC "-//W3C//DTD SVG 1.1//EN" "http://www.w3.org/Graphics/SVG/1.1/DTD/svg11.dtd" >
<svg xmlns="http://www.w3.org/2000/svg" xmlns:xlink="http://www.w3.org/1999/xlink" version="1.1">
<metadata></metadata>
<defs>
<font id="copydoodles_beckyregular" horiz-adv-x="1097" >
<font-face units-per-em="2048" ascent="1638" descent="-410" />
<missing-glyph horiz-adv-x="1036" />
<glyph horiz-adv-x="0" />
<glyph horiz-adv-x="682" />
<glyph unicode=" "  horiz-adv-x="1036" />
<glyph unicode="&#x09;" horiz-adv-x="1036" />
<glyph unicode="&#xa0;" horiz-adv-x="1036" />
<glyph unicode="!" horiz-adv-x="333" d="M48 1479.5q-3 148.5 2 192.5t23.5 76t59.5 32t69.5 -43t48 -106.5t28 -140.5t12.5 -149.5t-1 -252t-9.5 -226.5t-16.5 -93t-30.5 -55t-45.5 -9q-16 0 -31.5 3t-21.5 23q-43 190 -63.5 395t-23.5 353.5zM51 111q0 51 41 80.5t92 29.5q113 0 113 -98q0 -51 -41 -88t-96 -37 t-82 33t-27 80z" />
<glyph unicode="&#x22;" horiz-adv-x="688" d="M53 1698q12 70 39 112.5t73 -75t77.5 -215t55.5 -182.5t2.5 -123.5t-75 -38.5t-93.5 64.5t-58.5 151.5t-19.5 174t-1 132zM395 1729q0 49 11.5 79.5t67.5 30.5t92 -42t57.5 -101.5t27.5 -123t5 -128t-9 -107.5t-23.5 -81.5t-61.5 -46t-63.5 20t-21.5 66.5t-1 79t-6 88 t-42 121t-33 145z" />
<glyph unicode="#" horiz-adv-x="1585" d="M25 563q0 39 24.5 58.5t63.5 30t85 14.5t87 10t71.5 23.5t38.5 50.5q6 18 8.5 71t15.5 108.5t37.5 96.5t71.5 41q33 0 56.5 -23.5t23.5 -56.5q0 -37 -15 -66.5t-15 -68.5q0 -20 10 -36.5t30 -16.5h9q6 0 6 2q6 4 26.5 13t45 21.5t48 25.5t38.5 18q8 6 23 15t15 13v316 q0 31 35 43t60 12q23 0 56.5 -12.5t33.5 -42.5q0 -205 34.5 -211t57.5 0q2 0 19.5 4l35 8t32.5 8t17 4q12 4 38 8.5t55.5 8.5t55 8t38.5 4q43 -14 50 -43t7 -66q0 -35 -28.5 -57t-74.5 -36.5t-97.5 -24t-96.5 -23.5t-74.5 -35.5t-29.5 -58.5v-199q55 0 108 15.5t105.5 34 t103.5 32.5t107 14q31 0 46 -10t31 -45l-106 -104q-25 -10 -84 -41t-127 -63.5t-127 -63.5t-82 -41q-47 -27 -103.5 -35t-108.5 -13t-94 -16.5t-60 -42.5q-14 -23 -22.5 -46t-21 -41.5t-31 -32t-48.5 -13.5h-11q-6 4 -21 15.5t-31.5 26t-33 25.5t-18.5 15q-45 10 -80 6 t-59.5 -5t-36.5 12.5t-12 62.5q0 45 12 64.5t32.5 26.5t43 12t43 24.5t33 60.5t12.5 123q-72 0 -135.5 -10t-129.5 -10q-20 0 -40.5 10t-39 23.5t-30.5 33t-12 37.5zM606 528q0 -53 14.5 -101t75.5 -48q12 0 37 1t49.5 7t43 16.5t18.5 28.5v242q-31 0 -71 -8.5t-78 -28 t-63.5 -47t-25.5 -62.5z" />
<glyph unicode="$" horiz-adv-x="1136" d="M25 647q0 33 18 63.5t43 58.5t52.5 51.5t45.5 35.5q23 18 78 60t118.5 88.5t121 86t78.5 56.5q4 33 5 87t11 105.5t35.5 88t79.5 36.5q2 0 16 2t27.5 -1t25 -8t11.5 -19v-238q0 -23 18 -27t46 -3t57.5 5.5t57 0t46 -23.5t18.5 -60t-20.5 -56.5t-50 -18.5t-65.5 0t-64.5 2 t-49 -15.5t-20.5 -53.5v-8q0 -4 2 -4q0 -14 4 -43t8 -62.5t7 -64.5t6 -41q20 -39 72 -60.5t107.5 -44t96.5 -54t41 -89.5q0 -86 -53.5 -129t-119 -74.5t-118.5 -69.5t-53 -106q0 -55 14.5 -102t14.5 -102q0 -31 -10.5 -49.5t-45.5 -18.5q-55 0 -78.5 40t-34 91t-22.5 100.5 t-49 61.5q-55 14 -125 29.5t-129 43t-100 74.5t-41 121q0 39 12 57.5t57 18.5q23 0 44.5 -20.5t50 -47t65.5 -47t88 -20.5q37 0 57.5 1t31.5 9t15.5 27.5t4.5 56.5v49q0 35 -31 41q-18 0 -67.5 -1t-104.5 -1q-51 0 -100.5 1t-67.5 1q-33 2 -67.5 8t-61.5 19.5t-43 39 t-16 66.5zM291 700h26h25q12 0 42 4.5t63.5 8.5t64.5 8t41 6q6 0 15.5 9t11.5 16q4 8 8 31.5t8 48t7 47t3 30.5q-14 29 -39 29q-37 0 -82 -25.5t-86 -62.5t-70.5 -77t-37.5 -73zM788 424q0 -4 1.5 -8t1.5 -6q29 14 28 41v10q-31 -10 -31 -37z" />
<glyph unicode="%" horiz-adv-x="1861" d="M27 750q0 51 46 127.5t117.5 159.5t160.5 166t177 149.5t166 107.5t154 41t76 -82t-25 -94t-87 -9t-363.5 -261t-194 -233.5t198 101t181.5 140.5t186 123t187.5 53t123 -27.5t30.5 -93t-28.5 -174t-73.5 -241t-98.5 -271.5t-103.5 -254t-89 -188.5t-55 -73.5 q-47 0 -66.5 17.5t-19.5 64.5q0 8 3 28.5t3 26.5q291 920 285.5 932t-15.5 12t-29.5 -9t-50 -27.5t-110.5 -76t-170 -114.5t-178.5 -100t-134.5 -43t-78.5 6t-60.5 19.5t-46 37t-18 60.5zM1288 125q0 96 18.5 195.5t62.5 179.5t119 131t187 51q25 0 50.5 -42t46 -99.5 t34 -109.5t13.5 -73q0 -74 -33 -140t-87 -115.5t-123 -79t-140 -29.5q-12 0 -47 2t-46 4q-49 14 -52 53t-3 72zM1470 172q31 0 62 16.5t54.5 44t36.5 59.5t13 62q0 23 -7 46.5t-36 23.5q-35 0 -56 -33t-36.5 -74t-23 -82.5t-7.5 -62.5z" />
<glyph unicode="&#x26;" d="M27 252q0 49 33.5 81t77.5 56.5t87 47t66 52.5q-41 14 -64.5 38t-35 51.5t-13.5 59.5t-2 64q0 78 27.5 127.5t74 83t101.5 57t111.5 47t107.5 53.5t88 77q27 37 43 120t37.5 168t53.5 150.5t89 65.5q47 0 72 -40t25 -79q0 -49 -17.5 -94t-38 -89t-38 -91.5t-17.5 -98.5 q0 -16 10 -27.5t22.5 -21.5t24 -21.5t11.5 -27.5q-55 0 -97.5 -24.5t-70 -64.5t-40 -90.5t-12.5 -99.5q47 0 93.5 12.5t93.5 12.5q51 0 90 -32t39 -87q0 -8 -1 -23.5t-5 -17.5q0 -2 -12.5 -13t-26 -25.5t-25.5 -26t-12 -13.5q-4 -6 -4 -24q0 -20 2 -42t2 -42v-25 q-14 -43 -54 -72.5t-89.5 -53t-97.5 -48t-74 -63.5q-20 -25 -28.5 -87.5t-22 -124t-40 -110.5t-82.5 -49q-14 0 -33.5 8t-19.5 23v245q-39 0 -107.5 -6t-135 0t-116.5 40t-50 114zM291 279l26 -27q4 2 26 14.5t55.5 34t50.5 31.5q27 16 26 39v14q-43 -12 -100.5 -35.5 t-83.5 -70.5zM342 700q6 -27 26.5 -27.5t37.5 -0.5q111 0 145.5 60.5t34.5 162.5q-41 0 -77 -17.5t-67.5 -47t-57.5 -63.5t-42 -67z" />
<glyph unicode="'" horiz-adv-x="358" d="M55 1014l105 600q0 6 16.5 10t26.5 4q37 0 60.5 -16.5t36.5 -44t17.5 -59t4.5 -62.5q0 -8 -7.5 -48t-21.5 -97.5t-33.5 -119t-43 -112.5t-51.5 -83t-56 -23q-14 6 -35 24.5t-19 26.5z" />
<glyph unicode="(" horiz-adv-x="569" d="M27 401q0 39 7 134.5t23.5 213t42 242.5t61.5 229.5t84 172t127 47t79 -62.5t-33 -77.5t-78 -149.5t-87 -304.5t-42 -352t49 -235.5t108.5 -118t109.5 -72.5t50 -67.5q0 -29 -7 -57.5t-46 -34.5q-98 -12 -181 32t-141.5 118.5t-92 166.5t-33.5 176z" />
<glyph unicode=")" horiz-adv-x="516" d="M25 -14q0 4 1 8t1 6q39 92 82 188.5t77.5 197.5t57 204.5t22.5 206t-38 181.5t-83 144.5t-82.5 124t-37.5 112.5t27.5 58t97 4t138 -70.5t110.5 -170t61.5 -207t19.5 -203.5t-26.5 -195.5t-69.5 -190.5t-101.5 -178t-121.5 -179q-4 -8 -17.5 -20.5t-28 -26t-31.5 -23.5 t-28 -10q-16 0 -23 14.5t-7 24.5z" />
<glyph unicode="*" horiz-adv-x="1374" d="M25 260q0 61 51 91t118.5 51.5t134 45t95.5 74.5q-59 78 -98 134.5t-59.5 113.5t-29 125t-8.5 164q72 0 102.5 -33t48 -82t40 -100t80.5 -84q35 20 51 53t29.5 67.5t30 66.5t51.5 48q10 8 40.5 23.5t63.5 32t61.5 32t42.5 21.5q6 -6 27 -26.5t27 -26.5v-15 q0 -55 -20.5 -82.5t-51.5 -47t-62.5 -39t-52.5 -54.5q-4 -12 -15 -37.5t-23.5 -55.5t-23.5 -55.5t-13 -37.5q4 -20 18 -23.5t31 -3.5q18 0 24 1t10.5 4t12.5 8t32.5 13.5t88 32t136 49t136 47t88.5 29.5q4 4 18 4h21q33 0 50.5 -10t17.5 -45q0 -20 -2.5 -29.5t-24.5 -23.5 l-449 -238q-27 -14 -26 -39q0 -31 12 -59.5t27.5 -56t28 -55t12.5 -60.5q0 -25 -3 -59.5t-14.5 -66.5t-32 -54.5t-55.5 -22.5q-55 0 -84.5 39t-45 90.5t-20.5 103.5t-7 83q-6 10 -26 29.5t-28 23.5q-39 8 -69.5 -28t-60 -83t-61.5 -87t-71 -40q-29 0 -40 16.5t-17 37 t-12.5 37t-22.5 16.5q-33 0 -60.5 -13.5t-60.5 -13.5q-39 0 -73.5 20.5t-34.5 59.5z" />
<glyph unicode="+" d="M27 610v15q6 14 16 38.5t12 24.5h262v356q0 37 31 58.5t62 21.5q25 0 51 -14t39 -37q-2 -29 -6.5 -68.5t-1 -82.5t15.5 -80t45 -60q41 10 89 24.5t101.5 27t106.5 20.5t104 8q39 0 71 -16.5t32 -63.5q0 -25 -15.5 -41t-36 -28.5t-43 -21.5t-38.5 -13q-16 -8 -62.5 -23.5 t-95.5 -32t-95 -30.5t-63 -21q-16 -12 -32.5 -37.5t-22.5 -41.5l-53 -420q-2 -18 -21.5 -50t-42.5 -32q-4 0 -12 2q-14 8 -41 27.5t-27 25.5v412l-276 59q-23 6 -38 42t-15 52z" />
<glyph unicode="," horiz-adv-x="372" d="M53 -504q0 37 13.5 70t29 66.5t28.5 66.5t13 72q0 57 -12 111.5t-28.5 108.5t-29 107.5t-12.5 108.5q0 31 24.5 49t53.5 18q49 0 89 -55t66.5 -132t42 -155.5t15.5 -126.5q0 -37 -18.5 -99t-47 -124.5t-67.5 -106.5t-80 -44q-29 0 -54.5 17t-25.5 48z" />
<glyph unicode="-" horiz-adv-x="1003" d="M27 547q0 16 19.5 42.5t33.5 37.5q78 23 144.5 35t131 16t131.5 4h146h49q39 0 81 -1t77 -1h55q4 0 20.5 -8t37 -22.5t20.5 -22.5q0 -27 -32 -59.5t-46 -45.5q-41 -6 -145.5 -16t-222 -22.5t-221 -26t-146.5 -15.5h-17q-16 0 -35.5 9.5t-37 25t-30.5 34t-13 36.5z" />
<glyph unicode="." horiz-adv-x="307" d="M55 141q0 10 11.5 25.5t28 31t34.5 24.5t31 9q68 0 87 -31.5t19 -82.5q0 -47 -17.5 -83t-74.5 -36q-55 0 -87 48t-32 95z" />
<glyph unicode="/" horiz-adv-x="544" d="M25 78q0 25 7 55.5t15 60t17.5 55t15.5 38.5l420 975q16 37 38.5 46t53.5 9q39 0 66.5 -21.5t27.5 -62.5v-16q0 -8 -4 -9l-549 -1183q-16 -27 -39 -27q-31 0 -50 24.5t-19 55.5z" />
<glyph unicode="0" horiz-adv-x="1044" d="M27 489q0 207 73.5 413t165.5 388q0 4 9.5 13.5t15.5 13.5q27 16 37 44t19 53.5t27.5 44t63.5 18.5t107.5 -12.5t123 -36t115 -58.5t96.5 -123t62.5 -151.5t41 -146.5t21.5 -171t-15.5 -184t-49.5 -193.5t-83 -188.5t-114.5 -163t-145.5 -115t-193.5 -43t-190.5 53.5 t-119 138.5t-54 191t-13 215zM211 403q0 -49 2 -103t19.5 -97t53.5 -72t127 -29t176 62.5t143.5 158t86 209t15 268t-24.5 204t-44 126t-89.5 108.5t-126 13.5t-102 -43t-99 -154.5t-101.5 -296.5t-36 -354.5z" />
<glyph unicode="1" horiz-adv-x="331" d="M27 1329q0 39 15 53.5t50 14.5q33 0 58.5 -19.5t44 -47t30 -59.5t13.5 -61v-67v-117v-117v-65q0 -14 4 -56.5t10 -98.5t11 -119.5t10.5 -119t9.5 -98.5t8 -57v-158v-155q-6 -23 -28.5 -26t-39.5 -3q-33 0 -64.5 12t-54.5 43q-47 317 -62 660.5t-15 660.5z" />
<glyph unicode="2" horiz-adv-x="1177" d="M25 868q0 80 70.5 164t170 153.5t207 113.5t167.5 44t92 -19t50.5 -50t27.5 -69t9 -105.5t-27.5 -160.5t-70.5 -181t-94.5 -174t-87 -148.5t-39.5 -66.5q0 -4 3 -11.5t3 -9.5q88 0 167 40t156.5 90t153.5 90t136.5 40t90 -5t29.5 -52q0 -39 -19.5 -58.5t-101.5 -65.5 t-143.5 -79t-131 -70.5t-132 -71.5t-157.5 -87t-150.5 -86t-130 -25t-94 22.5t-33 32.5t-13.5 41q0 8 11.5 39t15.5 41q68 102 148.5 212t153.5 225.5t122 240.5t49 203t-16.5 86t-84 8t-145.5 -57.5t-127 -125t-78.5 -126.5t-48.5 -62q-37 -6 -72.5 18.5t-35.5 61.5z" />
<glyph unicode="3" horiz-adv-x="1003" d="M25 70q0 43 20.5 81.5t71.5 38.5q20 0 37.5 -8t31 -19t28.5 -19.5t36 -8.5q66 0 156 23.5t169.5 69.5t135 110.5t55.5 150.5q0 88 -39 143.5t-135 55.5q-33 0 -73 -16.5t-70 -36.5q-14 -8 -47 -31.5t-71 -48.5t-73 -46.5t-45 -29.5q-6 -4 -16 -4h-13q-47 0 -64.5 16.5 t-17.5 63.5q0 55 39 101t98.5 86t128 82t128 88t98.5 103.5t39 131.5q0 39 -12.5 53t-51.5 14q-55 0 -96 -25.5t-79 -55t-73.5 -55t-82.5 -25.5q-25 0 -53.5 26.5t-24.5 53.5q12 53 61 101t115.5 84t133.5 58.5t110 22.5q125 0 182 -79t57 -187q0 -49 -17.5 -88t-38 -68 t-36.5 -51.5t-16 -40.5q0 -25 41 -51.5t91 -66.5t92 -95.5t42 -136.5q0 -156 -79 -262.5t-198.5 -171t-260 -94.5t-267.5 -30h-92q-39 14 -47 38t-8 55z" />
<glyph unicode="4" horiz-adv-x="1136" d="M31 773q6 73 16 147.5t25.5 153.5t36.5 175q4 25 25.5 27t37.5 2q33 0 52.5 -15.5t28.5 -40t11 -126t-12 -209t-14 -193.5t34.5 -94t78.5 -8t83 3t75 13t63.5 32t33.5 56q0 25 2 76t5 116.5t6.5 137.5t5.5 136.5t6 146.5t10 118.5t19.5 67.5t39 51.5t66.5 20.5 q45 0 62.5 -10.5t17.5 -57.5q0 -45 -11.5 -72.5t-27.5 -84t-17.5 -87t-1.5 -122t2.5 -181.5t28.5 -202h10h15q10 2 36.5 9t55.5 15t55.5 16.5t36.5 10.5q45 -27 62.5 -45.5t17.5 -55.5q0 -47 -24.5 -73.5t-63.5 -39t-83 -19.5t-83 -14t-63.5 -22.5t-24.5 -44.5v-501 q0 -4 -20.5 -23.5t-34.5 -28.5h-11q-10 0 -28.5 2.5t-40 8.5t-36.5 16t-15 25v395l-27 25q-72 -12 -124 -19.5t-103.5 -7.5t-93.5 8t-81.5 24.5t-71.5 42t-43 136t-5 183.5z" />
<glyph unicode="5" horiz-adv-x="954" d="M25 718.5q0 65.5 12 124t26.5 117t27.5 118t18 120.5q16 33 52 54.5t79 40t86 39t622 313.5q2 0 16.5 2t20.5 2q68 0 97.5 -32t29.5 -97q0 -96 -74.5 -132t-167.5 -6l-553 -262q-33 -16 -50 -54t-24 -82t-6 -146.5t1 -112.5q78 -8 193.5 -19.5t226 -45t189.5 -98 t61.5 -195.5t-116 -198t-187.5 -104.5t-186 -66.5t-206 -64h-14q-55 0 -88 25t-33 80q0 35 45 57.5t112.5 42t146.5 37t147.5 46t156.5 100t17.5 115.5t-133 64.5t-131 16.5t-132 -4t-145.5 11.5t-109.5 69.5t-27.5 123.5z" />
<glyph unicode="6" horiz-adv-x="1017" d="M25 475q0 6 213 789q12 39 32.5 60.5t59.5 21.5q49 0 65.5 -29t28.5 -78q-31 -80 -69 -178t-69.5 -204.5t-53 -213t-21.5 -177.5t24.5 -111t65.5 -40t62.5 19.5t35 47.5t93 128t138 162.5t111 118t106.5 69.5t77.5 -9.5t35 -58t14.5 -74.5t3 -115t-41 -161t-106.5 -152.5 t-151.5 -121.5t-178 -113q4 -8 4 -24q0 -14 -4 -30.5t-11.5 -32t-13.5 -17.5q-2 -4 -22.5 -5t-34.5 -1q-45 0 -65.5 7t-33 22.5t-22.5 41t-31 64.5q-78 68 -117.5 101.5t-66.5 73.5t-42 93t-15 127zM580 338q27 0 70.5 37t84.5 84t67.5 90t12.5 57l-24 27q-6 -6 -27 -26.5 t-27 -26.5q-16 -20 -43.5 -56.5t-113.5 -185.5z" />
<glyph unicode="7" horiz-adv-x="907" d="M-61.5 1236q-8.5 52 62.5 84t352.5 84t334.5 42t93 -36t64.5 -70t22.5 -116.5t-64.5 -213t-144 -424t-112.5 -578.5q-12 -39 -36 -47t-54 -8q-31 0 -54.5 8t-37.5 47q-2 14 29.5 192.5t48 238t37 135t44 158.5t45 158t42 204t17.5 142t-11.5 24.5t-51.5 11.5 t-106.5 -16.5t-126 -37t-126 -38t-108.5 -17.5t-72.5 2t-53 10.5t-34 60.5z" />
<glyph unicode="8" horiz-adv-x="884" d="M20.5 1133q-18.5 84 11 127t69.5 77.5t135.5 55t149.5 6t117.5 -14.5t119 15.5t110.5 15.5t84 -21.5t2.5 -126t-111.5 -216t-124 -158.5t-63.5 -83t-20.5 -54q12 -66 59 -114t99.5 -95t92.5 -100.5t40 -127t-64.5 -134t-152 -103.5t-176.5 -66.5t-129 -23.5t-71.5 11 t-59 31.5t-44 49.5t-16.5 66q0 6 160 499v53q-80 104 -139.5 225.5t-78 205.5zM211 1137q0 -16 16.5 -55.5t40 -81.5t51 -74.5t50.5 -38.5q29 -8 62.5 23.5t61 78.5t45 93t17.5 69q0 20 -17.5 39.5t-42 34t-73.5 22.5t-79 0t-60.5 -22.5t-51 -37.5t-20.5 -50zM259 241.5 q-1 -12.5 1 -27.5t76 -11t110.5 29.5t64.5 58.5t30 59.5t-16.5 54t-41 52t-48 44t-54.5 19.5q-2 0 -6 -2t-6 -2q-29 -41 -49.5 -71.5t-33 -59.5t-19.5 -59.5t-7 -67.5q0 -4 -1 -16.5z" />
<glyph unicode="9" horiz-adv-x="1044" d="M25 749.5q0 49.5 27.5 139.5t74.5 185t111.5 186.5t139.5 165t155.5 117.5t145 44t113 -38t90.5 -91t72.5 -112.5t40 -144.5t9.5 -144.5v-203.5t-15.5 -298t-15.5 -263.5t15.5 -142t15.5 -77.5q0 -33 -8.5 -68t-27 -65.5t-46 -49t-66.5 -18.5q-55 0 -73.5 32t-18.5 81 q0 137 12 274t27.5 275.5t28 275.5t12.5 274h-25q-59 -80 -121.5 -172t-138.5 -170.5t-167 -132t-165.5 -53.5t-103.5 17.5t-51.5 42t-34.5 55t-12 80zM234.5 857q-23.5 -69 22.5 -88t131 41t155.5 147t127 180.5t95.5 156.5q0 4 1 19.5t1 21.5q0 39 -23.5 79t-70.5 40 q-41 0 -90 -41t-100.5 -106.5t-101.5 -145.5t-87 -157.5t-60.5 -146.5z" />
<glyph unicode=":" horiz-adv-x="346" d="M31 758q0 20 6 33.5t74.5 25.5t100.5 -10.5t32 -77.5t-20.5 -86t-73 -31t-86 45.5t-33.5 100.5zM128 232.5q-1 64.5 6 86t20.5 37t52.5 15.5t73.5 -43t34.5 -93.5t-63.5 -78t-79.5 -21t-39 22.5q-4 10 -5 74.5z" />
<glyph unicode=";" horiz-adv-x="342" d="M-31 -268q0 6 2 14q35 86 62.5 147.5t45 121t25 125t6.5 126t58 60.5t88 -33t43 -79t16 -95t-34.5 -138.5t-82.5 -155t-94.5 -115.5t-78.5 -42q-6 2 -27 21.5t-24 25.5t-4 10.5t-1 6.5zM90 805q0 41 36 62.5t79 21.5t59.5 -35t16.5 -78t-19.5 -59.5t-62.5 -16.5t-76 33 t-33 72z" />
<glyph unicode="&#x3c;" horiz-adv-x="1187" d="M27 453q0 53 33.5 96t80.5 78t95.5 63.5t80.5 52.5q23 20 79.5 68.5t119 103t117.5 102.5t78 70q25 20 45 23.5t49 3.5q39 0 52 -15.5t13 -54.5v-38q-72 -88 -135 -144.5t-129.5 -106.5t-142.5 -99.5t-172 -120.5q-33 -27 -44 -37.5t-11 -40.5q0 -53 59 -72.5t150.5 -21 t202 4t214 -2t183 -33t114.5 -88.5q-53 -53 -121.5 -60.5t-166 -15.5t-200 -16.5t-171.5 -14.5h-13q-63 0 -142 21.5t-149.5 62.5t-119.5 99.5t-49 132.5z" />
<glyph unicode="=" horiz-adv-x="950" d="M25 799q0 31 12 47t106.5 52t251 61.5t267 25.5t174 -21.5t6 -90t-182 -71.5t-225 -30t-144.5 -39t-112.5 -25.5t-110.5 19.5t-42 72zM158 354q0 23 4 39.5t22 38.5q82 2 161 14.5t157 26.5t156.5 26.5t130 12.5t79 -3t27.5 -38q0 -45 -59.5 -91t-138.5 -82t-161.5 -57.5 t-120.5 -21.5t-83 4t-83 17.5t-64.5 40t-26.5 73.5z" />
<glyph unicode="&#x3e;" horiz-adv-x="1263" d="M-57 1167q0 31 21.5 48.5t53 28.5t63.5 14.5t52 3.5q39 0 55.5 -15.5t47.5 -66.5q25 -12 87 -43t133.5 -64t135 -62.5t88.5 -39.5q55 -23 129 -40.5t148.5 -41t140 -61t110.5 -95.5q6 -6 15.5 -26.5t9.5 -26.5q0 -14 -66.5 -73.5t-169 -140.5t-223.5 -174t-229.5 -170 t-188.5 -128t-98 -51q-39 0 -60.5 28.5t-21.5 67.5t41 84t105.5 95t143.5 102.5t154.5 105.5t141 103.5t104.5 97.5q0 4 1 8t1 6q0 16 -59 47t-152.5 74t-204 91t-214 100.5t-183.5 103.5t-110 98z" />
<glyph unicode="?" horiz-adv-x="923" d="M0 1393q18 39 57 57t85 23.5t91.5 4.5t102.5 -1t157.5 -4.5t190.5 -34t150.5 -93t60.5 -147.5t-34 -125t-85 -74.5t-140 -83t-180 -107.5t-177 -124t-146 -131h-14q-27 0 -44.5 31t-21.5 49q55 125 151.5 197.5t192 126t197.5 125t78.5 154.5t-568.5 42zM287 111 q0 104 108 104q33 0 71 -9t69.5 -28.5t52 -47.5t20.5 -64q0 -39 -20.5 -65t-59.5 -26t-80.5 4.5t-77.5 17.5t-59.5 40t-23.5 74z" />
<glyph unicode="@" horiz-adv-x="1740" d="M25 498q0 141 44 298.5t121.5 311.5t187 292t237.5 242.5t274.5 167t269.5 62.5t216 -33t168 -94.5t122 -147.5t47 -175t-29.5 -179t-79 -173t-117 -150.5t-132 -94t-90 -35t-49 -15.5t-29.5 -9q-10 -8 -45 -43t-75 -76t-99.5 -98t-80 -73.5t-40 -32t-27.5 -20.5 t-29.5 -16.5t-81 -11.5t-135 55.5t-75.5 137.5t4 99.5t79.5 122.5t126 173t212 210t215 147.5t90.5 -31.5t62.5 -83t46 -83t48.5 -37h15q41 33 64.5 62.5t32.5 61.5t11 67.5t2 93t-18.5 120t-55 108.5t-94 70.5t-161 24.5t-227.5 -52t-234.5 -141t-203.5 -206t-160.5 -246 t-104.5 -263t-37 -233.5t9 -155t34 -97t135.5 -89t297.5 -49.5t420.5 64.5t446.5 177.5h88q0 -47 -41.5 -93t-109.5 -87t-148.5 -78t-161.5 -64.5t-149.5 -46t-207 -42t-327 18.5t-292 110.5t-142 160t-38.5 195.5zM682 633q0 -18 10 -36.5t33 -18.5q2 0 6 1t6 1 q70 66 125.5 113.5t91 97t55 111t19.5 151.5v28q-14 -14 -48 -47t-72 -70.5t-72.5 -72.5t-44.5 -47q-31 -37 -70 -93.5t-39 -117.5z" />
<glyph unicode="A" horiz-adv-x="1202" d="M49 94q0 70 19.5 137.5t46 135t87 273.5t76 269.5t30 120.5t31.5 133t40.5 172.5t59.5 191.5t83 167.5t115 72.5t103.5 -49t73.5 -329.5t50.5 -364.5t30.5 -205l53 -53h185q27 0 27.5 -27.5t0.5 -38.5q0 -47 -27.5 -62t-63.5 -22.5t-70.5 -16.5t-51.5 -46q0 -10 -1 -51 t-1 -53q0 -53 2 -94.5t12.5 -83.5t27 -88t40.5 -103q-4 -6 -25.5 -26.5t-25.5 -26.5h-14q-20 0 -53 15t-40 38l-104 395q-2 0 -21.5 2t-31.5 2q-94 0 -187.5 -17.5t-183.5 -37.5q-12 -10 -25.5 -28.5t-23.5 -40t-17.5 -41t-9.5 -23.5q-6 -16 -17 -57t-23.5 -87.5t-25 -87.5 t-16.5 -57q-18 -12 -30.5 -19.5t-34.5 -7.5q-18 0 -32 7.5t-32 19.5q-2 12 -4 46t-2 46zM371 633q25 -25 52.5 -21t66 12.5t78.5 18.5t65 19q12 2 29.5 10t34 20.5t28.5 27.5t12 30v16q-4 33 -19.5 120t-31.5 182t-31.5 182t-21.5 122q-2 0 -6 1t-9 1q-33 0 -57 -54 t-42.5 -120.5t-48.5 -194.5t-47 -187.5t-31.5 -112t-20.5 -72.5z" />
<glyph unicode="B" horiz-adv-x="1261" d="M-139 1143q4 10 24.5 43t49 78t62.5 93t61.5 88t66.5 93q2 0 14.5 -4t24.5 -9t25.5 -10.5t15.5 -5.5h55q154 25 204 41.5t130 20.5t156 6h12q68 1 108 -21q43 -24 79 -108q4 -10 4 -25q0 -106 -224 -438q166 -43 282.5 -123t169 -139t52.5 -151.5t-80 -202t-196.5 -195.5 t-246.5 -139q-121 -49 -226 -49h-16q-112 4 -312 170q-31 111 -39 164t-18.5 108t-18.5 110.5t-8 102.5q0 33 14 56.5t14 58.5q0 20 -3 88.5t-10 140.5t-20.5 128t-33.5 56q-16 0 -29.5 -8t-28 -19.5t-28 -19.5t-33.5 -8q-16 0 -31.5 3t-21.5 26zM228 1025v-15q0 -33 4 -64 q4 -39 17 -66.5t46 -27.5q43 0 126 60.5t163 146.5t140 174q58 85 58 136q0 55 -88 61q-43 3 -76 3q-32 1 -54 -3q-44 -6 -87 -18.5t-89 -33t-105 -51.5q-37 -49 -45.5 -112.5t-8.5 -124.5q0 -25 -1 -65zM257 496q5 -138 30.5 -191t46 -73.5t44 -39t98.5 -22.5h15 q69 0 155 32q95 36 185.5 94t154 129t76.5 139q2 9 2 19q0 59 -73 113q-84 62 -168.5 82.5t-117.5 20.5t-101.5 -16.5t-141.5 -44.5q-74 -29 -142 -67q-64 -35 -63 -157v-18z" />
<glyph unicode="C" horiz-adv-x="1265" d="M25 301v22q1 165 29 295q30 138 70 246.5t124 266t179 246.5t177 95q14 1 27 2q63 0 101 -27q46 -32 46 -77q0 -16 -27.5 -21.5t-62.5 -10.5t-109.5 -33.5t-152.5 -154.5t-131 -233.5t-85 -242.5q-29 -123 -29 -241v-22q3 -129 84 -187q72 -52 213 -52q17 0 35 1 q167 7 276.5 55t158.5 106.5t89 127t70 127t46 97.5t18 39q51 0 59.5 -40t8.5 -75q0 -160 -71.5 -273.5t-186.5 -185t-256 -104.5t-239.5 -33t-172 17.5t-138 52.5t-107.5 89t-43 128z" />
<glyph unicode="D" horiz-adv-x="1193" d="M-190 1311q-4 10 7 29.5t19 25.5q78 18 125 18t84 3.5t78 18.5t106 64h15q25 0 40 -16t26.5 -38.5t23.5 -44t28 -34.5q119 -20 257.5 -66t257 -122t197.5 -184.5t79 -228.5t-47 -214t-125 -177t-177 -151.5t-205.5 -119.5t-210 -79t-185.5 -28q-55 0 -94 15.5t-39 78.5 q0 51 24.5 66.5t56 20t56 14.5t24.5 53q0 6 -1 22.5t-1 22.5q-2 53 -10 156.5t-17 212t-21.5 253t-20.5 191.5t-23.5 87t-36.5 46l-239 51q-8 4 -28.5 25t-22.5 29zM333 1083.5q1 -14.5 1 -16.5q0 -53 3 -138t8 -184.5t12.5 -200t15.5 -181t19 -132t22 -51.5q76 0 167 55.5 t173 138.5t135 177t53 174t-53 144.5t-128 113.5t-191.5 99.5t-156.5 60.5t-51 10q-14 0 -21 -12.5t-8 -27.5t0 -29.5z" />
<glyph unicode="E" horiz-adv-x="1073" d="M27 268l82 764q2 18 57 55t127 78t146.5 77t161.5 73t206 83t189 51q27 2 46 2q30 0 44 -5q22 -8 22 -57q0 -51 -33 -73t-80 -33t-197.5 -74.5t-230.5 -109.5t-150.5 -88t-99.5 -61q-16 -4 -25 -23.5t-15.5 -42t-8.5 -40t-2 -23.5t9.5 -17t15.5 -11q145 51 305 96 q153 43 269 43h11q120 -2 125 -6l52 -52l-52 -53q-379 -80 -710 -262q-51 -37 -53 -92q-1 -28 -1 -84.5t1 -142.5q14 -47 45.5 -51.5t94 -4.5t150.5 38t160 83t118 84t50 39q35 0 39 -28.5t4 -51.5q0 -88 -58.5 -157.5t-141.5 -116.5t-177 -72t-154.5 -25t-120 23 t-110.5 61.5t-83 90.5q-28 47 -27 102v14z" />
<glyph unicode="F" d="M27 1133q0 82 13 117.5t34.5 48t56.5 15.5t82 19q2 2 36 29t122 63.5t151 56.5q62 20 224 42q118 16 165 16q18 0 25 -2q29 -8 48.5 -27.5t19.5 -58.5q0 -16 -1.5 -38.5t-25.5 -29.5q-20 -2 -68.5 -9t-103.5 -15t-140 -23.5t-154 -32t-129 -45t-102 -72.5t-42 -114 q0 -23 -1 -55v-22q0 -20 1 -42q2 -32 15 -59t38 -35q152 55 318.5 107.5t267 52.5t140.5 -10q19 -5 19 -21q0 -18 -22 -49q-43 -61 -134.5 -90t-186.5 -53.5t-191 -56t-226 -117.5l7 -582q0 -4 -26 -23.5t-38 -27.5q-4 0 -8 -2t-6 -2q-31 0 -58.5 41.5t-33.5 66.5 q2 75 2 163q-1 124 -5 273q-8 254 -30 435q-2 14 -10.5 36.5t-18.5 47t-17 46t-7 38.5z" />
<glyph unicode="G" horiz-adv-x="1202" d="M25 362q0 49 14 140.5t42 198t88 261t110.5 244.5t110 148.5t124 58.5t114.5 -30.5t86 -79t53 -106.5t17 -116q0 -8 -1 -34.5t-1 -32.5q-37 -27 -65 -27q-51 0 -64.5 41t-21.5 91t-25 92q-15 40 -69 40h-5q-59 -2 -124.5 -129t-138 -311t-79.5 -312q-4 -60 -4 -107 q0 -54 4 -92q9 -71 46.5 -110.5t97.5 -55.5q27 -6 62 -6q47 0 110 12q110 20 224 73t127 98q4 12 4 24q0 31 -25 59q-35 38 -83 62.5t-99.5 37t-86.5 12.5q-51 0 -99 -15.5t-96 -15.5t-66.5 11.5t-18.5 58.5q0 23 55 54.5t140 64t187.5 66.5t194.5 59.5t163 41t95 15.5 q31 0 35 -22.5t4 -43.5q0 -51 -37 -74.5t-90 -37t-105 -24.5t-85 -34q0 -2 -2 -6t-2 -6q0 -14 30.5 -46t66.5 -79t66.5 -105.5t30.5 -130t-84 -124t-199.5 -83t-228 -42t-187.5 -11.5t-138.5 32t-101.5 86.5t-54 122.5t-16 144z" />
<glyph unicode="H" horiz-adv-x="1382" d="M-29 457q4 10 23.5 26.5t41 34t43 29.5t25.5 14q0 25 4.5 92.5t8.5 142t8 142.5t4 96q0 14 -5 70q-3 35 -3 73q0 23 1 45q3 60 18.5 109t62.5 49h16q16 0 33.5 -3t33 -10t15.5 -17v-764q29 -19 62 -19q11 1 23 3q46 8 109.5 20t129 26.5t110.5 22.5q8 2 33 9t52.5 16.5 t50 23.5t22.5 31l53 711q2 47 22.5 51t55.5 4q29 0 54.5 -4t25.5 -51v-656q39 0 71.5 12.5t71.5 12.5q51 0 72.5 -32t21.5 -77q0 -66 -42 -78t-91 -16t-91 -16.5t-42 -79.5q0 -72 14.5 -142.5t14.5 -142.5q0 -27 -2 -58.5t-10.5 -59t-25.5 -46t-54 -18.5q-14 0 -39 2t-27 26 l-53 396q-2 16 -13.5 20t-25.5 4q-47 0 -114.5 -11t-141.5 -24.5t-141.5 -26.5t-116.5 -16l-25 -26q-2 -4 -1 -25.5t5.5 -51.5t9.5 -58.5t11 -48.5q0 -4 8 -19.5t18.5 -32t18.5 -33t8 -20.5q0 -2 1 -12t1 -15q0 -20 -12 -39.5t-30.5 -33t-39 -23.5t-39.5 -10q-25 0 -42 30.5 t-21 51.5q-6 16 -17.5 56t-23.5 85t-24.5 87.5t-16.5 58.5q-8 16 -37 27t-57.5 23.5t-50 31t-13.5 51.5z" />
<glyph unicode="I" horiz-adv-x="1406" d="M-55 1036q0 47 73.5 105.5t186 119t253 119t271.5 102.5t287 72q95 17 158 16q40 0 68 -6q71 -18 98.5 -39.5t27.5 -80.5q0 -106 -106 -107q-29 0 -49.5 10.5t-38.5 19.5q-20 9 -40 19q-8 4 -26 5q-29 -1 -85 -11q-91 -16 -166 -43.5t-135 -68.5t-67 -84q0 -16 -1 -220 v-184v-143q1 -123 26 -268q6 0 14 -2t15 -2q59 0 117.5 22.5t117.5 46.5q60 26 122 48q53 19 127 19q13 0 27 -1q85 -4 84 -64v-10q-8 -70 -86.5 -91.5t-214 -88t-269.5 -133t-263 -117.5t-194.5 -51t-93 11t-53.5 30.5t-42 43t-16 48.5q0 59 47 77.5t109.5 26.5t124 19.5 t91.5 60.5q23 199 38.5 405.5t15.5 317.5t-1 142.5t-38 31.5q-66 0 -117 -29.5t-100 -65.5t-98.5 -64.5t-106.5 -28.5q-31 0 -61.5 13t-30.5 52z" />
<glyph unicode="J" horiz-adv-x="1359" d="M25 520q0 90 94 90q33 0 56.5 -32.5t44 -83t44 -109.5t58 -108.5t82 -83t144.5 -33.5t162.5 65.5t96.5 160.5t35 202q3 86 3 207v62q-1 161 -1 175q-6 20 -26.5 23.5t-41.5 3.5q-63 0 -124.5 -17.5t-123 -39t-124.5 -38.5q-29 -7 -65 -7q-40 0 -89 9q-92 19 -92 59 t24.5 56.5t121.5 49t172 58t142.5 47t92.5 30.5q6 6 20 21.5t31.5 31.5t33 31.5t19.5 21.5q8 4 27.5 15.5t25.5 11.5q2 0 14.5 -4t26 -8.5t25.5 -9.5t14 -5h41h39q515 186 629 186q20 0 27 -6q48 -32 48 -85v-15q-8 -63 -68 -78.5t-97 -24t-163 -51.5t-188.5 -67.5 t-110.5 -46t-52 -23.5l-25 -24q1 -70 1 -134q0 -500 -42 -644q-47 -162 -118.5 -232t-165 -111t-182.5 -41t-176 55.5t-157.5 137.5t-116.5 177t-46 175z" />
<glyph unicode="K" horiz-adv-x="1359" d="M25 80q0 57 7 106.5t23 112.5q-2 125 -5 273q-2 74 -2 151t2 155q3 158 9.5 313t20.5 292q16 33 32.5 44t47.5 11q23 0 50.5 -11t27.5 -44v-834q31 0 65.5 26.5t66 62.5t108.5 143.5t116 166t75 108.5t44 63q14 23 21 25.5t30 2.5q41 0 73.5 -23.5t32.5 -70.5v-14 q-14 -16 -43.5 -56.5t-63.5 -86.5t-123 -158.5t-134 -166t-79 -104.5t-34 -86q0 -2 1 -12t1 -12q53 -8 91 -14.5t73 -8.5l70 -4t122 -2t213 27.5t216 27.5t115.5 -29.5t25.5 -71.5t-6 -69.5t-87 -48t-209 -35t-258 -18.5q-74 -2 -147 -2q-55 0 -109 1q-126 3 -239 9 q-30 -30 -30 -71l2 -93q0 -41 -16.5 -71.5t-78.5 -30.5q-55 0 -86.5 37t-31.5 90z" />
<glyph unicode="L" horiz-adv-x="1255" d="M29 1360q0 39 34.5 55.5t79.5 16.5t79 -31t41 -244q2 -65 2 -128q0 -143 -11 -277q-16 -192 -20 -304q-2 -49 -1 -82q1 -42 3 -58q4 -28 18 -49t50 -21t71 12t66.5 28.5t66.5 34t138.5 54t183 61.5t150.5 45.5t130 25.5q27 2 46 2q24 0 36 -3q16 -4 15 -31q0 -13 -3 -29 q-10 -54 -462 -257q-418 -189 -503 -189q-7 0 -11 2q-64 16 -96 44t-54 60q-19 28 -20 834q0 143 1 311q-16 31 -23 54.5t-7 62.5z" />
<glyph unicode="M" horiz-adv-x="1413" d="M56 484q16 500 27 613t39 119.5t79 6.5t96 -71t80 -177.5t62.5 -229t58 -229t70.5 -177.5t102 -71q96 0 148 72t82 181.5t40 236.5t25.5 236.5t43 181t70.5 71.5t67.5 -16.5t44 -40t32 -51t16.5 -52.5q135 -983 135 -993q-29 -111 -46 -125t-48 -14q-47 0 -78 33.5 t-43 72.5q0 20 -3 78t-7 120.5t-14.5 153.5t-29 144t-24.5 57q-41 -61 -63.5 -159.5t-51 -192.5t-82 -161.5t-159.5 -67.5q-90 0 -153.5 46t-110.5 113.5t-81 144.5t-63 144q-2 2 -14 2q-18 0 -27.5 -17t-24.5 -222t-32 -237q-14 -28 -78 -28q-9 1 -19 1q-68 4 -68 357 q0 67 2 147z" />
<glyph unicode="N" horiz-adv-x="1161" d="M25 168q0 209 16 426t39 424q16 39 36.5 47t51.5 8q70 0 128 -52t111.5 -131t106.5 -171t106.5 -170t112 -131t127.5 -53q0 170 -8 324.5t-8 257t9 168t34.5 127t65.5 104.5t88.5 43t56.5 -28q3 -11 3 -26q1 -24 -7 -59q-12 -58 -40 -114q-23 -48 -24 -126q0 -14 1 -30 q5 -100 12.5 -216t16.5 -224.5t24.5 -215t45.5 -225.5q0 -4 1.5 -9t1.5 -7q0 -39 -34 -66t-71 -27q-74 0 -145.5 40t-141 103.5t-134 141.5t-126 153.5t-115 142.5t-100.5 105q2 -68 3 -150v-83.5v-86.5q-1 -89 -8 -176t-23 -161q-14 -39 -38 -47t-53 -8q-39 0 -62.5 17.5 t-35.5 44t-18 58t-6 58.5z" />
<glyph unicode="O" horiz-adv-x="1083" d="M25 418q0 35 18 115.5t48 180t71 203t87 189.5t97 141.5t103 55.5q2 0 18 -4.5t34.5 -8.5t34 -8t17.5 -4q6 0 29.5 8t51.5 17.5t130 19.5q13 1 26 1q84 0 136 -58q60 -68 88 -162t35.5 -195.5t7.5 -206t-39 -245t-117 -251t-196.5 -179t-246.5 -68.5t-205 37t-128 100.5 t-75.5 146.5t-24.5 175zM184 449q0 -84 14.5 -137.5t47.5 -86t87 -45t152.5 -12.5t181.5 57.5t134 146.5t72.5 197.5t21.5 183t-4 142.5t-24.5 130t-60.5 106.5t-100.5 44.5t-121 -42t-116.5 -109t-107.5 -147.5t-90.5 -162.5t-62.5 -152.5t-23.5 -113.5z" />
<glyph unicode="P" horiz-adv-x="1294" d="M0 879q0 109 87 215t210 190t256 137.5t214 53.5t167 -38t159.5 -97.5t123 -135.5t49.5 -167t-53.5 -168.5t-136.5 -136t-180 -98.5t-183 -68.5t-145.5 -51t-67.5 -41.5q0 -12 -1 -48t-1 -46q0 -84 15 -167t15 -165q0 -41 -31.5 -72.5t-72.5 -31.5q-12 0 -37 8 t-49.5 20.5t-43 25.5t-18.5 28q-8 879 -15 900t-14 41.5t-9 30.5q-2 6 -12.5 16.5t-14.5 12.5q-47 -14 -51 -53q-3 -31 -3 -64v-16v-7q1 -37 -9 -68q-10 -34 -68 -34q-33 0 -56.5 31t-23.5 64zM449 1143q8 -184 12 -250t8 -125t4 -86h1q14 0 142 26q136 28 218 80 q80 52 140 118q48 53 49 114q0 14 -3 30q-14 78 -40 111t-57.5 60.5t-67.5 46.5q-37 20 -103 30q-10 2 -21 2q-61 0 -155 -50q-110 -58 -127 -66v-41z" />
<glyph unicode="Q" horiz-adv-x="1161" d="M27 578q0 123 29.5 249.5t86 249.5t141.5 226.5t191 183.5q31 -6 56 -6q21 0 39 4q40 8 78 19.5t77 19.5t95.5 8t110.5 -38t94 -99.5t71 -210.5q18 -82 18 -186q0 -87 -12 -191q-27 -227 -39 -290.5t-23 -135.5q10 -82 39 -165t29 -171q0 -39 -10.5 -56.5t-57.5 -17.5 q-43 0 -71.5 19.5t-45 43t-26.5 42t-14 18.5q-35 0 -77 -20.5t-91 -50t-104.5 -53t-150.5 -23.5t-183.5 63.5t-143.5 160.5t-80.5 207t-25.5 200zM207 586q0 -70 16.5 -149t55 -146.5t102 -110.5t130.5 -43t115 17.5t91 46t72.5 65.5t29.5 76q0 76 -30.5 136.5t-65.5 118.5 t-65.5 117.5t-30.5 103.5t10 69.5t31.5 30t51.5 -14t55.5 -46.5t55 -56.5t84.5 -126.5q43 207 43 337q0 61 -10 106q-30 138 -70 197.5t-120 59.5q0 -20 8 -36.5t16.5 -32t16.5 -33t8 -39.5q-47 0 -83 22.5t-79 22.5q-39 0 -64.5 -23.5t-45 -53.5t-38 -57.5t-48.5 -35.5 q-6 -2 -21.5 -6t-33 -7t-33 -5.5t-19.5 -6.5q-29 -14 -54.5 -82.5t-43 -150.5t-27.5 -157.5t-10 -106.5z" />
<glyph unicode="R" horiz-adv-x="1609" d="M48 978q22 56 58.5 93t155.5 126t178.5 110.5t117.5 45t185 43.5q53 8 95 7q60 1 98 -15q66 -28 115 -76t79.5 -113.5t30.5 -153t-70.5 -175.5t-154.5 -158.5t-154.5 -122.5t-70.5 -83v-14q86 -12 189.5 -34t210 -39.5t213 -28.5t171 -15t75.5 -20.5t11 -47.5 q0 -49 -49 -76.5t-128 -27.5t-189.5 16.5t-220 36.5t-221 36.5t-222.5 16.5q-29 0 -50.5 -25.5t-25.5 -54.5q0 -15 -1 -47v-42v-62q1 -72 1 -86q-16 -31 -32.5 -43t-47.5 -12q-39 0 -66.5 36.5t-37.5 71.5q0 27 1 82t1 126t-1 272.5t-4 256t-7.5 93t-8.5 71.5t-6 47h-14 q-86 -78 -130 -94q-20 -7 -36 -7q-20 0 -33.5 10.5t-13.5 31.5q-1 18 9 44zM470 764q3 -59 15.5 -108.5t42.5 -57.5q51 35 125 81t140.5 101.5t111.5 123t45 197.5q0 126 -143 126h-9q-152 -4 -194.5 -15.5t-77 -32t-51.5 -57.5q0 -8 -2 -57q-4 -161 -4 -241q0 -40 1 -60z " />
<glyph unicode="S" horiz-adv-x="1146" d="M-29 1075q0 117 66.5 191.5t158 129t233.5 84.5q102 22 152 23q20 0 31 -4q41 -12 74 -36.5t55.5 -58.5t22.5 -70v-58.5t-6 -43t-17.5 -32.5t-29.5 -12q-31 0 -50.5 19.5t-39 45t-41.5 45.5q-12 11 -44 12q-28 0 -71 -8q-94 -18 -142.5 -49.5t-82 -78t-33.5 -122t90 -128 t252 -90t267.5 -48t185.5 -50.5q78 -40 92 -79q13 -36 13 -98v-9q-1 -68 -75 -183t-268 -244q-182 -121 -357 -121q-12 0 -24 1q-186 9 -230 32.5t-74 62.5t-30 105q0 37 10.5 57.5t42.5 20.5q61 0 114 -32q54 -31 129 -51q21 -5 47 -6q68 0 174 38q146 52 225 148.5 t79 142.5t-66.5 61.5t-165.5 34t-217 43t-217.5 75.5t-166 137t-66.5 203z" />
<glyph unicode="T" horiz-adv-x="1298" d="M54 950q-10 23 -11 41q0 29 27 47q43 28 108.5 53t142 50.5t147.5 46t124 38t70 31.5q25 23 38 43.5t25 36t26.5 23.5t39.5 8q33 0 55 -13.5t49 -41.5q441 168 511 168q7 1 11 -1q35 -20 35 -82.5t-66.5 -95t-153.5 -56t-169 -47t-115 -71.5q0 -289 14 -537.5t15 -598.5 q0 -6 -11.5 -17.5t-17.5 -11.5t-25.5 11.5t-27.5 17.5q-12 8 -33.5 26.5t-39 35t-32 28.5t-14.5 14v875q0 55 -19.5 68.5t-54.5 13.5q-70 0 -136 -24.5t-137 -56.5t-147.5 -56.5t-139 -25t-88.5 59.5z" />
<glyph unicode="U" horiz-adv-x="1175" d="M25 891q0 57 1 105t6 97.5t10 102.5t13 121q6 20 21.5 23t32.5 3q29 0 44 -9t31 -44q-3 -71 -3 -148q0 -39 1 -79q2 -121 11.5 -242t21.5 -237.5t27.5 -184t40 -106.5t55.5 -69.5t68.5 -49t128 -18.5t184.5 61.5t150.5 158.5t82 217t25.5 210t-13.5 152.5t-29.5 122 t-28.5 118.5t-12.5 121q0 43 11 61.5t59 18.5q43 0 72.5 -38t49 -95.5t28.5 -127t13 -133t5.5 -111.5t1.5 -130t-34 -233.5t-109 -275.5t-192.5 -203t-288.5 -79t-269.5 92.5t-146.5 230.5t-58 298t-10 299z" />
<glyph unicode="V" horiz-adv-x="942" d="M-70 1180q0 43 26 49t58 6q57 0 108.5 -68.5t97.5 -171t90 -222.5t89 -222t94.5 -172t106.5 -70q10 0 14 4q8 49 19.5 104.5t165.5 971.5q0 2 12 16t28.5 30.5t35 33t28.5 24.5q0 2 12 2q33 0 51 -40q12 -26 13 -65q0 -22 -4 -46q-10 -70 -19.5 -114t-67 -416t-72.5 -507 t-19 -192.5t-22.5 -101.5t-65.5 -44q-51 0 -94.5 23.5t-81 58.5t-71.5 76t-97.5 138t-202.5 405.5t-157.5 333t-35 49t-28 54.5t-11.5 73z" />
<glyph unicode="W" horiz-adv-x="1609" d="M25 1264q0 33 24.5 56t59.5 23q39 0 59 -22.5t45 -58.5q25 -94 53.5 -203t65.5 -216.5t85 -210t111 -188.5q14 -16 19.5 -21t19.5 -5q2 0 6.5 1t6.5 1q4 23 15 73t23.5 111.5t25.5 131t27.5 132t36 155.5t35 112.5t31 34t41.5 14.5q47 0 91 -47t87 -122t82 -163t74 -174 t63.5 -155.5t51.5 -102.5q2 -2 14 -2q20 0 26.5 17.5t12.5 37.5q2 8 6 27.5t13.5 82t18.5 163t17 214t20.5 257t40 186.5t83.5 43q27 0 41 -23.5t19 -55.5t5 -139.5t-16.5 -248.5t-34.5 -283q-19 -142 -29 -282q-5 -70 -5 -141t5 -144q-6 -16 -22.5 -48t-42.5 -32 q-86 0 -157 53.5t-126 133t-99 171t-79 171t-63.5 133t-55.5 53.5q-10 0 -12 -4q-51 -158 -76 -324q-14 -90 -14 -180q0 -76 10 -152q-23 -33 -56.5 -57t-74.5 -24q-6 0 -14.5 1t-12.5 1q-63 45 -131.5 133t-132 201.5t-121 240.5t-102.5 250t-69.5 230.5t-24.5 183.5z" />
<glyph unicode="X" horiz-adv-x="1290" d="M0 -203q2 12 21.5 52t31.5 55q8 10 46 53t84 91t143.5 165t134.5 168t110 172q-365 393 -416 486.5t-51 168.5v11q8 14 28 33.5t26 19.5q14 0 51 -32t84 -82t102.5 -109.5t105.5 -115.5t195 -206q49 72 124 201t114 199.5t72.5 135t46.5 89.5q31 37 69.5 72.5t91.5 35.5 q39 0 59.5 -29.5t20.5 -66.5q0 -10 -2 -23.5t-4 -15.5q-2 -6 -17.5 -20.5t-33.5 -32t-34.5 -32.5t-18.5 -21q-6 -10 -30 -57.5t-50.5 -99.5t-114.5 -196.5t-153 -263.5q176 -170 227 -228.5t87 -122t36 -124.5q0 -16 -13.5 -35.5t-35 -36t-45 -29t-39.5 -18.5 q-57 41 -94 92.5t-72 105.5t-178 208q-156 -195 -202 -253.5t-86 -109.5t-60.5 -78.5t-34 -79t-32 -97.5t-54 -77.5t-105.5 -31.5q-18 0 -43.5 9t-47 23.5t-36 33.5t-8.5 44z" />
<glyph unicode="Y" horiz-adv-x="995" d="M-31 1313q0 39 34 54t63 15q47 0 102 -59t113.5 -147.5t115 -190.5t107.5 -191t94 -148.5t74 -59.5q2 0 10 4q90 223 111.5 323.5t47 214t49 215t32.5 142.5q12 53 31.5 80.5t74.5 27.5q53 0 66.5 -41t13.5 -82q0 -10 -1 -35.5t-3 -29.5l-422 -1579v-14q0 -18 13.5 -30.5 t29.5 -26t28.5 -27t12.5 -33.5q0 -45 -15.5 -102.5t-44 -105.5t-72.5 -80t-99 -32q-31 0 -45.5 17.5t-18.5 43t-2 53t2 50.5q0 76 13.5 150.5t28.5 149.5t28.5 149.5t13.5 152.5q0 16 -1 47t-3 33l-580 1077q0 4 -1 8.5t-1 6.5z" />
<glyph unicode="Z" horiz-adv-x="1374" d="M25 1151q0 51 27.5 74.5t80.5 29.5q10 2 57.5 5.5t99.5 7.5t99 8t60 6q33 8 111.5 33.5t166.5 54.5t166 55.5t108 38.5q4 4 13 4h14q68 0 103.5 -46t35.5 -105q0 -14 -3 -37t-3 -25l-790 -1079h53q115 0 213 42t189.5 93t184.5 92t199 41q23 0 46.5 -2t44 -10t33 -25.5 t12.5 -48.5q0 -25 -10.5 -45t-45.5 -30l-948 -344q-2 0 -20.5 -1t-26.5 -1q-80 0 -109.5 30.5t-29.5 106.5q0 92 51 187t128 193.5t166 193.5t165.5 185.5t128 174.5t51.5 155q0 4 -1 8.5t-1 6.5q-23 -8 -82.5 -24.5t-127 -33t-126.5 -31t-84 -16.5q-4 0 -20.5 -2t-37 -3 t-42.5 -1h-33q-15 0 -61 -3q-15 -1 -31 -1q-30 0 -60 4q-45 6 -79.5 23.5t-34.5 60.5z" />
<glyph unicode="[" horiz-adv-x="1150" d="M25 1460q0 66 55 107q78 4 148.5 20.5t141 35.5t142.5 34.5t150 15.5q20 0 47.5 -7t53 -19.5t42 -32t16.5 -47.5q0 -29 -12 -46.5t-43 -33.5q-55 8 -123 7t-134.5 -15.5t-124.5 -44t-93 -80.5q8 -162 1 -304.5t-19.5 -280.5t-23.5 -278.5t-11 -297.5v-43q0 -25 28 -31 q217 78 421 109.5t433 31.5q0 -80 -67 -117q-223 -31 -440.5 -102.5t-399.5 -212.5h-14q-55 0 -84 34t-43.5 81t-16.5 96t-2 86q0 174 14.5 345t14.5 345q0 80 -9.5 163t-18.5 165t-19 161.5t-10 155.5z" />
<glyph unicode="\" horiz-adv-x="1044" d="M25 1309q0 37 14 51t53 14q57 0 88 -26.5t47.5 -66.5t27.5 -87t36 -86q47 -80 118.5 -146.5t151.5 -128t159 -124t142.5 -133t103.5 -154.5t40 -191v-59q0 -37 -6.5 -68.5t-28 -54t-62.5 -22.5q-33 0 -56.5 46t-42.5 104.5t-35.5 114.5t-37.5 79q-72 88 -136 159.5 t-132 138t-142.5 133t-166.5 146.5q-47 80 -91 171t-44 190z" />
<glyph unicode="]" horiz-adv-x="806" d="M25 1382q0 23 4 31t26 23q23 16 78 53t118.5 79t119 78.5t78.5 51.5q39 23 71.5 24.5t73.5 1.5q172 0 172 -168v-38q0 -25 -2 -31q0 -12 -9.5 -70.5t-18.5 -125t-17 -125t-8 -66.5t-1 -52t-3 -112t-4.5 -154t-5.5 -173t-6 -167t-5 -139v-16q0 -25 8 -45.5t19.5 -41 t19.5 -43t8 -46.5q0 -84 -51 -141.5t-127 -95.5t-161 -55.5t-150 -17.5q-59 0 -103.5 37.5t-44.5 98.5q0 41 43 60t104.5 35.5t123 40t100.5 74.5q25 152 40 326t22.5 351t10.5 347t3 312q-68 0 -115 -30t-91 -62.5t-92 -62.5t-112 -30q-41 0 -78.5 14.5t-37.5 69.5z" />
<glyph unicode="^" horiz-adv-x="899" d="M25 805q0 8 1 23.5t1 17.5l239 602q16 20 31.5 61t32 80t38 70t56.5 31q25 0 50.5 -14.5t49 -35t45 -44t37.5 -42.5q10 -29 37 -95t55.5 -142t55 -142.5t37.5 -93.5q25 -63 52 -115.5t27 -125.5q0 -29 -23.5 -52.5t-55.5 -23.5q-31 0 -61 12t-44 43l-211 471q-4 6 -14 6 q-29 0 -55.5 -43t-51 -109.5t-51.5 -140t-55.5 -140t-63 -109.5t-75.5 -43q-43 0 -63.5 28.5t-20.5 65.5z" />
<glyph unicode="_" horiz-adv-x="1517" d="M27 -231q0 33 19.5 54t49 34.5t61 18.5t56.5 11q39 2 139.5 6.5t214 8.5t215 8t142.5 4h262h262q29 -16 29 -41q0 -23 -16.5 -36t-39.5 -27q-309 -76 -643 -106t-651 -30q-39 0 -69.5 22t-30.5 73z" />
<glyph unicode="`" horiz-adv-x="372" d="M25 1542q0 33 11 51.5t46 18.5q31 0 77 -40t87 -94.5t70.5 -109.5t29.5 -88q0 -39 -27.5 -65.5t-66.5 -26.5q-25 0 -63.5 43t-74.5 101.5t-62.5 117.5t-26.5 92z" />
<glyph unicode="a" horiz-adv-x="1478" d="M25 109q0 162 43 303t114.5 265t169.5 237q98 114 206 172q65 34 104 34q28 0 42 -16q38 -39 58 -93.5t25.5 -113.5t5.5 -107.5t-14.5 -92.5t-14.5 -94t2 -87t9 -75t18.5 -78.5t62.5 -107.5t110.5 -67t122 45.5t120 99.5t115.5 100t124 46q27 0 28 -27.5t1 -39.5 q0 -63 -54.5 -131t-130 -126.5t-157.5 -99.5q-81 -41 -133 -49q-20 -3 -40 -3q-31 -1 -61 7q-49 12 -95 40t-83 65t-63.5 92t-30.5 80.5t-13.5 47t-35.5 38.5q-25 -55 -59 -136t-84 -156t-114.5 -129t-129 -54t-93 19.5t-45 50t-23.5 67.5t-7 74zM211 203q0 -18 1 -39 t26 -27q33 27 75.5 86.5t86.5 139t87 172t78 178.5q35 85 55 159q11 40 12 65q0 21 -8 31q-18 22 -47.5 19.5t-76.5 -85.5t-77 -137t-53.5 -98t-49 -112t-46 -126t-63.5 -226z" />
<glyph unicode="b" horiz-adv-x="1122" d="M27 291q4 268 5 396t5 262t12 268.5t25.5 224.5t28 129t71.5 39q37 0 64.5 -21.5t27.5 -58.5q0 -31 -7 -54.5t-21 -54.5v-841q55 68 124.5 132t148.5 117.5t166 86t158.5 32.5t112.5 -20.5t72 -55t49 -78.5t18 -127t-73.5 -212t-184 -236.5t-240.5 -177.5t-221.5 -70 t-149.5 26t-101 69t-66.5 100t-23.5 125zM307 147q94 0 197.5 46.5t190.5 122.5q87 78 143 174q53 90 53 163v11q-4 78 -48 91t-52 13q-129 0 -220.5 -57.5t-150 -147.5t-86 -200.5t-27.5 -215.5z" />
<glyph unicode="c" horiz-adv-x="1017" d="M25 291q0 35 14 111.5t39.5 169t61.5 191.5t82 181t100.5 134t113.5 52q63 0 102.5 -30.5t59.5 -76.5t27.5 -100.5t7.5 -101.5q0 -49 -8.5 -70.5t-61.5 -21.5q-43 0 -67.5 26.5t-42 57.5t-25.5 56.5t-18 25.5q-4 0 -8.5 -2t-6.5 -2q-37 -78 -69.5 -148.5t-59 -144.5 t-41 -147.5t-14.5 -133t73.5 -100.5t193.5 -41t220.5 78t145.5 268q8 6 38.5 14.5t39.5 10.5q2 0 6 2t10 2q33 0 36 -27.5t3 -50.5q0 -109 -31 -201t-92 -158.5t-152.5 -105.5t-189.5 -39t-180 15.5t-150.5 52.5t-112.5 99.5t-44 154.5z" />
<glyph unicode="d" horiz-adv-x="1107" d="M27 121q-3 20 -3 41q0 43 13 94q20 76 62 159t97.5 169t115 161.5t115.5 139t101 102.5q18 16 50 27.5t66 23t59.5 21.5t33.5 33q4 20 15.5 68t23.5 103.5t23.5 103.5t16.5 67.5t12.5 43t19.5 43t29.5 33t44.5 13.5q16 0 31.5 -2t19.5 -25q4 -14 4 -53v-51 q0 -117 -18.5 -233t-39 -231.5t-37 -231t-16.5 -232.5q0 -102 16.5 -161.5t40 -89.5t52.5 -42t52.5 -22.5t39.5 -28t16 -55.5q0 -51 -44 -87t-91 -36q-41 0 -79 26.5t-67.5 63.5t-53 79t-37.5 72h-25q-41 -63 -84 -124.5t-94 -110.5t-113.5 -80t-144.5 -31q-43 0 -80 23.5 t-66.5 58.5t-48 77t-28.5 81zM213 174q0 -31 24.5 -56.5t53.5 -25.5q51 0 101 36t93 92t80 128t63.5 143.5t42 137t15.5 108.5v15q-6 12 -14 52t-15 52q-2 0 -12 2t-12 2q-31 0 -75 -40t-89 -102.5t-91 -140t-83 -153.5t-59.5 -143.5t-22.5 -106.5z" />
<glyph unicode="e" horiz-adv-x="1150" d="M27 342q0 133 49 245.5t123.5 210t168 187.5t185.5 176q10 0 41 3t39 3q68 0 116 -31.5t48 -107.5q0 -86 -43 -150.5t-109.5 -116.5t-141.5 -98.5t-141.5 -93.5t-108.5 -102t-42 -125q0 -51 19.5 -87t60.5 -71q12 0 53 -1t51 -1q127 0 248 34t227 101q29 16 46.5 44 t36 54.5t42 45t62.5 18.5t45 -33.5t6 -64.5q0 -88 -68.5 -163t-166 -128t-200 -84t-167.5 -31q-94 0 -180 15.5t-151.5 56.5t-106.5 112.5t-41 182.5z" />
<glyph unicode="f" horiz-adv-x="1214" d="M25 539q0 55 48 77.5t112.5 35t209.5 44.5q2 51 9.5 131t15.5 168t22.5 221.5t32 221.5t59 163.5t110.5 126t170 50.5t169 -42t114 -108.5t67.5 -144.5t21.5 -154q0 -27 -11.5 -43t-41.5 -16q-37 0 -58.5 25.5t-34 67.5t-24.5 88t-36 88t-65 68.5t-103 26.5t-101 -41 t-55.5 -102t-28 -135t-18.5 -144.5t-8 -141.5t-1 -345q137 20 226 45t178 25q53 0 91 -30t38 -79q0 -55 -38 -73.5t-97 -22.5q-34 -2 -72 -2q-28 0 -58 1q-20 1 -40 1q-47 0 -88 -5q-60 -7 -138 -46q0 -127 12.5 -184.5t30 -112t29.5 -110.5t12 -109q0 -51 -14.5 -63.5 t-63.5 -12.5q-23 0 -59.5 9t-72.5 25.5t-61.5 40t-19.5 50.5q0 2 8.5 17t18.5 29q8 13 8 71v25q-2 81 -10 132t-15.5 95t-9.5 61q-158 -16 -184.5 -24.5t-50 -14.5t-27.5 -6q-14 -2 -32.5 6t-35 22.5t-28.5 28.5t-12 25z" />
<glyph unicode="g" horiz-adv-x="819" d="M-35 -737q0 16 3 36.5t28 26.5q31 -20 50.5 -58t39.5 -78t51 -70.5t122 -30.5t167 63.5t115 159.5t50 209.5t11 236.5t-4 181.5t-8 114t-7 95t-5 39.5l-25 27q-23 -63 -61.5 -131t-114.5 -88.5t-140.5 -20.5t-139 58.5t-74.5 143.5t20 168t55 181.5t82 197.5t98.5 181 t103.5 133.5t107.5 51.5t90 -51.5t52 -118t21.5 -133t4 -99.5q39 -18 66 -100t42 -197t20.5 -249t6.5 -256v-53q0 -90 -2 -164q-4 -95 -31.5 -229t-90 -249t-165 -188.5t-209 -73.5t-159.5 28.5t-91 76.5t-58.5 108t-20.5 121zM182 252q0 -31 14.5 -61.5t58.5 -30.5t80 33.5 t64.5 81t51 96.5t47.5 82q0 348 -14 359q-1 1 -4 1q-17 0 -72 -63q-62 -72 -95.5 -138.5t-82 -193.5t-48.5 -166z" />
<glyph unicode="h" horiz-adv-x="1107" d="M38 1376q7 33 15 71t20.5 86t19.5 68.5t26 20.5q14 0 14 -4q2 -4 5 -14.5t7.5 -23.5t8.5 -25.5t6 -14.5q4 -6 10 -21.5t14.5 -32t13.5 -154.5t19 -349t32.5 -339t28 -168t13.5 -40h26q322 557 374 581.5t111.5 24.5t97.5 -39.5t59.5 -102t34 -138.5t18.5 -149.5t13 -170 t31.5 -132.5t24.5 -72q0 -8 -7 -55.5t-26.5 -94.5t-49.5 -82q-19 -23 -45 -23q-14 0 -31 7q-6 2 -18.5 11t-25 22.5t-22.5 26t-12 20.5q0 33 1 114.5t1 173t-4 230.5t-12 171t-72 36h-6q-60 0 -109 -69q-51 -73 -94 -151.5t-80 -161.5t-64.5 -141.5t-35 -100.5t-21.5 -76 t-44 -56.5t-91 -22.5q-29 0 -61.5 32t-42.5 46q-23 317 -39.5 617.5t-27.5 466.5q-7 101 -7 152q0 33 3 46z" />
<glyph unicode="i" horiz-adv-x="321" d="M27 1692q0 39 30.5 59.5t61.5 20.5q63 0 106 -20.5t43 -86.5q0 -43 -22.5 -74.5t-73.5 -31.5q-14 0 -38.5 13t-48.5 33.5t-41 42t-17 44.5zM55 462v30q1 101 11 288q12 217 28 252q14 34 40 58q10 9 24 9q23 0 56 -24q46 -33 47 -73q0 -7 -2 -13q-9 -47 -19 -63 q-11 -16 -12 -124v-23q0 -93 8 -157q8 -72 22 -177t14 -219.5t-13 -146.5t-35.5 -55.5t-55.5 -23.5q-4 0 -12 2q-10 8 -41 39t-39 43q-8 111 -13.5 193.5t-7.5 184.5z" />
<glyph unicode="j" horiz-adv-x="428" d="M-197 1622q0 59 31 85t82 26q39 0 84 -18.5t45 -74.5q0 -47 -43 -83.5t-90 -36.5q-16 0 -35.5 10t-35 25.5t-27 33t-11.5 33.5zM-131 -731q0 27 11 48t42 21t88 -15q13 -4 25 -4q39 0 65 37q35 48 92 257q15 57 15 188q0 353 -111 1248q0 12 12.5 19t28 8t27.5 1h16 q25 0 45.5 -33.5t35.5 -88t27.5 -119t20.5 -127t37 -481.5q25 -356 25 -477q0 -21 -1 -35q-5 -93 -24.5 -178t-56.5 -169t-80 -157.5t-93 -82t-95.5 -8.5t-98.5 43.5t-53 104.5z" />
<glyph unicode="k" horiz-adv-x="1333" d="M29 1202q-1 30 -1 54t1 42q2 36 13 71.5t31.5 60t59.5 24.5q25 0 37 -9t14 -46l62 -815h45q2 0 46 51t103.5 121.5t118.5 147.5t116.5 198t78 191.5t51.5 128t90 81.5q18 8 36.5 -4t36 -32.5t27 -44t9.5 -38.5q0 -31 -5.5 -44t-15.5 -25t-26.5 -35t-44 -89.5t-44 -107.5 t-32 -77.5t-387.5 -526.5q123 -23 326.5 -25t291.5 -10t155.5 -30t67.5 -68q0 -39 -18.5 -58.5t-61.5 -43.5q-27 0 -85 1h-27q-86 0 -363 -4q-332 -5 -364.5 -9.5t-63.5 -8.5t-41 -8q2 -39 5 -84q1 -12 1 -24q0 -32 -6 -61q-8 -40 -31.5 -67.5t-74.5 -27.5h-47q-27 0 -33 31 q-2 43 -6 137t-8.5 214t-11.5 252t-11 250.5t-8 212.5t-6 154z" />
<glyph unicode="l" horiz-adv-x="530" d="M24 656q6 244 13.5 322.5t20 158.5t32 157.5t43.5 145.5q10 25 28.5 26.5t41.5 1.5q29 0 51 -8t37 -47q-41 -84 -59.5 -179t-22.5 -193.5t-8 -396.5q0 -27 -1 -53q0 -251 36 -321q40 -76 77 -99.5t65 -29.5t58.5 -17t51 -28.5t12.5 -48.5q-2 -14 -15.5 -27.5t-32 -24.5 t-38 -19.5t-29.5 -8.5q-125 0 -219 77t-121 216q-22 123 -22 305q0 44 1 91z" />
<glyph unicode="m" horiz-adv-x="1660" d="M33 852q6 125 22.5 174t44.5 88q21 30 51 30q10 0 20 -4q44 -12 59.5 -28t26.5 -35.5t9 -32.5q0 -2 -8 -13t-18 -25q-11 -14 -20 -134q-5 -72 -5 -113q0 -27 2 -40q6 -33 17.5 -68t31.5 -80q4 6 55.5 74t77 110t62.5 97t93 59h9q50 0 86 -39q39 -43 74 -116.5 t55.5 -118.5t39 -87t26.5 -58h12q37 0 64.5 58t63.5 126.5t87 127t131 58.5t135.5 -47t98.5 -123t73.5 -171t53 -189t39 -177t22.5 -110t8 -32t2 -7q0 -31 -24.5 -49t-53.5 -18q-86 -1 -118 37q-22 25 -22 73q0 23 5 51q-6 27 -25.5 97.5t-40 150.5t-45 175t-50.5 134 q-9 13 -24 13q-28 0 -78 -50q-75 -76 -109.5 -138t-78.5 -156.5t-49.5 -141.5t-13.5 -89t-27.5 -81t-64.5 -71q-8 -8 -27.5 -18.5t-23.5 -10.5q-6 2 -18.5 12.5t-24.5 22.5t-22.5 24.5t-12.5 20.5q0 23 -3 78t-7 118.5t-13.5 146.5t-20.5 133t-23.5 95t-23.5 79t-15 34 q-100 -78 -126 -133.5t-49.5 -113.5t-37 -131t-17.5 -123t-7 -95q-2 -27 -1 -45v-19q-12 -43 -40 -49t-62 -6q-72 0 -98 49t-32 117q-4 40 -3 82q-1 29 1 57q1 21 2 44q0 52 -8 110q-10 82 -42 194q-27 94 -28 197q0 20 1 39z" />
<glyph unicode="n" horiz-adv-x="1136" d="M27 748.5q0 58.5 6 104.5t19.5 89t39.5 75q13 15 34 15q22 0 54 -18q49 -29 49 -121q-1 -21 -3 -45q-9 -86 -8 -140q0 -28 2 -46q7 -56 23.5 -105t47.5 -65q41 68 85 142.5t94 146t110 135.5q58 64 166 92q36 10 67 9q59 0 95 -37q54 -56 198 -855q0 -4 1 -20.5t1 -22.5 q0 -37 -20.5 -64.5t-61.5 -27.5q-20 0 -41.5 13t-41 32.5t-32 43t-16.5 46.5l-76 657q0 2 -9 20.5t-22.5 39t-21.5 20.5q-16 0 -90 -92t-115 -159.5t-96 -156.5t-71.5 -166t-39 -160t-53.5 -148.5t-74 -65.5q-47 0 -76.5 33.5t-41.5 70.5q0 94 -14.5 191.5t-28 194 t-26.5 191.5t-13 153.5z" />
<glyph unicode="o" horiz-adv-x="874" d="M25 412q0 168 28.5 289.5t95 208.5t172 145.5t245.5 82.5q39 7 71 6q81 0 115 -42q47 -60 67.5 -144t23.5 -173t3 -173t-27.5 -205.5t-86 -224t-151 -169t-210 -66.5t-181 40t-100.5 106.5t-51 149.5t-14 169zM208 502q3 -68 3 -109q0 -31 2 -75t14.5 -86t40 -72.5 t100 -30.5t138 53.5t106.5 131.5q40 79 58 167q14 72 15 155q0 18 -1 38q-4 106 -11 161.5t-59 92.5q-22 16 -55 16q-45 0 -111 -28q-114 -50 -163 -119.5t-65 -148.5q-13 -66 -12 -124v-22z" />
<glyph unicode="p" horiz-adv-x="1069" d="M27 633q0 20 7 30.5t21 32.5q2 6 19.5 30t35 49.5t33 49t17.5 29.5q4 14 5 47t1 72t-1 71.5t-5 47.5q6 23 22.5 26.5t32.5 3.5q6 0 14.5 -1t8.5 -5l104 -182q16 0 62 2h14q56 0 223 -12q190 -15 248.5 -38.5t98.5 -64.5t40 -135t-64.5 -192.5t-159.5 -177t-206 -139 t-203 -111.5q-6 -4 -15 -12.5t-9 -14.5v-655q0 -2 -10.5 -13.5t-22.5 -24t-25.5 -25.5t-17.5 -15l-8 -4t-11 -2q-18 0 -35.5 15t-27.5 37.5t-17.5 46.5t-11.5 38q4 106 6 232q2 63 2 127t-2 130q-2 131 -9 261t-21 247q-49 37 -91 85t-42 114zM371 268q57 0 132 36 t138.5 92.5t107.5 123t44 110.5t-9.5 59.5t-68 30.5t-127 23.5t-146.5 8.5q-6 0 -17 2t-23.5 -1t-21.5 -9.5t-9 -18.5v-457z" />
<glyph unicode="q" horiz-adv-x="925" d="M25 268q0 94 27.5 191.5t75.5 204t113.5 209t142.5 184.5t162 131t147.5 49t91 -20.5t49 -50t30.5 -110.5q5 -40 5 -68.5t-5 -44.5q-10 -32 -45 -79v-973q0 -6 9.5 -15t15.5 -9q78 0 158.5 26.5t147.5 26.5t91.5 -6t24.5 -60.5t-34 -79t-88 -36.5t-114.5 -17.5 t-115 -19.5t-89 -45t-34.5 -90q0 -78 -5.5 -286t-32 -233.5t-66.5 -25.5t-60.5 25.5t-20.5 62.5q0 117 13.5 228.5t13.5 228.5q0 35 -33 43t-73 14t-73.5 19.5t-33.5 64.5q0 29 16.5 42t40 18.5t51 10.5t51 24.5t39.5 57.5q11 24 11 94q0 40 -3 94q-10 151 -16 214 q-55 -66 -83.5 -103.5t-64.5 -68.5t-78 -50.5t-125 -19.5t-158.5 77t-75.5 171zM211 319q0 -33 8 -72.5t60.5 -39.5t103.5 41t94 107.5t78 148.5t57.5 158.5t36 143t13.5 103.5q0 31 -11.5 47.5t-44.5 16.5q-37 0 -124 -106.5t-126 -170t-90 -157t-53 -131.5t-2 -89z" />
<glyph unicode="r" horiz-adv-x="694" d="M27 940v45q0 39 10 64.5t57 25.5q33 0 60.5 -19.5t48 -48t38 -60.5t25.5 -60q37 37 86 88t104.5 95t117 76t112.5 32t78 -4q8 -1 8 -11q0 -21 -44 -82q-64 -88 -143 -145t-153 -121.5t-90 -136.5q-32 -132 -32 -279v-25q3 -161 7 -300q-8 -10 -37.5 -41t-35.5 -35 t-11.5 -5t-9.5 -1q-2 0 -10 2q-63 51 -90 89t-35 81q-6 31 -6 68q0 14 1 28q1 11 1 25q0 54 -10 156q-12 128 -19.5 222.5t-15.5 174.5t-12 102z" />
<glyph unicode="s" horiz-adv-x="1150" d="M25 156q0 26 15 56q10 20 45 20q17 0 41 -4q71 -14 105.5 -34t71.5 -36q33 -14 111 -13h21q95 2 210 15.5t194 69.5q63 45 63 88q0 11 -4 22q-20 55 -86.5 70.5t-135 32t-144 34t-152.5 41t-137.5 57t-99.5 78.5q-26 30 -26 77q1 23 7 51q20 83 77 138.5t124.5 104.5 t139.5 82q57 26 117 26q16 0 32 -2q76 -8 101.5 -25t41 -39t9.5 -52q-2 -4 -21.5 -23.5t-31.5 -25.5h-13q-31 0 -93 13q-23 5 -45 5q-36 1 -68 -13q-52 -22 -98 -54.5t-78 -71.5q-11 -14 -11 -29q0 -26 35 -55q55 -45 105.5 -60.5t132.5 -39t165.5 -44t163.5 -53.5 t139.5 -82t59.5 -142t-77 -166t-187.5 -111.5t-233.5 -52t-189.5 -13.5t-129 4t-121.5 18.5t-102 46.5t-43 91z" />
<glyph unicode="t" horiz-adv-x="1040" d="M-133 653q0 47 57.5 75t133 49.5t259.5 113.5q-14 184 -14 309q1 125 55 127h2q52 1 83 -69q32 -72 73 -300q180 66 302 100t170 34t70.5 -11.5t22.5 -57.5t-22.5 -72.5t-56 -38t-146.5 -38t-158 -43t-163 -67.5q4 -98 10 -163.5t19.5 -136.5t28.5 -140.5t28.5 -137 t13.5 -137.5q0 -35 -20.5 -62.5t-59.5 -27.5q-41 0 -68.5 20.5t-47 52t-29 68.5t-21.5 135.5t-21.5 173t-15.5 142t-14 137.5q-102 -39 -141 -52t-78 -28.5t-118 -29.5q-32 -6 -55 -6q-36 0 -52 12q-28 22 -27 69z" />
<glyph unicode="u" horiz-adv-x="1083" d="M22 1002q-1 4 0 8q0 30 30 52q34 26 61.5 25.5t41 -22t29.5 -381.5t82 -439q47 -55 105 -55q26 0 54 11q91 35 150.5 135t97.5 214t58.5 233.5t34.5 188t30.5 81t47 12.5t47 -12.5t21.5 -82.5q2 -28 3 -64q1 -55 -5 -130q-5 -72 -5 -144q0 -50 2 -100q6 -122 38 -237 t108 -207q-4 -35 -31 -57.5t-59 -22.5q-37 0 -69 22.5t-57.5 55.5t-44 68.5t-26.5 64.5q-2 0 -6 1t-8 1q-33 0 -64 -42t-69.5 -92t-88 -92t-132.5 -42t-149.5 39t-110.5 103.5t-66.5 146.5t-33.5 169t-12 170.5t-1 151.5v49t1 75t0.5 74.5t-4.5 70.5z" />
<glyph unicode="v" horiz-adv-x="841" d="M-43 895q0 53 27.5 81t65.5 28t73 -41t66.5 -105.5t61.5 -141.5t57.5 -150.5t51 -134t46 -76t47 -11.5t203 596t196.5 616.5t62 24.5t56 -43q4 -15 3 -32q-1 -36 -15 -82q-22 -70 -198 -703t-195.5 -656.5t-47.5 -44t-57.5 -35t-69.5 -14.5t-83 43t-56 82t-37 101.5 t-51.5 139.5t-59 163t-61.5 163.5t-51.5 140t-33.5 91.5z" />
<glyph unicode="w" horiz-adv-x="1359" d="M33 1076q8 20 38.5 10.5t47 -31t29 -50t29 -80t57 -226.5t76.5 -287q22 -70 37 -70q9 0 15 26q16 68 33 135.5t44.5 133t67.5 113.5q36 44 89 44h12q62 -6 89.5 -32.5t56 -55t94 -123t91.5 -138.5t50.5 -44t42 30t23.5 57.5t32.5 117.5t55 189.5t55.5 189.5t35 116.5 t24.5 65.5t42 79t57.5 70t55.5 30t28.5 -10.5t8 -24t1 -55.5t-18.5 -95t-53.5 -149.5t-63.5 -201.5t-39.5 -177t-27.5 -152t-27 -151.5t-23.5 -130t-23.5 -96t-39 -57t-62.5 -19.5t-53.5 7t-32.5 21.5t-30.5 35l-31 41t-54.5 78.5t-82 125.5t-80.5 126t-49 72t-18.5 20.5 t-31.5 7t-45 -47t-34 -117.5t-22.5 -153.5t-25.5 -154t-44 -117t-91.5 -51h-6q-59 0 -102 87q-10 37 -34 129t-49.5 197.5t-46 198t-52.5 308.5q-25 172 -25 220q0 11 2 15z" />
<glyph unicode="x" horiz-adv-x="1056" d="M27 981q0 39 42 55.5t92 16.5t109.5 -57.5t110.5 -127t95 -128t77 -113.5q168 252 195.5 319.5t59.5 127t73 98t93 38.5t105.5 -28.5t53.5 -72.5t-28 -56.5t-63.5 -22.5t-69.5 -27.5t-91.5 -138.5t-90 -180t-63.5 -111.5t-70 -99.5q185 -263 187 -325q0 -6 1 -12 q-1 -52 -13 -66q-14 -16 -70.5 -16.5t-128.5 92t-96 141.5q-47 -55 -83 -111.5t-75 -113t-83 -98.5t-97 -42q-47 0 -59.5 19.5t-12.5 58.5q0 55 28.5 114.5t70.5 116t87 106.5t99 128q-57 90 -87 140t-62 102.5t-48 78t-47 44t-62.5 41t-55 47t-23.5 63.5z" />
<glyph unicode="y" horiz-adv-x="933" d="M27 826q0 44 9 71q4 11 18 11q23 0 72 -26q81 -42 127 -102.5t91 -134.5t88 -134t83 -101t103 -78q31 236 39.5 315.5t19.5 181t27.5 145.5t42 85t100.5 71q40 15 66 15q23 0 37 -13q19 -19 19 -49q0 -12 -3 -25q-10 -48 -68 -159t-131 -715t-81 -744q-4 -70 -4 -139.5 t4 -138.5q-8 -10 -39 -40.5t-36 -35t-9 -6.5t-10 -2q-53 0 -73.5 45t-20.5 84q0 92 12 188.5t28.5 189.5t29 187.5t16.5 336.5q-55 27 -114.5 97l-127.5 150t-158 188.5t-123.5 173t-33.5 108.5z" />
<glyph unicode="z" horiz-adv-x="1175" d="M27 49q0 12 11 42t17 38q16 20 49 63.5t75 96.5t88 114.5t87 114.5t99.5 136t79 117t60.5 118q31 65 31 87q0 6 -2 9q-6 6 -31 6t-70 -6q-89 -12 -140 -28.5t-104.5 -29t-98.5 -12.5q-44 0 -60 72q-3 12 -3 23q0 54 65 76q78 28 135.5 44.5t110.5 31t186 16.5h33 q105 0 139 -12q39 -14 64.5 -44t25.5 -91.5t-37.5 -136.5t-94 -151.5t-124 -152.5t-129 -147.5t-109.5 -138t-63 -122.5q246 37 323 61.5t153.5 52.5t134.5 52q60 23 114 35q17 4 29 4q29 1 43 -19q8 -11 8 -30q0 -26 -15 -66q-26 -68 -63.5 -87t-195.5 -70.5t-254 -82 t-282 -56.5q-133 -18 -185 -18q-21 0 -29 3q-28 10 -49.5 32.5t-21.5 55.5z" />
<glyph unicode="{" horiz-adv-x="780" d="M25 1201q0 71 33.5 126t87 111.5t121 112t137 98.5t133 69.5t111.5 26.5t70.5 -8t22.5 -62q0 -41 -25.5 -52t-59 -12t-127 -56.5t-134.5 -97.5t-112.5 -156.5t-39 -139t83 -40t110 -30t108.5 -39t83 -65.5t34 -103.5t-28 -123t-70 -118.5t-87 -106.5t-84 -93.5 q0 -29 37 -58.5t83 -69.5t83 -95t27.5 -159.5t-24.5 -172t-37.5 -139.5t-46 -132t-47.5 -105.5t-44 -53.5q-27 -10 -43 3.5t-25.5 36t-12.5 45t-3 30.5q0 57 12.5 113.5t28.5 114t29.5 112.5t13.5 118.5t-26.5 100.5t-64.5 58.5t-83 27.5t-83 16.5t-63.5 25.5t-25.5 72.5 t53 121t118.5 125t120 126t54.5 126t-62.5 87t-137 63.5t-137 94t-62.5 127z" />
<glyph unicode="|" horiz-adv-x="348" d="M49 115q4 84 4 147v64q0 43 1 80.5t1 68.5v37q2 41 9.5 129t18.5 200.5t22.5 235.5t21.5 234.5t19.5 201t13.5 129.5q16 33 33.5 44.5t44.5 11.5q37 0 58 -31t21 -63q0 -182 -16 -364.5t-36.5 -368t-37 -370t-16.5 -368.5q0 -88 27.5 -173t27.5 -173q0 -37 -27.5 -68.5 t-50.5 -50.5q-68 45 -96.5 118t-37.5 159t-5 170z" />
<glyph unicode="}" horiz-adv-x="569" d="M25 1604q0 49 37.5 71.5t90 30.5t107.5 5t88 -3q61 0 97 -16.5t55.5 -47t24.5 -74.5t5 -100q0 -152 -71.5 -294t-167.5 -258q25 -43 60.5 -60.5t70.5 -31t58.5 -38t23.5 -86.5q0 -45 -31 -89t-65.5 -93t-64.5 -109.5t-30 -131.5q0 -57 21.5 -107.5t48.5 -97.5t48.5 -96.5 t21.5 -106.5q0 -43 -20.5 -96.5t-53.5 -103.5t-77 -85t-89 -35q-8 0 -18.5 12.5t-16.5 26.5t-18 41q0 27 12 48.5t27.5 45t28 48t12.5 55.5q0 68 -20.5 128t-46.5 119.5t-47.5 121t-21.5 129.5q0 80 36 172t73 157q-25 33 -50.5 48.5t-47 32t-37 39t-23.5 65.5 q27 51 72 121.5t88 148.5t72.5 161t29.5 122t2.5 55t-1 35.5t-9.5 35t-18 15.5h-236q-23 0 -26.5 27.5t-3.5 42.5z" />
<glyph unicode="~" horiz-adv-x="1226" d="M25 1012q0 55 39.5 133t102 148.5t136.5 119.5t139.5 49t112.5 -41t90 -92t89 -93t97.5 -42t87 16.5t70.5 38t69 39t81 -43t14 -106.5t-83 -75t-185 -41t-203 29t-115 92t-77.5 93t-77.5 42t-83 -54.5t-64.5 -118t-62.5 -117.5t-93 -54q-31 0 -57.5 25.5t-26.5 52.5z" />
<glyph unicode="&#xa1;" horiz-adv-x="346" d="M27 1415q0 45 34.5 56.5t65.5 11.5q23 0 51.5 -6.5t54 -18.5t42 -32.5t16.5 -49.5q0 -55 -35 -80.5t-88 -25.5q-25 0 -49.5 13t-45 33.5t-33.5 47t-13 51.5zM74 -340q8 631 13 734.5t15.5 187.5t30 138t51.5 54q51 0 75 -37t29 -87t8 -468t-4 -482.5t-36 -111.5t-98 -47 q-39 0 -55.5 24.5t-28.5 94.5z" />
<glyph unicode="&#xa2;" horiz-adv-x="950" d="M25 538.5q0 79.5 43 167t107.5 161t145 137t154.5 126.5q14 53 37 113t56.5 112t82.5 87t101.5 35t85 -16.5t0 -83t-74.5 -105.5t-75 -95.5t-33 -142.5q0 -33 15.5 -58.5t32 -49t32 -47t15.5 -52.5q-96 0 -142.5 -34.5t-71 -90t-40 -129t-47.5 -149.5q2 -14 12 -21.5 t22.5 -10.5t93 15.5t122.5 39t82 39t87 18.5q23 0 39.5 -10.5t16.5 -32.5q0 -2 -1 -6t-1 -6q-59 -76 -150.5 -121t-181.5 -75t-161 -50.5t-87 -42.5q-20 -33 -31.5 -91.5t-28 -113.5t-47 -96t-88.5 -41q-37 0 -40 28.5t-3 51.5q0 78 21.5 138t58.5 148q-16 51 -41.5 87 t-52.5 72t-46 76t-19 119.5zM206 523.5q-1 -15.5 2 -30t8 -28.5t22 -16q25 12 45 50t33.5 82t19.5 87t6 69v27q-55 -45 -95 -96t-40 -123q0 -6 -1 -21.5z" />
<glyph unicode="&#xa8;" horiz-adv-x="649" d="M27 1341q0 31 25.5 36t47.5 5q47 0 53.5 -19.5t6.5 -88.5q0 -18 -13.5 -22.5t-25.5 -4.5q-39 0 -66.5 27.5t-27.5 66.5zM424 1405q0 14 9 32.5t16 18.5h131q20 0 24 -32.5t4 -47.5q0 -33 -23.5 -56.5t-56.5 -23.5t-68.5 38t-35.5 71z" />
<glyph unicode="&#xa9;" horiz-adv-x="1779" d="M25 608q0 63 11 111.5t52 137.5t99.5 213t138.5 231.5t184 180t244.5 72.5t312.5 -26.5t321.5 -94t250 -184t100.5 -312.5t-96.5 -372t-253 -302t-355 -194.5t-366.5 -68.5t-280 47t-191.5 130t-125.5 193.5t-46 237.5zM211 608q0 -92 34 -164.5t92 -125t136 -82 t205 -29.5t296 48t304 142.5t219 235.5t77 284.5t-23.5 186.5t-42 78t-62.5 35q0 -49 15.5 -96.5t15.5 -96.5q0 -29 -18.5 -53.5t-49.5 -24.5q-43 0 -61.5 45t-35 104.5t-41 117t-109.5 85t-126 40t-195.5 23.5t-264 -63.5t-191.5 -188.5t-128 -248t-46 -253zM471 580 q0 61 26.5 140t72.5 146.5t108.5 114.5t112 47t83 -9t62.5 -28.5t47 -47.5t18 -60q0 -16 -11 -29.5t-27 -13.5q-31 0 -115 -12.5t-137.5 -77t-53.5 -127t35 -78t108.5 -4t118 19.5t89.5 13.5t88 5.5q29 0 47 -9.5t18 -42.5q0 -63 -44 -97t-106.5 -48t-127 -16t-197.5 9 t-174 70.5t-41 133.5z" />
<glyph unicode="&#xaa;" horiz-adv-x="1136" d="M23 874q0 4 1 31t3 35q29 61 77 154.5t111.5 182.5t144 152.5t170.5 63.5q37 0 66 -18.5t49.5 -47t31.5 -64.5t11 -69q0 -31 -17.5 -45t-39 -22t-37.5 -14.5t-16 -24.5q0 -20 20 -37.5t35 -28.5q29 -6 105.5 -6t158.5 -8t145.5 -33.5t-33 -93.5t-166 -70t-188 9.5 t-135 15.5t-20.5 4q-49 0 -82 -37t-64.5 -82t-69.5 -82t-100 -37q-72 0 -116.5 52t-44.5 120zM238 965h14q23 0 39 28q10 16 30.5 49t34 55.5t15.5 24.5l-29 29zM449 1255l79 54h-79v-54z" />
<glyph unicode="&#xab;" horiz-adv-x="1437" d="M25 434q0 55 24.5 103.5t65.5 90.5t88 75.5t88 60.5q18 10 66.5 37.5t102.5 56.5t104 55.5t69 34.5h12q25 0 33 -16.5t8 -36.5v-27q-8 -12 -34.5 -37.5t-55.5 -55.5t-56.5 -55.5t-39.5 -33.5q-4 -6 -32 -25.5t-58.5 -41t-58 -41t-34.5 -25.5q-8 -6 -23 -21.5t-31.5 -32 t-32 -31.5t-17.5 -19q-2 0 -2 -13q0 -39 34 -75.5t72 -43.5q20 -4 68.5 -11t103 -15t102.5 -15.5t66 -9.5q45 -14 52.5 -45t7.5 -63q0 -33 -13.5 -51.5t-32 -23.5t-46.5 -5h-56q-82 0 -178 16.5t-177 56t-135 109.5t-54 174zM602 514q0 102 50 176t129 120t174.5 67.5 t189.5 21.5q8 0 32.5 -2t32.5 -2q16 -20 22.5 -38.5t6.5 -41.5q0 -41 -31.5 -63.5t-79 -36t-101.5 -24.5t-101 -27.5t-79 -44t-32 -76.5q0 -12 8 -31.5t19.5 -39t26 -34t26.5 -14.5h393q39 0 74 -21.5t35 -60.5q0 -29 -31 -50.5t-79 -34.5t-105.5 -23.5t-109.5 -15.5t-93 -6 t-57 -1q-66 0 -123.5 23.5t-101.5 64.5t-69.5 96.5t-25.5 118.5z" />
<glyph unicode="&#xad;" d="M27 735q0 39 66.5 63.5t165.5 40t217 21.5t221.5 8t177 1t83.5 -1q39 0 69 -3t30 -50q0 -35 -55.5 -62.5t-140.5 -49t-187.5 -35t-197.5 -23.5t-171 -14t-106 -4q-23 0 -51.5 6t-56.5 18.5t-46 32.5t-18 51z" />
<glyph unicode="&#xae;" horiz-adv-x="1517" d="M25 547q0 100 11 223t39.5 250t78 245.5t122 213t175 151t233.5 56.5t233.5 -40t189.5 -105.5t163 -151.5t151 -179q2 -4 2 -26v-25q0 -39 -15 -66.5t-15 -66.5q0 -55 13 -113.5t29.5 -121t29 -130t-14.5 -255t-129 -257t-226 -102.5t-258.5 -41t-252 -8t-220 41 t-178 114.5t-118.5 174t-43 219.5zM369 1264q0 -31 17 -55.5t48 -24.5q10 0 46 20.5t86 51t104.5 66.5t99.5 66.5t104 71.5q0 2 -2 6t-2 9q-51 20 -85.5 23t-83 3t-105.5 -16.5t-108.5 -47t-85 -74.5t-33.5 -99zM465 649q43 0 101.5 38t108.5 91t84 114.5t34 104.5t-24 76 t-69 33q-90 0 -137 -51t-68.5 -125t-25.5 -151t-4 -130zM500 238q14 -31 53 -43.5t70 -12.5q23 0 34 29q-35 18 -57 22.5t-57 4.5h-43zM631 473q0 -2 1 -12t1 -12q113 -29 237.5 -32t235.5 3q2 -6 14.5 -16.5t25.5 -22.5t23.5 -23.5t16.5 -15.5q0 -2 14 -2q39 0 62.5 26.5 t36 60.5t16.5 111.5t-10.5 155.5t-42 161t-65.5 166t-88 148.5t-110.5 107.5t-128.5 42q-4 0 -25.5 -1t-25.5 -1q33 -29 64.5 -59.5t59.5 -64.5t44.5 -75t16.5 -84q0 -113 -58.5 -189.5t-129.5 -137t-128 -114.5t-57 -120z" />
<glyph unicode="&#xaf;" d="M27 1399l53 53q76 -6 164 -3t178 12t173 20.5t142 21.5q8 0 35 8.5t58.5 17.5t58 17t35.5 10h14h10q6 -2 21.5 -10t32 -17t32 -15.5t19.5 -10.5q4 -2 4 -12q0 -39 -49.5 -69.5t-123 -55.5t-163.5 -44t-175 -31.5t-152.5 -18.5t-94.5 -6q-70 0 -153 33.5t-119 99.5z" />
<glyph unicode="&#xb0;" horiz-adv-x="634" d="M27 1180q0 51 14 125.5t45 143.5t75 119t107 50q80 0 143.5 -29.5t106.5 -81t66.5 -119t23.5 -145.5q0 -68 -30.5 -119t-78.5 -84.5t-110.5 -48t-128.5 -14.5q-88 0 -160.5 52.5t-72.5 150.5zM211 1233q0 -31 9 -50.5t42 -19.5q20 0 48 11.5t52.5 28t43 38t18.5 41.5 q0 16 -9 37.5t-22.5 39t-30 32t-32.5 14.5q-27 0 -48.5 -18.5t-38 -46t-24.5 -56t-8 -51.5z" />
<glyph unicode="&#xb1;" horiz-adv-x="1069" d="M25 981q0 4 2 14q10 14 28.5 40t24.5 26h252l92 303q4 20 19.5 23.5t31.5 3.5q31 0 45.5 -31t19.5 -69t6 -79t7 -59h27q55 0 108 13.5t111 13.5q53 0 90 -14.5t37 -78.5q0 -70 -52.5 -90t-116 -24t-117.5 -10.5t-60 -47.5l-52 -368q-6 -39 -36.5 -47t-57.5 -8 q-23 0 -57.5 8t-34.5 47v291q0 25 -49 32t-108.5 15t-109.5 27.5t-50 68.5zM78 168q0 43 27.5 68.5t64.5 41t79 22.5t68 13q14 2 68.5 9.5t122 15.5t132.5 14t97 13h39q39 0 85 -4.5t83 -17.5t62.5 -40t25.5 -74t-26.5 -63t-64.5 -17.5t-79 3t-71 4.5q-25 -4 -77 -8.5 t-106.5 -8.5t-100.5 -7t-58 -5q-8 0 -47.5 -8t-83.5 -16.5t-82.5 -16.5t-51.5 -12h-12q-45 0 -69.5 27.5t-24.5 66.5z" />
<glyph unicode="&#xc4;" horiz-adv-x="1116" d="M25 78q0 47 30.5 141t71.5 197.5t87 198t77 141.5q10 18 29.5 23t39 11.5t37 13.5t27.5 25l209 424q20 35 43.5 57.5t60.5 22.5q53 0 84 -46t48.5 -112.5t25.5 -145.5t17.5 -144.5t22.5 -111.5t42 -46q2 0 18.5 4t32.5 8t31.5 10.5t21.5 6.5q2 0 13.5 1t17.5 1 q33 0 54.5 -23.5t21.5 -56.5q0 -47 -33 -61.5t-73 -18.5t-72.5 -13.5t-32.5 -49.5v-29q0 -14 -2 -253t0 -322t2 -99q-12 -29 -28.5 -53.5t-53.5 -24.5q-33 0 -68.5 17.5t-35.5 60.5v625h-78l-342 -127q-55 -20 -82 -78.5t-46.5 -119t-47 -108t-86.5 -47.5q-47 0 -65.5 32 t-18.5 69zM313 1559q0 100 101 100q57 0 98 -22.5t41 -82.5q0 -20 -14.5 -39.5t-33 -32t-42 -20.5t-43.5 -8q-55 0 -81 29t-26 76zM424 555q2 0 11 -1t14 -1q16 0 63 12.5t96 32.5t89 47t40 55v27q0 16 -4 56t-8 85t-8 82t-4 54l-27 -25zM963 1636q0 45 21.5 81t74.5 36 q47 0 83 -40t36 -85q0 -53 -29 -77.5t-80 -24.5q-106 -1 -106 110z" />
<glyph unicode="&#xd6;" horiz-adv-x="1161" d="M25 317q0 84 16 191.5t54 223.5t93.5 226.5t134 197.5t178 141.5t217.5 54.5t192.5 -63.5t118.5 -154t61.5 -192.5t-6 -325.5t-175 -392.5t-365.5 -216t-284 -18.5t-122 78t-82.5 113.5t-30.5 136zM182 338q0 -31 15.5 -64.5t42 -59.5t59.5 -42t127 -16t202.5 55 t179.5 146.5t105.5 208t34.5 206.5t-12 159.5t-43 130t-80 103.5t-115.5 43t-90 -11t-31 -28.5t-8.5 -45t-15 -64.5q-8 -27 -28.5 -38t-44 -17.5t-47 -14.5t-38.5 -26q-41 -59 -78.5 -136t-67.5 -162t-48.5 -170t-18.5 -157zM287 1620q0 53 29.5 64.5t78.5 11.5 q104 0 105 -115q0 -16 -13.5 -27.5t-33 -19.5t-40 -11t-34.5 -3q-49 0 -70.5 29.5t-21.5 70.5zM868 1667q0 57 29 78.5t80 21.5t103.5 -27.5t52.5 -86.5q0 -49 -45.5 -67.5t-86.5 -18.5q-43 0 -88 26.5t-45 73.5z" />
<glyph unicode="&#xdc;" horiz-adv-x="942" d="M26 811q-1 68 5 138.5t22.5 137t55.5 119.5q12 20 20 23.5t31 3.5q31 0 46 -11.5t32 -41.5q0 -8 1 -40t1 -42q0 -113 -14.5 -223.5t-14.5 -192.5t-3 -160t12.5 -150.5t58.5 -125.5t118.5 -53t129 57t96.5 144t74.5 191.5t53 203t31 205t-4 128t-13.5 47.5q0 16 4 44 t13.5 52.5t27.5 43t45 18.5q20 0 37.5 -16.5t30 -39t18.5 -77.5t2 -119.5t-8 -126t-25.5 -169t-42 -181.5t-43 -146.5t-76 -180t-105.5 -158t-116.5 -82t-143.5 -31.5t-140.5 37t-101.5 95t-63.5 133t-33.5 151t-13 146.5t-3 125.5t-1 123zM102 1731q0 45 9.5 60t56.5 15 q29 0 60.5 -2t58 -13t43 -28.5t16.5 -48.5q0 -49 -14.5 -64.5t-69.5 -15.5q-63 0 -111.5 15.5t-48.5 81.5zM807 1559q0 37 22.5 65.5t55.5 45t71.5 26.5t75.5 10t64.5 -24.5t27.5 -59.5q0 -29 -17 -55.5t-45 -45t-60.5 -26.5t-61.5 -8q-18 0 -42 3t-43 10t-33.5 20.5 t-14.5 38.5z" />
<glyph unicode="&#xdf;" horiz-adv-x="1226" d="M25 111q0 86 16 227t50 304t85 329t122 301t160 219t199.5 84t161.5 -63.5t51 -151.5t-20.5 -147.5t-47 -116t-47 -114.5t-20.5 -120q0 -2 1 -12t1 -12q70 -6 149 -23.5t145.5 -53.5t110.5 -94.5t44 -148.5t-60.5 -188.5t-149.5 -178t-189.5 -132t-194.5 -52.5t-158.5 45 t-62.5 146.5t39 101.5q31 0 51 -18.5t37.5 -39t43 -38t100.5 -1t120 55.5t87 85t71.5 148.5t5 126t-60.5 35t-78 14.5t-111.5 -11.5t-99 -31t-62.5 -29.5t-80 -13q-10 0 -45 2t-47 2q-12 20 -19.5 33.5t-7.5 33.5q0 2 2 13q33 100 95.5 176t124 150.5t106.5 157.5t45 161 t-3 112.5t-68.5 13t-91 -50t-46 -60.5t-69 -134t-107.5 -277.5t-93 -355.5t-39 -368.5t13 -391.5q-12 -20 -27.5 -37.5t-37.5 -17.5q-31 0 -50.5 50t-28.5 120t-12 137.5t-3 98.5z" />
<glyph unicode="&#xe4;" horiz-adv-x="1202" d="M27 -8q0 47 19.5 145.5t53 217t80.5 242.5t103.5 228.5t120 170t133.5 65.5q35 0 75.5 -28.5t74.5 -68.5t56.5 -86.5t22.5 -78.5q0 -86 -15.5 -167t-15.5 -167q0 -88 47 -156.5t148 -68.5q55 0 88 21.5t53.5 47t35.5 47t38 21.5t36 -7.5t29 -21.5q4 -10 4 -47v-43 q0 -100 -46 -163.5t-150 -63.5q-76 0 -135.5 11t-111.5 35.5t-98 64.5t-93 102q-59 -45 -87 -121t-54.5 -149.5t-69.5 -127t-131 -53.5q-80 0 -145.5 56.5t-65.5 142.5zM211 86q0 -16 2 -31.5t25 -21.5l53 53l262 631q2 2 2 16v23q0 29 -9 48t-46 19h-13q-8 0 -12 -2 q-88 -166 -151.5 -348t-110.5 -362q-2 -2 -2 -15v-10zM340 1520q0 39 23.5 79.5t70.5 40.5q72 0 111 -21.5t39 -88.5q0 -61 -32 -84t-91 -23q-49 0 -85 20t-36 77zM764 1333q0 49 20.5 86t75.5 37q63 0 78.5 -40t15.5 -95q0 -8 -2 -38t-4 -40q-18 -12 -31.5 -19t-33.5 -7 q-45 0 -82 35.5t-37 80.5z" />
<glyph unicode="&#xf6;" horiz-adv-x="884" d="M25 184q0 102 42 231.5t106.5 256.5t144 236.5t188 142t172 7t100.5 -75.5t52.5 -122t15.5 -236.5t-116 -347t-224.5 -266.5t-177 -87t-120.5 14.5t-94 51.5t-65.5 83t-23.5 112zM213 160q6 -25 86 -28t155.5 65.5t128 166t79 204t10 208t-31.5 114.5t-31.5 23.5 t-28.5 10.5q-25 0 -48.5 -18.5t-45 -44t-76 -128t-79 -158t-56 -148.5t-40 -135t-15.5 -80t-7 -52zM393 1477q0 39 28 59t62 20q29 0 60.5 -5t57.5 -19t43.5 -38t17.5 -56q0 -18 -14.5 -32.5t-32 -23t-39 -11.5t-33.5 -3q-23 0 -49.5 7t-48 20.5t-37 35t-15.5 46.5z M791 1452q-8 22 0 51q16 47 47.5 65.5t70.5 18.5q45 0 71 -26.5t26 -69.5q0 -51 -30 -74.5t-77 -23.5q-16 0 -39.5 6t-42 18.5t-26.5 34.5z" />
<glyph unicode="&#xfc;" d="M24 448.5q-1 59.5 0 132t9 145.5t26.5 134.5t48 99t75.5 37.5t64.5 -9t4.5 -92t-18.5 -146.5t-8.5 -134t-5 -220t12.5 -184.5t37 -59.5t99 0t109.5 62.5t59.5 78t70.5 134t108.5 248.5t89 258t48.5 112t53 8.5q55 0 76 -41t21 -96.5t-13.5 -110.5t-29 -109.5t-29.5 -110 t-14 -113.5t2 -82.5t37.5 -81t55 -71t32 -35t12.5 -61.5v-32q0 -27 -4 -35q-4 -4 -23.5 -14.5t-28.5 -10.5q-47 0 -87 23.5t-73.5 58.5t-59 77t-44.5 77q-63 -39 -96 -101.5t-68.5 -122t-91 -102.5t-159 -43t-162 41t-89 102.5t-38.5 140t-8 158.5q0 31 -1 90.5zM287 1526 q0 47 22.5 75.5t71.5 28.5q53 0 101 -31.5t48 -89.5q0 -49 -28.5 -71.5t-75.5 -22.5q-63 0 -101 24t-38 87zM791 1520q0 66 31.5 88t86.5 22q61 0 79 -12t18 -72q0 -43 -20.5 -87t-76.5 -44q-35 0 -76.5 34t-41.5 71z" />
<glyph unicode="&#x2c6;" horiz-adv-x="950" d="M25 963q0 23 6 42t24 37q70 78 137.5 145.5t142.5 119t163 80t196 28.5q35 0 81 -24.5t82 -64.5t56.5 -87t8.5 -92q0 -2 -10.5 -13.5t-22.5 -23.5t-24.5 -23.5t-20.5 -17.5q0 -2 -15 -2q-45 0 -64.5 24.5t-32.5 55.5t-33.5 55.5t-65.5 24.5q-80 0 -150.5 -34t-133 -85 t-116 -112.5t-100.5 -110.5q-4 0 -13 -1t-11 -1q-35 0 -59.5 23.5t-24.5 56.5z" />
<glyph unicode="&#x2dc;" horiz-adv-x="1384" d="M27 424q0 51 37.5 117.5t94 126t123 99.5t128.5 40q61 0 110 -20.5t97.5 -47t99.5 -47t119 -20.5q121 0 190.5 26.5t105 63.5t49 83t21.5 83t22.5 63.5t53.5 26.5q16 0 36.5 -2t26.5 -27q0 -8 1 -25.5t1 -39.5v-41v-27q0 -113 -51 -187.5t-134 -121.5t-183.5 -66.5 t-200.5 -19.5q-55 0 -103 25.5t-92 55t-89.5 55.5t-94.5 26q-55 0 -87 -46.5t-58.5 -99.5t-58 -99t-82.5 -46q-37 0 -59.5 30.5t-22.5 61.5z" />
<glyph unicode="&#x2000;" horiz-adv-x="963" />
<glyph unicode="&#x2001;" horiz-adv-x="1927" />
<glyph unicode="&#x2002;" horiz-adv-x="963" />
<glyph unicode="&#x2003;" horiz-adv-x="1927" />
<glyph unicode="&#x2004;" horiz-adv-x="642" />
<glyph unicode="&#x2005;" horiz-adv-x="481" />
<glyph unicode="&#x2006;" horiz-adv-x="321" />
<glyph unicode="&#x2007;" horiz-adv-x="321" />
<glyph unicode="&#x2008;" horiz-adv-x="240" />
<glyph unicode="&#x2009;" horiz-adv-x="385" />
<glyph unicode="&#x200a;" horiz-adv-x="107" />
<glyph unicode="&#x2010;" horiz-adv-x="1003" d="M27 547q0 16 19.5 42.5t33.5 37.5q78 23 144.5 35t131 16t131.5 4h146h49q39 0 81 -1t77 -1h55q4 0 20.5 -8t37 -22.5t20.5 -22.5q0 -27 -32 -59.5t-46 -45.5q-41 -6 -145.5 -16t-222 -22.5t-221 -26t-146.5 -15.5h-17q-16 0 -35.5 9.5t-37 25t-30.5 34t-13 36.5z" />
<glyph unicode="&#x2011;" horiz-adv-x="1003" d="M27 547q0 16 19.5 42.5t33.5 37.5q78 23 144.5 35t131 16t131.5 4h146h49q39 0 81 -1t77 -1h55q4 0 20.5 -8t37 -22.5t20.5 -22.5q0 -27 -32 -59.5t-46 -45.5q-41 -6 -145.5 -16t-222 -22.5t-221 -26t-146.5 -15.5h-17q-16 0 -35.5 9.5t-37 25t-30.5 34t-13 36.5z" />
<glyph unicode="&#x2012;" horiz-adv-x="1003" d="M27 547q0 16 19.5 42.5t33.5 37.5q78 23 144.5 35t131 16t131.5 4h146h49q39 0 81 -1t77 -1h55q4 0 20.5 -8t37 -22.5t20.5 -22.5q0 -27 -32 -59.5t-46 -45.5q-41 -6 -145.5 -16t-222 -22.5t-221 -26t-146.5 -15.5h-17q-16 0 -35.5 9.5t-37 25t-30.5 34t-13 36.5z" />
<glyph unicode="&#x2013;" horiz-adv-x="1280" d="M27 602q39 70 394 89.5t503.5 19.5t229.5 -4.5t77 -71t-101.5 -71.5t-168 -13t-326.5 -25.5t-430 -4.5t-178 81z" />
<glyph unicode="&#x2014;" horiz-adv-x="2465" d="M27 575q0 31 26.5 52.5t55.5 27.5q33 2 103.5 10.5t157.5 15.5t185 17.5t185 16.5t158 10t103 8q8 0 64.5 1t127.5 2t142 1h113h250t222.5 -6t224 -24.5t251.5 -51.5q23 -8 26 -22.5t3 -30.5t-3 -31.5t-26 -19.5q-10 0 -36.5 -2t-55.5 -2h-55h-37q-188 0 -371.5 15.5 t-376.5 15.5q-166 0 -330.5 -16.5t-329.5 -37t-330 -37t-331 -16.5q-16 0 -35.5 9t-37 24.5t-30.5 33t-13 37.5z" />
<glyph unicode="&#x2018;" horiz-adv-x="333" d="M53 1524q0 41 1 101.5t16.5 114.5t47.5 93t93 39q57 0 69.5 -18.5t12.5 -75.5q0 -92 -27.5 -177t-27.5 -178q0 -70 14 -135t14 -135q0 -29 -19.5 -38t-47.5 -9q-47 0 -76 56.5t-44.5 129t-20.5 141t-5 91.5z" />
<glyph unicode="&#x2019;" horiz-adv-x="321" d="M25 1759q0 39 14 79t70 40q43 0 77.5 -49t58 -113.5t36 -128t12.5 -96.5q0 -31 -11.5 -74t-31 -82t-49 -66.5t-66.5 -27.5q-16 0 -32.5 4t-22.5 27q8 72 1 132t-19.5 115.5t-24.5 114t-12 125.5z" />
<glyph unicode="&#x201a;" horiz-adv-x="372" d="M27 -459q0 35 17 78t37.5 93t37 108.5t16.5 124.5q0 41 -8 75.5t-19.5 67.5t-19.5 66.5t-8 72.5q0 47 20.5 57.5t59.5 10.5q53 0 88 -29.5t56.5 -76t31.5 -95.5t10 -92q0 -51 -16.5 -136t-50 -166t-86 -139.5t-127.5 -58.5q-39 0 -39 39z" />
<glyph unicode="&#x201c;" horiz-adv-x="768" d="M23 1317v26q0 55 8 153.5t32.5 194t67.5 166t109 70.5q35 0 58.5 -23.5t23.5 -56.5q0 -25 -4.5 -33t-13.5 -17t-18.5 -25.5t-19.5 -57.5q-39 -133 -69.5 -274.5t-12.5 -278.5q-35 -29 -65 -28h-10q-12 10 -42 39.5t-40 41.5q0 8 -1 25.5t-2 38t-1 39.5zM498 1509 q0 39 5 85t22.5 84t49 63.5t87.5 25.5q25 0 53 -25.5t22 -55.5q0 -4 -8 -19.5t-17.5 -32t-17.5 -33t-8 -20.5q0 -2 -2 -32.5t-2 -45.5q0 -74 29.5 -140.5t29.5 -137.5q0 -27 -37.5 -46.5t-58.5 -19.5q-51 0 -79.5 42t-44 100.5t-19.5 116.5t-4 91z" />
<glyph unicode="&#x201d;" horiz-adv-x="583" d="M25 1724q0 47 18 57.5t66 10.5q49 0 80.5 -30.5t50 -76t23.5 -96.5t5 -96q0 -39 -8 -83t-27.5 -84t-52.5 -66.5t-86 -26.5q-68 0 -67 70v14q4 8 11 33.5t16 57.5t16.5 58.5t9.5 34.5v15q0 55 -27.5 104t-27.5 104zM342 1491q0 35 2 70.5t11.5 63.5t32 44.5t63.5 16.5 q39 0 70.5 -14.5t31.5 -61.5v-31q0 -25 -4 -84t-8 -125.5t-8.5 -126t-4.5 -84.5q-14 -23 -41.5 -38t-52.5 -15h-10q-10 6 -28.5 26.5t-24.5 26.5q-8 63 -18.5 156.5t-10.5 175.5z" />
<glyph unicode="&#x201e;" horiz-adv-x="544" d="M27 -260q0 2 9 19.5t18 34t17.5 31.5t8.5 19q2 16 2 60v86v88t-2 57q-6 23 1 35t21.5 16t26.5 4h27q35 0 51 -17t27.5 -38.5t18.5 -38t23 -16.5t28.5 10t23 19.5t22.5 18.5t35 9q29 0 52.5 -8t37.5 -47q12 -55 17.5 -96t8.5 -78t3 -80v-88v-27v-39q0 -23 -2 -41t-2 -26 q0 -10 -20.5 -29.5t-30.5 -21.5q-14 -4 -45 6t-33 20q-53 211 -57.5 212t-6.5 1q-25 0 -46 -17.5t-41.5 -39t-45 -37.5t-57.5 -16q-23 0 -56.5 7t-33.5 48z" />
<glyph unicode="&#x2022;" horiz-adv-x="331" d="M25 641q0 55 35.5 101t99.5 46q53 0 93 -22.5t40 -77.5q0 -70 -43 -131t-121 -61q-49 0 -76.5 51t-27.5 94z" />
<glyph unicode="&#x2026;" horiz-adv-x="1660" d="M27 141q0 61 37.5 79t85.5 18q49 0 83.5 -19.5t34.5 -77.5q0 -49 -31.5 -72.5t-78.5 -23.5q-41 0 -86 20.5t-45 75.5zM655 72q0 111 109 110q66 0 86 -41t20 -104q0 -18 -13 -32.5t-32.5 -29t-40 -22.5t-34.5 -8q-55 0 -75 44t-20 83zM1419 119q0 45 38 81t83 36 q16 0 32.5 -14.5t31 -34t22.5 -40t8 -34.5q0 -55 -46 -75t-87 -20q-53 0 -67.5 27t-14.5 74z" />
<glyph unicode="&#x202f;" horiz-adv-x="385" />
<glyph unicode="&#x2039;" horiz-adv-x="792" d="M25 418q0 88 54 171t129 156.5t155.5 133t136.5 100.5q8 6 27.5 15.5t25.5 9.5q37 0 46 -13.5t9 -36.5q0 -59 -28.5 -104t-73.5 -83t-97.5 -71.5t-96.5 -71.5t-72.5 -82t-28.5 -102q0 -37 20.5 -61.5t59.5 -30.5l446 -53q6 -2 16.5 -11.5t10.5 -15.5q0 -47 -29.5 -75.5 t-70.5 -48t-85 -26.5t-79 -7q-72 0 -155 16t-154.5 52t-118.5 94.5t-47 144.5z" />
<glyph unicode="&#x203a;" horiz-adv-x="874" d="M27 1100v12q10 10 39.5 41t42.5 39h10h14q14 -4 35.5 -8t42 -8.5t36 -6.5t19.5 -2l471 -237q47 -23 78 -73t31 -99q0 -37 -26.5 -102.5t-68.5 -146.5t-97.5 -165t-113 -153.5t-112.5 -113.5t-98 -44q-31 0 -49.5 24.5t-18.5 53.5q0 82 50 148.5t110.5 130t111 134 t50.5 158.5q0 59 -42 98t-102.5 66.5t-134.5 49.5t-134 49.5t-102 63t-42 91.5z" />
<glyph unicode="&#x205f;" horiz-adv-x="481" />
<glyph unicode="&#x2122;" horiz-adv-x="2043" d="M25 1180q0 14 52 50t134 80t179 91t185.5 88t153 65.5t84.5 24.5q43 0 76 -14.5t61.5 -31.5t59 -36.5t71.5 -28.5h23h41h41h24q43 -8 76 -34.5t63.5 -54t62.5 -49t73 -21.5q53 0 78.5 36.5t45 83t46 84t84.5 37.5q68 0 117 -74.5t82.5 -171t50 -187.5t16.5 -124 q0 -39 -16.5 -72.5t-63.5 -33.5q-55 0 -90 38t-58.5 90t-39 106.5t-25.5 84.5q-39 -23 -55.5 -65.5t-31.5 -88.5t-37.5 -79t-71.5 -33q-70 0 -110 46t-67.5 101.5t-51 100.5t-62.5 45q-25 0 -43.5 -31t-22.5 -49q-4 -16 -8 -51t-8 -72t-7 -68.5t-3 -43.5q0 -2 5 -14.5t9 -25 t8 -25.5t4 -15v-15q0 -23 -7 -47t-21.5 -45.5t-34 -37t-43.5 -15.5q-39 0 -69 43t-55.5 108.5t-44 147.5t-33.5 157.5t-23.5 138t-12.5 91.5q-2 2 -14 2h-10q-39 0 -82 -19.5t-77 -51t-57.5 -70.5t-23.5 -78q0 -98 28.5 -195.5t28.5 -193.5q0 -33 -31.5 -55.5t-62.5 -22.5 q-27 0 -44 30.5t-21 49.5q-20 53 -34 94t-24 82t-14 86t-6 106q-14 27 -39 27q-53 0 -100.5 -27.5t-98.5 -27.5q-37 0 -72.5 21.5t-35.5 58.5z" />
<glyph unicode="&#x25fc;" horiz-adv-x="1208" d="M0 0v1208h1208v-1208h-1208z" />
</font>
</defs>
</svg>
