<?xml version="1.0" encoding="UTF-8" standalone="no"?>
<!DOCTYPE svg  PUBLIC '-//W3C//DTD SVG 1.1//EN'  'http://www.w3.org/Graphics/SVG/1.1/DTD/svg11.dtd'>
<svg xmlns="http://www.w3.org/2000/svg">
<defs>
<font id="Aileron-SemiBold" horiz-adv-x="601">
<font-face underline-position="-50" font-weight="600" descent="-200" panose-1="0 0 7 0 0 0 0 0 0 0" units-per-em="1000" unicode-range="U+0020-25CA" bbox="-138 -213 1073 889" x-height="527" underline-thickness="50" font-family="Aileron" ascent="800" cap-height="690"/>
<missing-glyph horiz-adv-x="1000"/>
<glyph glyph-name=".notdef" horiz-adv-x="1000"/>
<glyph glyph-name=".null" horiz-adv-x="0"/>
<glyph glyph-name="nonmarkingreturn" horiz-adv-x="333"/>
<glyph glyph-name="space" horiz-adv-x="206" unicode=" "/>
<glyph glyph-name="exclam" horiz-adv-x="252" unicode="!" d="M126 127q31 0 50.5 -20t19.5 -51t-19.5 -50.5t-50.5 -19.5t-51 19.5t-20 50.5t20 51t51 20zM172 188h-93l-12 502h117z"/>
<glyph glyph-name="quotedbl" horiz-adv-x="357" unicode='&quot;' d="M318 474h-82l-12 261h105zM165 474h-82l-11 261h105z"/>
<glyph glyph-name="numbersign" d="M359 410h-90l-27 -129h90zM428 410l-27 -129h99v-66h-113l-46 -215h-69l46 215h-90l-46 -215h-69l46 215h-89v66h103l27 129h-100v66h114l46 214h69l-46 -214h90l46 214h69l-46 -214h88v-66h-102z" unicode="#"/>
<glyph glyph-name="dollar" d="M340 289v-219q97 13 97 103q0 82 -97 116zM186 520q0 -43 20.5 -67t65.5 -39v206q-86 -15 -86 -100zM549 183q0 -83 -58 -134.5t-151 -60.5v-78h-68v77q-99 8 -158 60.5t-64 142.5h112q6 -48 34.5 -79t75.5 -40v232q-98 29 -147 75t-49 128q0 85 54.5 136t141.5 60v78h68 v-77q91 -9 142.5 -62.5t61.5 -136.5h-112q-11 99 -92 116v-218q113 -36 161 -86.5t48 -132.5z" unicode="$"/>
<glyph glyph-name="percent" horiz-adv-x="751" unicode="%" d="M561 243q-28 0 -44.5 -24.5t-16.5 -70.5t16.5 -71t44.5 -25q29 0 45 25t16 71t-16 70.5t-45 24.5zM561 309q70 0 110.5 -43t40.5 -118t-40.5 -118.5t-110.5 -43.5q-69 0 -110 43.5t-41 118.5t41 118t110 43zM190 635q-29 0 -45 -24.5t-16 -70.5t16 -71t45 -25 q28 0 44.5 25t16.5 71t-16.5 70.5t-44.5 24.5zM201 0h-96l448 690h96zM190 701q69 0 110 -43t41 -118t-41 -118.5t-110 -43.5q-70 0 -110.5 43.5t-40.5 118.5t40.5 118t110.5 43z"/>
<glyph glyph-name="ampersand" horiz-adv-x="663" unicode="&amp;" d="M178 190q0 -65 38 -92.5t121 -27.5q51 0 98 8v228h-53q-39 0 -59 -1q-74 -6 -109.5 -37t-35.5 -78zM640 394v-88h-95v-297q-102 -23 -210 -23q-132 0 -204 42.5t-72 145.5q0 66 43.5 114.5t117.5 63.5q-59 15 -94 56t-35 99q0 90 68.5 143.5t181.5 53.5q65 0 115 -10v-84 q-51 10 -116 10q-62 0 -96 -29.5t-34 -82.5q0 -108 115 -113q18 -1 61 -1h49v103h110v-103h95z"/>
<glyph glyph-name="quotesingle" horiz-adv-x="187" unicode="&apos;" d="M133 474h-82l-11 261h105z"/>
<glyph glyph-name="parenleft" horiz-adv-x="337" unicode="(" d="M235 780h65q-122 -197 -122 -430t122 -430h-65q-62 84 -96 195.5t-34 234.5q0 254 130 430z"/>
<glyph glyph-name="parenright" horiz-adv-x="336" unicode=")" d="M32 780h65q130 -176 130 -430q0 -123 -34 -234.5t-96 -195.5h-65q122 197 122 430t-122 430z"/>
<glyph glyph-name="asterisk" horiz-adv-x="578" unicode="*" d="M316 305l147 59l23 -72l-153 -38l110 -131l-61 -45l-93 146l-93 -146l-61 45l110 131l-153 38l23 72l147 -59l-11 170h76z"/>
<glyph glyph-name="plus" d="M514 284h-179v-201h-69v201h-179v64h179v203h69v-203h179v-64z" unicode="+"/>
<glyph glyph-name="comma" horiz-adv-x="232" unicode="," d="M160 108l-94 -229h-96l79 239h111v-10z"/>
<glyph glyph-name="hyphen" horiz-adv-x="284" unicode="-" d="M252 250h-220v66h220v-66z"/>
<glyph glyph-name="period" horiz-adv-x="232" unicode="." d="M111 132q32 0 52.5 -20.5t20.5 -52.5q0 -31 -21 -52t-52 -21q-32 0 -52.5 20.5t-20.5 52.5t20.5 52.5t52.5 20.5z"/>
<glyph glyph-name="slash" horiz-adv-x="314" unicode="/" d="M68 -30h-73l251 750h73z"/>
<glyph glyph-name="zero" d="M300 70q139 0 139 275q0 138 -33 206.5t-106 68.5q-139 0 -139 -275t139 -275zM300 704q258 0 258 -359t-258 -359t-258 359t258 359z" unicode="0"/>
<glyph glyph-name="one" d="M432 690v-690h-110v575l-195 -112v108l152 93q44 26 92 26h61z" unicode="1"/>
<glyph glyph-name="two" d="M224 88h317v-88h-481v56l241 243q69 68 97 111.5t28 90.5q0 53 -29.5 86.5t-83.5 33.5q-113 0 -127 -141l-1 -10h-110l1 10q10 109 74.5 167t174.5 58q106 0 163 -54.5t57 -139.5q0 -66 -37 -123t-132 -150z" unicode="2"/>
<glyph glyph-name="three" d="M411 366q141 -35 141 -171q0 -95 -73.5 -152t-184.5 -57q-110 0 -175 52.5t-76 159.5l-1 10h110l1 -10q7 -62 46.5 -95t99.5 -33t97 32.5t37 87.5q0 118 -151 119h-20v81l20 1q60 1 97.5 33.5t37.5 89.5q0 48 -30 77t-80 29q-52 0 -86 -32.5t-40 -90.5l-1 -10h-109l1 10 q9 95 73.5 151t173.5 56q101 0 159 -49.5t58 -127.5q0 -60 -33 -102t-92 -59z" unicode="3"/>
<glyph glyph-name="four" d="M372 257v299q-29 -51 -52 -81l-157 -218h209zM568 169h-87v-169h-109v169h-338v57l334 464h113v-433h87v-88z" unicode="4"/>
<glyph glyph-name="five" d="M325 459q110 0 170 -64t60 -169q0 -111 -74.5 -175.5t-179.5 -64.5q-222 0 -243 200l-1 10h110l1 -10q23 -116 130 -116q64 0 101 40.5t37 110.5t-36 112t-99 42q-88 0 -130 -89h-103l49 404h409v-87h-320l-28 -219l39 47q47 28 108 28z" unicode="5"/>
<glyph glyph-name="six" d="M299 70q60 0 97 42.5t37 109.5q0 71 -34 115t-101 44q-55 0 -92.5 -41.5t-37.5 -115.5q0 -67 36 -110.5t95 -43.5zM324 465q107 0 167.5 -64t60.5 -166q0 -112 -72.5 -180.5t-180.5 -68.5q-253 0 -253 331q0 192 77 289.5t198 97.5q94 0 153.5 -51t69.5 -138l1 -10h-114 l-2 10q-24 105 -116 105q-141 0 -151 -259l37 62q50 42 125 42z" unicode="6"/>
<glyph glyph-name="seven" d="M558 690v-55l-338 -635h-118l325 603h-375v87h506z" unicode="7"/>
<glyph glyph-name="eight" d="M302 69q67 0 100.5 33.5t33.5 90.5q0 54 -34 89t-101 35t-102 -35t-35 -89q0 -56 35.5 -90t102.5 -34zM307 620q-55 0 -85 -30t-30 -78q0 -50 29.5 -80.5t84.5 -30.5t85.5 30.5t30.5 80.5q0 48 -30 78t-85 30zM423 365q57 -18 94.5 -63.5t37.5 -107.5q0 -55 -21 -96 t-57.5 -65t-81 -36t-95.5 -12q-114 0 -184 51t-70 158q0 62 39 107.5t97 63.5q-48 18 -76.5 56.5t-28.5 94.5q0 86 62 137t168 51q107 0 168.5 -51t61.5 -137q0 -56 -31.5 -94.5t-82.5 -56.5z" unicode="8"/>
<glyph glyph-name="nine" d="M302 309q56 0 93.5 41.5t37.5 115.5q0 67 -36 110.5t-95 43.5q-60 0 -97 -42.5t-37 -109.5q0 -70 34 -114.5t100 -44.5zM301 704q254 0 254 -331q0 -192 -77 -289.5t-198 -97.5q-95 0 -155 51.5t-68 138.5l-1 10h114l2 -10q22 -106 116 -106q141 0 151 259l-37 -62 q-52 -42 -125 -42q-107 0 -167.5 64t-60.5 166q0 112 72 180.5t180 68.5z" unicode="9"/>
<glyph glyph-name="colon" horiz-adv-x="232" unicode=":" d="M111 132q32 0 52.5 -20.5t20.5 -52.5q0 -31 -21 -52t-52 -21q-32 0 -52.5 20.5t-20.5 52.5t20.5 52.5t52.5 20.5zM111 545q32 0 52.5 -20.5t20.5 -52.5t-21 -52.5t-52 -20.5q-32 0 -52.5 20.5t-20.5 52.5t20.5 52.5t52.5 20.5z"/>
<glyph glyph-name="semicolon" horiz-adv-x="232" unicode=";" d="M161 112l-95 -233h-96l79 247h112v-14zM111 545q32 0 52.5 -20.5t20.5 -52.5t-21 -52.5t-52 -20.5q-32 0 -52.5 20.5t-20.5 52.5t20.5 52.5t52.5 20.5z"/>
<glyph glyph-name="less" d="M523 422l-348 -156l348 -156v-82l-419 195v85l419 195v-81z" unicode="&lt;"/>
<glyph glyph-name="equal" d="M519 184h-437v64h437v-64zM519 384h-437v64h437v-64z" unicode="="/>
<glyph glyph-name="greater" d="M487 308v-85l-418 -195v80l347 156l-347 156v83z" unicode="&gt;"/>
<glyph glyph-name="question" horiz-adv-x="522" unicode="?" d="M253 127q31 0 51 -20t20 -51t-20 -50.5t-51 -19.5t-50.5 19.5t-19.5 50.5t19.5 51t50.5 20zM269 704q102 0 159.5 -51t57.5 -134q0 -54 -25 -100.5t-80 -98.5q-44 -42 -59.5 -68.5t-18.5 -63.5h-101q4 47 20 81t56 79q51 57 70 92t19 75q0 49 -27 77t-76 28 q-52 0 -83 -33.5t-35 -97.5h-112q3 99 67 157t168 58z"/>
<glyph glyph-name="at" horiz-adv-x="872" unicode="@" d="M496 250l11 47q5 20 5 43q0 65 -58 65q-51 0 -82 -49t-31 -117q0 -90 59 -90q34 0 60 29.5t36 71.5zM651 467l-55 -231q-8 -32 -8 -52q0 -43 39 -43q47 0 81 50t34 141q0 130 -75 202t-192 72q-65 0 -127 -24.5t-112 -68.5t-80.5 -113.5t-30.5 -151.5q0 -139 79.5 -215.5 t208.5 -76.5q140 0 244 76l27 -58q-128 -86 -277 -86q-69 0 -131 22t-113 64t-81 112t-30 159q0 127 61 226.5t157.5 151t207.5 51.5q152 0 244.5 -95t92.5 -243q0 -131 -62.5 -197t-150.5 -66q-96 0 -113 80l-23 -47q-46 -37 -97 -37q-58 0 -99 39t-41 124q0 103 59.5 178 t150.5 75q58 0 85 -30l10 -52l19 64h98z"/>
<glyph glyph-name="A" horiz-adv-x="656" unicode="A" d="M244 315h187l-91 284zM460 228h-245l-75 -228h-117l248 690h142l241 -690h-119z"/>
<glyph glyph-name="B" horiz-adv-x="641" unicode="B" d="M388 89q45 4 73 32.5t28 77.5q0 100 -102 112q-20 3 -52 3h-130v-226h136q34 0 47 1zM205 603v-204h120q28 0 52 4q87 14 87 101q0 86 -94 96q-24 3 -52 3h-113zM467 369q138 -34 138 -165q0 -88 -53 -138t-130 -61q-34 -5 -92 -5h-235v690h223q56 0 90 -4 q83 -11 127.5 -54.5t44.5 -115.5q0 -109 -113 -147z"/>
<glyph glyph-name="C" horiz-adv-x="708" unicode="C" d="M379 704q130 0 203.5 -64.5t84.5 -171.5l1 -10h-109l-2 10q-31 152 -180 152q-95 0 -152 -75t-57 -198q0 -127 56 -202t148 -75q75 0 120 40.5t60 113.5l2 10h109l-1 -10q-11 -106 -88 -172t-207 -66q-146 0 -232 98.5t-86 257.5q0 162 92 262t238 100z"/>
<glyph glyph-name="D" horiz-adv-x="719" unicode="D" d="M383 92q85 12 134 80t49 181q0 107 -47.5 170t-131.5 75q-27 5 -79 5h-103v-515h99q57 0 79 4zM406 686q126 -15 202 -99t76 -234t-78.5 -241.5t-203.5 -107.5q-35 -4 -88 -4h-219v690h223q53 0 88 -4z"/>
<glyph glyph-name="E" horiz-adv-x="600" unicode="E" d="M572 88v-88h-477v690h467v-87h-357v-214h329v-87h-329v-214h367z"/>
<glyph glyph-name="F" horiz-adv-x="579" unicode="F" d="M205 603v-214h319v-87h-319v-302h-110v690h467v-87h-357z"/>
<glyph glyph-name="G" horiz-adv-x="722" unicode="G" d="M402 342h261v-342h-92l-4 117l-31 -67q-59 -64 -174 -64q-146 0 -229.5 98t-83.5 258q0 162 93 262t239 100q131 0 204.5 -64.5t84.5 -171.5l1 -10h-110l-2 10q-29 152 -180 152q-96 0 -153.5 -75t-57.5 -198q0 -127 56.5 -202t149.5 -75q77 0 127.5 50.5t54.5 133.5 h-154v88z"/>
<glyph glyph-name="H" horiz-adv-x="740" unicode="H" d="M668 690v-690h-109v294h-354v-294h-110v690h110v-307h354v307h109z"/>
<glyph glyph-name="I" horiz-adv-x="277" unicode="I" d="M205 0h-110v690h110v-690z"/>
<glyph glyph-name="J" horiz-adv-x="568" unicode="J" d="M513 690v-417q0 -50 -3 -89q-5 -92 -63.5 -145t-169.5 -53q-105 0 -162.5 58t-60.5 160l-1 38h110l2 -38q7 -134 122 -134q105 0 115 121q1 21 1 77v422h110z"/>
<glyph glyph-name="K" horiz-adv-x="643" unicode="K" d="M346 356l294 -356h-147l-227 288l-61 -66v-222h-110v690h110v-351l321 351h130z"/>
<glyph glyph-name="L" horiz-adv-x="588" unicode="L" d="M572 91v-91h-477v690h110v-599h367z"/>
<glyph glyph-name="M" horiz-adv-x="880" unicode="M" d="M808 690v-690h-109v339q0 174 2 247q-32 -118 -75 -246l-111 -340h-127l-112 341q-48 147 -73 244q2 -74 2 -246v-339h-110v690h177l182 -592l182 592h172z"/>
<glyph glyph-name="N" horiz-adv-x="737" unicode="N" d="M665 0h-158l-306 569q4 -105 4 -239v-330h-110v690h155l309 -573q-3 117 -3 241v332h108z"/>
<glyph glyph-name="O" horiz-adv-x="750" unicode="O" d="M382 70q100 0 157 73.5t57 201.5q0 129 -57 202t-157 73q-101 0 -158 -73t-57 -202t57 -202t158 -73zM382 704q156 0 244 -98t88 -261t-88 -261t-244 -98t-244.5 98t-88.5 261t88 261t245 98z"/>
<glyph glyph-name="P" horiz-adv-x="610" unicode="P" d="M394 365q39 7 63 35.5t24 80.5t-24 80.5t-63 35.5q-24 4 -70 4h-119v-240h119q46 0 70 4zM415 686q84 -11 133 -63.5t49 -141.5q0 -88 -51.5 -141.5t-130.5 -63.5q-32 -4 -94 -4h-116v-272h-110v690h226q62 0 94 -4z"/>
<glyph glyph-name="Q" horiz-adv-x="748" unicode="Q" d="M167 345q0 -129 57 -202t158 -73q100 0 157 73.5t57 201.5q0 129 -57 202t-157 73q-101 0 -158 -73t-57 -202zM595 87q61 -11 126 -65l-59 -73q-48 32 -77 42.5t-59 10.5q-31 0 -73 -9q-31 -7 -71 -7q-156 0 -244.5 98t-88.5 261t88 261t245 98q156 0 244 -98t88 -261 q0 -81 -30.5 -148.5t-88.5 -109.5z"/>
<glyph glyph-name="R" horiz-adv-x="635" unicode="R" d="M205 373h115q45 0 62 2q48 5 76.5 33t28.5 80q0 98 -96 111q-24 4 -64 4h-122v-230zM570 178q12 -129 48 -178h-121q-24 60 -35 164q-15 118 -99 123q-17 1 -51 1h-107v-288h-110v690h238q62 0 95 -4q175 -23 175 -184q0 -64 -35 -105.5t-93 -59.5q83 -36 95 -159z"/>
<glyph glyph-name="S" horiz-adv-x="595" unicode="S" d="M316 704q110 0 170.5 -57.5t71.5 -152.5h-114q-6 60 -40.5 93t-93.5 33q-51 0 -83.5 -24t-32.5 -71q0 -50 33.5 -77t114.5 -46q115 -27 169.5 -78.5t54.5 -136.5q0 -91 -70.5 -146t-174.5 -55q-119 0 -191 55.5t-82 158.5h114q13 -63 55 -96.5t104 -33.5q55 0 92 28 t37 74q0 54 -35 85t-119 50q-108 25 -163 70.5t-55 129.5q0 89 69 143t169 54z"/>
<glyph glyph-name="T" horiz-adv-x="617" unicode="T" d="M620 603h-241v-603h-109v603h-241v87h591v-87z"/>
<glyph glyph-name="U" horiz-adv-x="691" unicode="U" d="M629 690v-423q0 -45 -2 -71q-8 -93 -74.5 -151.5t-194.5 -58.5t-194.5 58.5t-73.5 151.5q-2 26 -2 71v423h109v-425q0 -40 2 -56q5 -64 46 -101.5t113 -37.5q73 0 114 37.5t46 101.5q2 16 2 56v425h109z"/>
<glyph glyph-name="V" horiz-adv-x="652" unicode="V" d="M415 0h-142l-241 690h119l195 -606l200 606h117z"/>
<glyph glyph-name="W" horiz-adv-x="968" unicode="W" d="M966 690l-188 -690h-145l-138 588l-145 -588h-146l-178 690h121l132 -599l143 589h151l139 -592l140 602h114z"/>
<glyph glyph-name="X" horiz-adv-x="648" unicode="X" d="M519 0l-188 279l-180 -279h-129l247 348l-229 342h126l170 -270l177 270h126l-240 -339l248 -351h-128z"/>
<glyph glyph-name="Y" horiz-adv-x="602" unicode="Y" d="M371 270v-270h-109v270l-244 420h125l178 -319l172 319h122z"/>
<glyph glyph-name="Z" horiz-adv-x="605" unicode="Z" d="M581 88v-88h-533v84l400 519h-372v87h500v-86l-397 -516h402z"/>
<glyph glyph-name="bracketleft" horiz-adv-x="333" unicode="[" d="M291 780v-66h-122v-728h122v-66h-190v860h190z"/>
<glyph glyph-name="backslash" horiz-adv-x="314" unicode="\" d="M319 -30h-73l-251 750h73z"/>
<glyph glyph-name="bracketright" horiz-adv-x="324" unicode="]" d="M223 -80h-190v66h122v728h-122v66h190v-860z"/>
<glyph glyph-name="asciicircum" d="M435 215l-134 335l-135 -335h-80l174 401h80l174 -401h-79z" unicode="^"/>
<glyph glyph-name="underscore" horiz-adv-x="500" unicode="_" d="M450 -87h-400v66h400v-66z"/>
<glyph glyph-name="grave" horiz-adv-x="300" unicode="`" d="M191 578h-66l-102 114h100z"/>
<glyph glyph-name="a" horiz-adv-x="545" unicode="a" d="M246 66q53 0 85.5 35t32.5 98v49q-32 2 -46 2q-167 0 -167 -102q0 -82 95 -82zM375 0l-10 77l-27 -57q-49 -34 -132 -34q-74 0 -122.5 40.5t-48.5 112.5q0 182 295 182h34v13q0 38 -2 58q-5 73 -93 73q-94 0 -103 -102h-110q5 86 64 134t151 48q185 0 200 -148 q3 -33 3 -75v-187q0 -61 10 -135h-109z"/>
<glyph glyph-name="b" horiz-adv-x="626" unicode="b" d="M327 66q69 0 111.5 51.5t42.5 147.5q0 89 -39.5 144.5t-109.5 55.5q-67 0 -110 -47t-43 -147v-27q0 -90 44 -134t104 -44zM358 545q111 0 175 -75.5t64 -194.5q0 -139 -73.5 -214t-183.5 -75q-84 0 -126 33l-35 53v-72h-110v735h110v-287l40 57q48 40 139 40z"/>
<glyph glyph-name="c" horiz-adv-x="544" unicode="c" d="M286 545q99 0 160.5 -54.5t71.5 -143.5h-111q-23 118 -124 118q-61 0 -99.5 -49.5t-38.5 -144.5q0 -103 37.5 -154t96.5 -51q48 0 80 28t44 82h112q-18 -93 -82 -141.5t-160 -48.5q-109 0 -176.5 70.5t-67.5 206.5q0 131 74 206.5t183 75.5z"/>
<glyph glyph-name="d" horiz-adv-x="629" unicode="d" d="M293 66q68 0 111 47t43 147v28q0 89 -44 133t-105 44q-68 0 -110.5 -51.5t-42.5 -147.5q0 -89 39 -144.5t109 -55.5zM557 735v-735h-110v84l-40 -58q-50 -40 -139 -40q-111 0 -175 75.5t-64 195.5q0 139 73.5 213.5t183.5 74.5q84 0 126 -33l35 -53v276h110z"/>
<glyph glyph-name="e" horiz-adv-x="562" unicode="e" d="M285 465q-58 0 -95 -39t-46 -114h269q-6 74 -38.5 113.5t-89.5 39.5zM526 279q0 -25 -2 -44h-381q12 -169 139 -169q49 0 83 28t42 78h111q-17 -91 -83 -138.5t-157 -47.5q-111 0 -180 71t-69 207q0 126 72.5 203.5t187.5 77.5q112 0 174.5 -74.5t62.5 -191.5z"/>
<glyph glyph-name="f" horiz-adv-x="312" unicode="f" d="M190 618q-3 -21 -3 -51v-40h109v-77h-109v-450h-109v450h-57v77h57v34q0 45 2 63q7 62 48.5 96t115.5 34q34 0 61 -6v-82q-19 4 -39 4q-69 0 -76 -52z"/>
<glyph glyph-name="g" horiz-adv-x="629" unicode="g" d="M293 71q68 0 111 47t43 147v23q0 89 -44 133t-105 44q-68 0 -110.5 -50.5t-42.5 -145.5q0 -88 39 -143t109 -55zM557 531v-399q0 -74 -1 -103q-4 -119 -74 -180.5t-192 -61.5q-113 0 -175 45.5t-70 132.5l-1 10h108l1 -9q5 -44 41.5 -70t96.5 -26q72 0 112 38t43 109 q1 23 1 61v11l-40 -58q-50 -40 -136 -40q-113 0 -177.5 74.5t-64.5 193.5q0 138 73.5 212t183.5 74q84 0 126 -33l35 -53v72h110z"/>
<glyph glyph-name="h" horiz-adv-x="606" unicode="h" d="M538 393q3 -41 3 -94v-299h-110v287q0 48 -2 75q-9 102 -109 102h-3q-62 -2 -100 -55.5t-38 -170.5v-238h-110v740h110v-297l36 61q54 41 134 41q84 0 132.5 -40.5t56.5 -111.5z"/>
<glyph glyph-name="i" horiz-adv-x="251" unicode="i" d="M179 0h-110v531h110v-531zM124 716q28 0 46.5 -18t18.5 -45q0 -28 -18.5 -46t-46.5 -18t-46 18t-18 46q0 27 18 45t46 18z"/>
<glyph glyph-name="j" horiz-adv-x="245" unicode="j" d="M174 531v-562q0 -28 -2 -64q-5 -57 -40 -86t-108 -29q-32 0 -46 2v83q7 -1 20 -1q59 0 65 47q2 14 2 45v565h109zM120 716q29 0 46.5 -17t17.5 -46t-17.5 -46.5t-46.5 -17.5q-30 0 -47.5 17.5t-17.5 46.5t17.5 46t47.5 17z"/>
<glyph glyph-name="k" horiz-adv-x="550" unicode="k" d="M226 218l-47 -52v-166h-110v735h110v-460l232 256h135l-242 -249l245 -282h-143z"/>
<glyph glyph-name="l" horiz-adv-x="262" unicode="l" d="M175 735v-573q0 -34 1 -50q2 -20 11.5 -28.5t33.5 -8.5q11 0 18 1v-77q-37 -5 -72 -5q-96 0 -101 89q-1 20 -1 76v576h110z"/>
<glyph glyph-name="m" horiz-adv-x="883" unicode="m" d="M813 415q5 -34 5 -94v-321h-110v281q0 60 -4 96q-11 87 -99 87q-107 0 -107 -197v-267h-109v281q0 60 -4 96q-12 87 -99 87q-107 0 -107 -197v-267h-110v531h110v-79l36 62q39 31 113 31q61 0 101 -27.5t56 -73.5l49 70q41 31 113 31q71 0 114 -36t52 -94z"/>
<glyph glyph-name="n" horiz-adv-x="606" unicode="n" d="M538 393q3 -41 3 -94v-299h-110v287q0 48 -2 75q-9 102 -112 102q-62 0 -100 -54.5t-38 -171.5v-238h-110v531h110v-88l36 61q54 41 134 41q84 0 132.5 -40.5t56.5 -111.5z"/>
<glyph glyph-name="o" horiz-adv-x="595" unicode="o" d="M298 66q71 0 111.5 54.5t40.5 145.5t-40.5 145t-111.5 54q-72 0 -112.5 -54t-40.5 -145t40.5 -145.5t112.5 -54.5zM298 545q129 0 199 -78.5t70 -200.5t-70.5 -201t-198.5 -79q-129 0 -199 79t-70 201t70 200.5t199 78.5z"/>
<glyph glyph-name="p" horiz-adv-x="626" unicode="p" d="M327 66q69 0 111.5 51.5t42.5 147.5q0 89 -39.5 144.5t-109.5 55.5q-67 0 -110 -47t-43 -147v-27q0 -90 44 -134t104 -44zM358 545q111 0 175 -75.5t64 -194.5q0 -139 -73.5 -214t-183.5 -75q-84 0 -126 33l-35 53v-268h-110v727h110v-83l40 57q48 40 139 40z"/>
<glyph glyph-name="q" horiz-adv-x="629" unicode="q" d="M293 66q68 0 111 47t43 147v28q0 89 -44 133t-105 44q-68 0 -110.5 -51.5t-42.5 -147.5q0 -89 39 -144.5t109 -55.5zM557 531v-727h-110v280l-40 -58q-50 -40 -139 -40q-111 0 -175 75.5t-64 195.5q0 139 73.5 213.5t183.5 74.5q84 0 126 -33l35 -53v72h110z"/>
<glyph glyph-name="r" horiz-adv-x="353" unicode="r" d="M306 544q20 0 37 -6v-86q-3 0 -8.5 0.5t-8.5 0.5q-147 0 -147 -177v-276h-110v531h110v-90l45 73q38 30 82 30z"/>
<glyph glyph-name="s" horiz-adv-x="476" unicode="s" d="M240 545q89 0 141 -45.5t61 -120.5h-112q-17 89 -98 89q-38 0 -57.5 -19t-19.5 -50q0 -34 27.5 -53t90.5 -36q91 -23 134 -62.5t43 -107.5q0 -74 -58 -114t-149 -40q-92 0 -150.5 43t-69.5 130h111q18 -95 113 -95q40 0 66 17.5t26 50.5q0 34 -29 55.5t-97 39.5 q-81 21 -125 57.5t-44 101.5q0 74 53.5 116.5t142.5 42.5z"/>
<glyph glyph-name="t" horiz-adv-x="335" unicode="t" d="M200 450v-278q0 -30 1 -44q2 -33 16 -45.5t47 -12.5q7 0 33 2v-76q-42 -6 -81 -6q-62 0 -91 24t-33 77q-1 18 -1 71v288h-75v77h75v127h109v-127h104v-77h-104z"/>
<glyph glyph-name="u" horiz-adv-x="604" unicode="u" d="M532 531v-531h-109v91l-37 -66q-55 -39 -134 -39t-127.5 38.5t-58.5 96.5q-5 34 -5 94v316h109v-294q0 -37 4 -73q6 -45 35 -70.5t79 -25.5q62 0 98.5 51.5t36.5 161.5v250h109z"/>
<glyph glyph-name="v" horiz-adv-x="538" unicode="v" d="M535 531l-203 -531h-128l-203 531h121l149 -450l147 450h117z"/>
<glyph glyph-name="w" horiz-adv-x="806" unicode="w" d="M803 531l-169 -531h-126l-105 429l-106 -429h-127l-169 531h124l109 -433l103 432h134l106 -433l109 434h117z"/>
<glyph glyph-name="x" horiz-adv-x="509" unicode="x" d="M313 270l187 -270h-127l-126 200l-126 -200h-126l189 269l-182 262h129l121 -192l120 192h126z"/>
<glyph glyph-name="y" horiz-adv-x="537" unicode="y" d="M534 531l-216 -565q-37 -95 -83.5 -135.5t-118.5 -40.5q-36 0 -52 3v81q13 -1 35 -1q39 0 65 19t43 64l8 19l-214 556h123l146 -449l145 449h119z"/>
<glyph glyph-name="z" horiz-adv-x="478" unicode="z" d="M449 79v-79h-425v76l299 372h-279v79h401v-79l-297 -369h301z"/>
<glyph glyph-name="braceleft" horiz-adv-x="335" unicode="{" d="M293 714h-15q-41 0 -57.5 -11t-16.5 -36q0 -21 11 -97q13 -92 13 -118q0 -86 -85 -101q41 -7 63 -33.5t22 -69.5q0 -26 -13 -118q-11 -75 -11 -97q0 -25 16.5 -36t57.5 -11h15v-66h-21q-70 0 -103 24.5t-33 84.5q0 32 12 111q10 73 10 105t-18.5 50t-63.5 22v66 q45 4 63.5 22.5t18.5 49.5q0 32 -10 105q-12 79 -12 112q0 59 33 83.5t103 24.5h21v-66z"/>
<glyph glyph-name="bar" horiz-adv-x="266" unicode="|" d="M169 -200h-72v1000h72v-1000z"/>
<glyph glyph-name="braceright" horiz-adv-x="335" unicode="}" d="M259 383v-66q-45 -4 -63.5 -22t-18.5 -50t10 -105q12 -79 12 -111q0 -60 -33 -84.5t-103 -24.5h-21v66h15q41 0 57.5 11t16.5 36q0 22 -11 97q-13 92 -13 118q0 87 85 101q-40 7 -62.5 34t-22.5 69q0 26 13 118q11 76 11 97q0 25 -16.5 36t-57.5 11h-15v66h21 q70 0 103 -24.5t33 -83.5q0 -33 -12 -112q-10 -73 -10 -105q0 -31 18.5 -49.5t63.5 -22.5z"/>
<glyph glyph-name="asciitilde" d="M455 369h66q0 -146 -116 -146q-28 0 -50.5 8.5t-67.5 32.5q-65 35 -93 35q-48 0 -48 -76h-66q0 146 115 146q28 0 51 -8.5t68 -32.5q65 -35 93 -35q26 0 37 18.5t11 57.5z" unicode="~"/>
<glyph glyph-name="exclamdown" horiz-adv-x="252" unicode="¡" d="M79 343h93l12 -503h-117zM126 403q-31 0 -51 20t-20 51t20 50.5t51 19.5t50.5 -19.5t19.5 -50.5t-19.5 -51t-50.5 -20z"/>
<glyph glyph-name="cent" horiz-adv-x="586" unicode="¢" d="M164 270q0 -86 28.5 -135.5t75.5 -63.5v387q-47 -13 -75.5 -61t-28.5 -127zM336 461v-391q77 18 96 106h107q-16 -83 -69.5 -131t-133.5 -57v-78h-68v77q-97 9 -156 79.5t-59 196.5q0 116 60.5 189.5t154.5 88.5v79h68v-77q88 -7 142.5 -60.5t63.5 -136.5h-106 q-20 99 -100 115z"/>
<glyph glyph-name="sterling" d="M539 88v-88h-472v78q106 24 106 130q0 50 -22 102h-75v64h46q-29 68 -29 122q0 93 63 150.5t160 57.5q102 0 157.5 -55.5t61.5 -144.5h-114q-14 116 -107 116q-49 0 -75.5 -32t-26.5 -77q0 -58 35 -137h210v-64h-185q15 -42 15 -86q0 -90 -84 -136h336z" unicode="£"/>
<glyph glyph-name="currency" d="M300 188q47 0 77.5 32t30.5 81t-30.5 81t-77.5 32q-46 0 -76.5 -32t-30.5 -81t30.5 -81t76.5 -32zM480 301q0 -56 -32 -102l59 -58l-45 -45l-58 58q-47 -33 -104 -33t-103 32l-57 -57l-45 45l57 57q-32 46 -32 103q0 56 32 104l-57 57l45 45l58 -58q46 32 102 32 q57 0 103 -32l59 58l45 -45l-59 -58q32 -46 32 -103z" unicode="¤"/>
<glyph glyph-name="yen" d="M396 363h118v-66h-155l-4 -8v-54h159v-66h-159v-169h-109v169h-159v66h159v52l-5 10h-154v66h117l-181 327h126l155 -323l152 323h121z" unicode="¥"/>
<glyph glyph-name="brokenbar" horiz-adv-x="262" unicode="¦" d="M165 -160h-68v340h68v-340zM165 350h-68v340h68v-340z"/>
<glyph glyph-name="section" horiz-adv-x="578" unicode="§" d="M144 299q0 -75 130 -109q58 -15 102 -36q28 9 44 30t16 48q0 41 -32 67.5t-107 49.5q-56 17 -92 35q-61 -12 -61 -85zM550 243q0 -97 -95 -145q36 -44 36 -106q0 -79 -60 -122.5t-148 -43.5q-93 0 -152 44t-69 132h111q24 -99 115 -99q40 0 64.5 21t24.5 59 q0 42 -32.5 71t-118.5 51q-196 51 -196 190q0 104 96 149q-32 40 -32 92q0 77 54 122.5t139 45.5q90 0 142 -45.5t60 -123.5h-111q-8 44 -32 68t-61 24q-34 0 -55.5 -20.5t-21.5 -56.5q0 -41 30.5 -67.5t101.5 -45.5q110 -30 160 -75.5t50 -118.5z"/>
<glyph glyph-name="dieresis" horiz-adv-x="300" unicode="¨" d="M230 685q22 0 37.5 -15.5t15.5 -37.5t-15 -37t-38 -15t-38 15t-15 37t15.5 37.5t37.5 15.5zM70 685q23 0 38.5 -15.5t15.5 -37.5t-15.5 -37t-38.5 -15t-38 15t-15 37t15.5 37.5t37.5 15.5z"/>
<glyph glyph-name="copyright" horiz-adv-x="844" unicode="©" d="M429 585q83 0 135.5 -45.5t65.5 -122.5h-106q-14 92 -97 92q-52 0 -79.5 -41t-27.5 -112q0 -72 29 -113.5t79 -41.5q39 0 64.5 25t30.5 66h106q-17 -78 -68.5 -122.5t-140.5 -44.5q-94 0 -152.5 62.5t-58.5 166.5q0 106 60 168.5t160 62.5zM422 680q-136 0 -226.5 -93 t-90.5 -232t90.5 -232t226.5 -93q135 0 226 93t91 232t-91 232t-226 93zM422 748q167 0 279 -112.5t112 -280.5t-112 -280.5t-279 -112.5t-279 112.5t-112 280.5t112 280.5t279 112.5z"/>
<glyph glyph-name="guillemotleft" horiz-adv-x="592" unicode="«" d="M538 414l-137 -166l137 -166h-87l-137 166l137 166h87zM351 414l-137 -166l137 -166h-87l-137 166l137 166h87z"/>
<glyph glyph-name="logicalnot" d="M485 201h-69v121h-311v66h380v-187z" unicode="¬"/>
<glyph glyph-name="registered" horiz-adv-x="503" unicode="®" d="M264 567q20 4 20 26q0 20 -20 25q-6 1 -19 1h-18v-53h18q13 0 19 1zM300 554q27 -7 30 -45q4 -34 13 -54h-59q-4 15 -7 44q-3 24 -29 24h-21v-68h-52v206h72q18 0 27 -1q67 -7 67 -56q0 -38 -41 -50zM251 393q70 0 114.5 45t44.5 116t-44.5 116.5t-114.5 45.5 t-114.5 -45.5t-44.5 -116.5t44.5 -116t114.5 -45zM251 764q93 0 151.5 -59t58.5 -151t-58.5 -151t-151.5 -59q-92 0 -151 59t-59 151t59 151t151 59z"/>
<glyph glyph-name="macron" horiz-adv-x="300" unicode="¯" d="M278 600h-255v63h255v-63z"/>
<glyph glyph-name="degree" horiz-adv-x="304" unicode="°" d="M152 640q-24 0 -40 -16.5t-16 -42.5t16 -42.5t40 -16.5t40 16.5t16 42.5t-16 42.5t-40 16.5zM152 704q56 0 91 -34t35 -89t-35 -89t-91 -34t-91 34t-35 89t35 89t91 34z"/>
<glyph glyph-name="plusminus" d="M508 0h-415v64h415v-64zM335 352h173v-66h-173v-171h-69v171h-173v66h173v167h69v-167z" unicode="±"/>
<glyph glyph-name="acute" horiz-adv-x="300" unicode="´" d="M177 578h-66l69 114h100z"/>
<glyph glyph-name="paragraph" horiz-adv-x="579" unicode="¶" d="M507 690v-800h-68v734h-98v-734h-68v430h-17q-39 0 -56 1q-74 4 -115.5 56.5t-41.5 127.5t41.5 127.5t115.5 56.5q17 1 56 1h251z"/>
<glyph glyph-name="periodcentered" horiz-adv-x="222" unicode="·" d="M111 382q33 0 55 -22t22 -55t-22 -55t-55 -22t-55 22t-22 55t22 55t55 22z"/>
<glyph glyph-name="cedilla" horiz-adv-x="300" unicode="¸" d="M187 9l-26 -50q84 -11 84 -81q0 -43 -36.5 -65.5t-97.5 -22.5q-32 0 -52 8v51q23 -10 54 -10q62 0 62 39q0 42 -71 42q-16 0 -25 -1l47 90h61z"/>
<glyph glyph-name="guillemotright" horiz-adv-x="584" unicode="»" d="M465 248l-137 -166h-87l137 166l-137 166h87zM278 248l-137 -166h-87l137 166l-137 166h87z"/>
<glyph glyph-name="questiondown" horiz-adv-x="508" unicode="¿" d="M279 -173q-102 0 -159.5 51t-57.5 135q0 99 105 198q44 42 59.5 69t18.5 64h101q-4 -48 -20 -82t-56 -79q-51 -57 -70 -92t-19 -75q0 -49 27 -77t76 -28q52 0 83 33.5t35 97.5h112q-3 -99 -67 -157t-168 -58zM295 404q-31 0 -51 20t-20 51t20 50.5t51 19.5t50.5 -19.5 t19.5 -50.5t-19.5 -51t-50.5 -20z"/>
<glyph glyph-name="Agrave" horiz-adv-x="656" unicode="À" d="M244 315h187l-91 284zM460 228h-245l-75 -228h-117l248 690h142l241 -690h-119zM315 736l-97 102h100l63 -102h-66z"/>
<glyph glyph-name="Aacute" horiz-adv-x="656" unicode="Á" d="M244 315h187l-91 284zM460 228h-245l-75 -228h-117l248 690h142l241 -690h-119zM370 736h-66l63 102h100z"/>
<glyph glyph-name="Acircumflex" horiz-adv-x="656" unicode="Â" d="M244 315h187l-91 284zM460 228h-245l-75 -228h-117l248 690h142l241 -690h-119zM311 736h-75l66 102h81l66 -102h-76l-31 60z"/>
<glyph glyph-name="Atilde" horiz-adv-x="656" unicode="Ã" d="M244 315h187l-91 284zM460 228h-245l-75 -228h-117l248 690h142l241 -690h-119zM290 771q-16 0 -16 -23h-52q0 47 15 67t46 20q27 0 67 -15q36 -12 44 -12q16 0 16 23h53q0 -47 -15.5 -67t-46.5 -20q-26 0 -67 15q-36 12 -44 12z"/>
<glyph glyph-name="Adieresis" horiz-adv-x="656" unicode="Ä" d="M244 315h187l-91 284zM460 228h-245l-75 -228h-117l248 690h142l241 -690h-119zM420 733q-23 0 -38.5 15.5t-15.5 37.5t15.5 37.5t38.5 15.5q22 0 37.5 -15.5t15.5 -37.5t-15.5 -37.5t-37.5 -15.5zM265 733q-23 0 -38.5 15.5t-15.5 37.5t15.5 37.5t38.5 15.5t38 -15.5 t15 -37.5t-15 -37.5t-38 -15.5z"/>
<glyph glyph-name="Aring" horiz-adv-x="656" unicode="Å" d="M244 315h187l-91 284zM460 228h-245l-75 -228h-117l248 690h142l241 -690h-119zM342 845q-17 0 -28.5 -11.5t-11.5 -30.5q0 -18 11.5 -30t28.5 -12t28.5 12t11.5 30q0 19 -11.5 30.5t-28.5 11.5zM342 718q-43 0 -70.5 24t-27.5 61q0 38 27.5 62t70.5 24t70.5 -24 t27.5 -62q0 -37 -27.5 -61t-70.5 -24z"/>
<glyph glyph-name="AE" horiz-adv-x="930" unicode="Æ" d="M428 323l-21 279l-151 -279h172zM902 88v-88h-451l-17 235h-226l-127 -235h-118l389 690h540v-87h-375l16 -214h331v-87h-325l16 -214h347z"/>
<glyph glyph-name="Ccedilla" horiz-adv-x="708" unicode="Ç" d="M554 234h109l-1 -10q-11 -103 -84.5 -168.5t-198.5 -69.5l-14 -27q84 -11 84 -81q0 -43 -36.5 -65.5t-97.5 -22.5q-32 0 -52 8v51q23 -10 54 -10q62 0 62 39q0 42 -71 42q-16 0 -25 -1l37 70q-126 16 -198.5 111.5t-72.5 241.5q0 162 92 262t238 100q130 0 203.5 -64.5 t84.5 -171.5l1 -10h-109l-2 10q-31 152 -180 152q-95 0 -152 -75t-57 -198q0 -127 56 -202t148 -75q75 0 120 40.5t60 113.5z"/>
<glyph glyph-name="Egrave" horiz-adv-x="600" unicode="È" d="M572 88v-88h-477v690h467v-87h-357v-214h329v-87h-329v-214h367zM310 736l-97 102h100l63 -102h-66z"/>
<glyph glyph-name="Eacute" horiz-adv-x="600" unicode="É" d="M572 88v-88h-477v690h467v-87h-357v-214h329v-87h-329v-214h367zM365 736h-66l63 102h100z"/>
<glyph glyph-name="Ecircumflex" horiz-adv-x="600" unicode="Ê" d="M572 88v-88h-477v690h467v-87h-357v-214h329v-87h-329v-214h367zM306 736h-75l66 102h81l66 -102h-76l-31 60z"/>
<glyph glyph-name="Edieresis" horiz-adv-x="600" unicode="Ë" d="M572 88v-88h-477v690h467v-87h-357v-214h329v-87h-329v-214h367zM415 733q-23 0 -38.5 15.5t-15.5 37.5t15.5 37.5t38.5 15.5t38 -15.5t15 -37.5t-15 -37.5t-38 -15.5zM260 733q-23 0 -38.5 15.5t-15.5 37.5t15.5 37.5t38.5 15.5q22 0 37.5 -15.5t15.5 -37.5t-15.5 -37.5 t-37.5 -15.5z"/>
<glyph glyph-name="Igrave" horiz-adv-x="277" unicode="Ì" d="M205 0h-110v690h110v-690zM189 736h-66l-97 102h100z"/>
<glyph glyph-name="Iacute" horiz-adv-x="277" unicode="Í" d="M205 0h-110v690h110v-690zM178 736h-66l63 102h100z"/>
<glyph glyph-name="Icircumflex" horiz-adv-x="277" unicode="Î" d="M95 690h110v-690h-110v690zM119 736h-75l66 102h81l66 -102h-76l-31 60z"/>
<glyph glyph-name="Idieresis" horiz-adv-x="277" unicode="Ï" d="M205 0h-110v690h110v-690zM228 839q22 0 37.5 -15.5t15.5 -37.5t-15.5 -37.5t-37.5 -15.5q-23 0 -38.5 15.5t-15.5 37.5t15.5 37.5t38.5 15.5zM73 839q23 0 38 -15.5t15 -37.5t-15 -37.5t-38 -15.5t-38.5 15.5t-15.5 37.5t15.5 37.5t38.5 15.5z"/>
<glyph glyph-name="Eth" horiz-adv-x="716" unicode="Ð" d="M380 92q84 12 133.5 80t49.5 181q0 107 -47.5 170t-131.5 75q-29 5 -80 5h-103v-235h128v-66h-128v-214h100q57 0 79 4zM402 686q126 -15 202 -99t76 -234t-78 -241.5t-203 -107.5q-35 -4 -88 -4h-219v302h-59v66h59v322h222q53 0 88 -4z"/>
<glyph glyph-name="Ntilde" horiz-adv-x="737" unicode="Ñ" d="M665 0h-158l-306 569q4 -105 4 -239v-330h-110v690h155l309 -573q-3 117 -3 241v332h108zM320 835q27 0 67 -15q36 -12 44 -12q16 0 16 23h53q0 -47 -15.5 -67t-46.5 -20q-26 0 -67 15q-36 12 -44 12q-16 0 -16 -23h-52q0 47 15 67t46 20z"/>
<glyph glyph-name="Ograve" horiz-adv-x="750" unicode="Ò" d="M382 70q100 0 157 73.5t57 201.5q0 129 -57 202t-157 73q-101 0 -158 -73t-57 -202t57 -202t158 -73zM382 704q156 0 244 -98t88 -261t-88 -261t-244 -98t-244.5 98t-88.5 261t88 261t245 98zM355 736l-97 102h100l63 -102h-66z"/>
<glyph glyph-name="Oacute" horiz-adv-x="750" unicode="Ó" d="M382 70q100 0 157 73.5t57 201.5q0 129 -57 202t-157 73q-101 0 -158 -73t-57 -202t57 -202t158 -73zM382 704q156 0 244 -98t88 -261t-88 -261t-244 -98t-244.5 98t-88.5 261t88 261t245 98zM410 736h-66l63 102h100z"/>
<glyph glyph-name="Ocircumflex" horiz-adv-x="750" unicode="Ô" d="M382 70q100 0 157 73.5t57 201.5q0 129 -57 202t-157 73q-101 0 -158 -73t-57 -202t57 -202t158 -73zM382 704q156 0 244 -98t88 -261t-88 -261t-244 -98t-244.5 98t-88.5 261t88 261t245 98zM351 736h-75l66 102h81l66 -102h-76l-31 60z"/>
<glyph glyph-name="Otilde" horiz-adv-x="750" unicode="Õ" d="M382 70q100 0 157 73.5t57 201.5q0 129 -57 202t-157 73q-101 0 -158 -73t-57 -202t57 -202t158 -73zM382 704q156 0 244 -98t88 -261t-88 -261t-244 -98t-244.5 98t-88.5 261t88 261t245 98zM330 771q-16 0 -16 -23h-52q0 47 15 67t46 20q27 0 67 -15q36 -12 44 -12 q16 0 16 23h53q0 -47 -15.5 -67t-46.5 -20q-26 0 -67 15q-36 12 -44 12z"/>
<glyph glyph-name="Odieresis" horiz-adv-x="750" unicode="Ö" d="M382 70q100 0 157 73.5t57 201.5q0 129 -57 202t-157 73q-101 0 -158 -73t-57 -202t57 -202t158 -73zM382 704q156 0 244 -98t88 -261t-88 -261t-244 -98t-244.5 98t-88.5 261t88 261t245 98zM460 733q-23 0 -38.5 15.5t-15.5 37.5t15.5 37.5t38.5 15.5q22 0 37.5 -15.5 t15.5 -37.5t-15.5 -37.5t-37.5 -15.5zM305 733q-23 0 -38.5 15.5t-15.5 37.5t15.5 37.5t38.5 15.5t38 -15.5t15 -37.5t-15 -37.5t-38 -15.5z"/>
<glyph glyph-name="multiply" d="M349 318l142 -142l-49 -48l-142 142l-142 -142l-48 48l142 142l-142 142l48 48l142 -142l142 142l49 -48z" unicode="×"/>
<glyph glyph-name="Oslash" horiz-adv-x="756" unicode="Ø" d="M600 345q0 83 -24 143l-347 -347q57 -71 156 -71q101 0 158 73t57 202zM170 345q0 -83 24 -143l347 347q-57 71 -156 71q-101 0 -158 -73t-57 -202zM725 637l-67 -67q60 -92 60 -225q0 -162 -88.5 -260.5t-244.5 -98.5q-141 0 -229 82l-63 -63l-48 48l67 67 q-60 92 -60 225q0 163 88.5 261t244.5 98q141 0 229 -82l63 63z"/>
<glyph glyph-name="Ugrave" horiz-adv-x="691" unicode="Ù" d="M629 690v-423q0 -45 -2 -71q-8 -93 -74.5 -151.5t-194.5 -58.5t-194.5 58.5t-73.5 151.5q-2 26 -2 71v423h109v-425q0 -40 2 -56q5 -64 46 -101.5t113 -37.5q73 0 114 37.5t46 101.5q2 16 2 56v425h109zM397 736h-66l-97 102h100z"/>
<glyph glyph-name="Uacute" horiz-adv-x="691" unicode="Ú" d="M629 690v-423q0 -45 -2 -71q-8 -93 -74.5 -151.5t-194.5 -58.5t-194.5 58.5t-73.5 151.5q-2 26 -2 71v423h109v-425q0 -40 2 -56q5 -64 46 -101.5t113 -37.5q73 0 114 37.5t46 101.5q2 16 2 56v425h109zM386 736h-66l63 102h100z"/>
<glyph glyph-name="Ucircumflex" horiz-adv-x="691" unicode="Û" d="M629 690v-423q0 -45 -2 -71q-8 -93 -74.5 -151.5t-194.5 -58.5t-194.5 58.5t-73.5 151.5q-2 26 -2 71v423h109v-425q0 -40 2 -56q5 -64 46 -101.5t113 -37.5q73 0 114 37.5t46 101.5q2 16 2 56v425h109zM327 736h-75l66 102h81l66 -102h-76l-31 60z"/>
<glyph glyph-name="Udieresis" horiz-adv-x="691" unicode="Ü" d="M629 690v-423q0 -45 -2 -71q-8 -93 -74.5 -151.5t-194.5 -58.5t-194.5 58.5t-73.5 151.5q-2 26 -2 71v423h109v-425q0 -40 2 -56q5 -64 46 -101.5t113 -37.5q73 0 114 37.5t46 101.5q2 16 2 56v425h109zM436 839q22 0 37.5 -15.5t15.5 -37.5t-15.5 -37.5t-37.5 -15.5 q-23 0 -38.5 15.5t-15.5 37.5t15.5 37.5t38.5 15.5zM281 839q23 0 38 -15.5t15 -37.5t-15 -37.5t-38 -15.5t-38.5 15.5t-15.5 37.5t15.5 37.5t38.5 15.5z"/>
<glyph glyph-name="Yacute" horiz-adv-x="602" unicode="Ý" d="M371 270v-270h-109v270l-244 420h125l178 -319l172 319h122zM344 736h-66l63 102h100z"/>
<glyph glyph-name="Thorn" horiz-adv-x="636" unicode="Þ" d="M392 295q89 17 89 107t-89 107q-24 4 -70 4h-117v-222h117q46 0 70 4zM421 598q79 -10 127.5 -60t48.5 -135t-48.5 -136t-127.5 -61q-32 -4 -94 -4h-122v-202h-110v690h110v-88h122q62 0 94 -4z"/>
<glyph glyph-name="germandbls" horiz-adv-x="623" unicode="ß" d="M313 754q108 0 170 -49t62 -131q0 -52 -30 -98q-71 -38 -71 -78q0 -24 13.5 -44t46.5 -49q45 -39 63.5 -73t18.5 -87q0 -69 -55 -109t-136 -40q-59 0 -108 10v86q52 -13 94 -13q86 0 86 77q0 48 -59 101q-47 43 -65 71.5t-18 69.5q0 72 84 116q17 27 17 59 q0 46 -29.5 71.5t-87.5 25.5q-55 0 -89.5 -33.5t-38.5 -96.5q-2 -28 -2 -64v-476h-110v468q0 38 2 74q6 103 72.5 157.5t169.5 54.5z"/>
<glyph glyph-name="agrave" horiz-adv-x="545" unicode="à" d="M246 66q53 0 85.5 35t32.5 98v49q-32 2 -46 2q-167 0 -167 -102q0 -82 95 -82zM375 0l-10 77l-27 -57q-49 -34 -132 -34q-74 0 -122.5 40.5t-48.5 112.5q0 182 295 182h34v13q0 38 -2 58q-5 73 -93 73q-94 0 -103 -102h-110q5 86 64 134t151 48q185 0 200 -148 q3 -33 3 -75v-187q0 -61 10 -135h-109zM246 578l-102 114h100l68 -114h-66z"/>
<glyph glyph-name="aacute" horiz-adv-x="545" unicode="á" d="M246 66q53 0 85.5 35t32.5 98v49q-32 2 -46 2q-167 0 -167 -102q0 -82 95 -82zM375 0l-10 77l-27 -57q-49 -34 -132 -34q-74 0 -122.5 40.5t-48.5 112.5q0 182 295 182h34v13q0 38 -2 58q-5 73 -93 73q-94 0 -103 -102h-110q5 86 64 134t151 48q185 0 200 -148 q3 -33 3 -75v-187q0 -61 10 -135h-109zM298 578h-66l69 114h100z"/>
<glyph glyph-name="acircumflex" horiz-adv-x="545" unicode="â" d="M246 66q53 0 85.5 35t32.5 98v49q-32 2 -46 2q-167 0 -167 -102q0 -82 95 -82zM375 0l-10 77l-27 -57q-49 -34 -132 -34q-74 0 -122.5 40.5t-48.5 112.5q0 182 295 182h34v13q0 38 -2 58q-5 73 -93 73q-94 0 -103 -102h-110q5 86 64 134t151 48q185 0 200 -148 q3 -33 3 -75v-187q0 -61 10 -135h-109zM238 578h-73l66 114h81l66 -114h-74l-33 65z"/>
<glyph glyph-name="atilde" horiz-adv-x="545" unicode="ã" d="M246 66q53 0 85.5 35t32.5 98v49q-32 2 -46 2q-167 0 -167 -102q0 -82 95 -82zM375 0l-10 77l-27 -57q-49 -34 -132 -34q-74 0 -122.5 40.5t-48.5 112.5q0 182 295 182h34v13q0 38 -2 58q-5 73 -93 73q-94 0 -103 -102h-110q5 86 64 134t151 48q185 0 200 -148 q3 -33 3 -75v-187q0 -61 10 -135h-109zM219 616q-16 0 -16 -22h-52q0 47 15 66.5t46 19.5q30 0 67 -14q32 -12 44 -12q16 0 16 23h53q0 -48 -15.5 -67.5t-46.5 -19.5q-25 0 -67 14q-32 12 -44 12z"/>
<glyph glyph-name="adieresis" horiz-adv-x="545" unicode="ä" d="M246 66q53 0 85.5 35t32.5 98v49q-32 2 -46 2q-167 0 -167 -102q0 -82 95 -82zM375 0l-10 77l-27 -57q-49 -34 -132 -34q-74 0 -122.5 40.5t-48.5 112.5q0 182 295 182h34v13q0 38 -2 58q-5 73 -93 73q-94 0 -103 -102h-110q5 86 64 134t151 48q185 0 200 -148 q3 -33 3 -75v-187q0 -61 10 -135h-109zM351 580q-23 0 -38 15t-15 37t15 37.5t38 15.5t38 -15.5t15 -37.5t-15 -37t-38 -15zM191 580q-23 0 -38 15t-15 37t15 37.5t38 15.5t38.5 -15.5t15.5 -37.5t-15.5 -37t-38.5 -15z"/>
<glyph glyph-name="aring" horiz-adv-x="545" unicode="å" d="M246 66q53 0 85.5 35t32.5 98v49q-32 2 -46 2q-167 0 -167 -102q0 -82 95 -82zM375 0l-10 77l-27 -57q-49 -34 -132 -34q-74 0 -122.5 40.5t-48.5 112.5q0 182 295 182h34v13q0 38 -2 58q-5 73 -93 73q-94 0 -103 -102h-110q5 86 64 134t151 48q185 0 200 -148 q3 -33 3 -75v-187q0 -61 10 -135h-109zM271 702q-18 0 -29 -13t-11 -34t11 -33.5t29 -12.5t29 12.5t11 33.5t-11 34t-29 13zM271 566q-43 0 -70.5 25t-27.5 64q0 40 27.5 65t70.5 25t70.5 -25t27.5 -65q0 -39 -27.5 -64t-70.5 -25z"/>
<glyph glyph-name="ae" horiz-adv-x="910" unicode="æ" d="M378 210v25q-18 1 -51 1q-89 0 -132.5 -19.5t-43.5 -67.5q0 -83 98 -83q56 0 92.5 39.5t36.5 104.5zM493 312h268q-14 153 -128 153q-58 0 -94.5 -39t-45.5 -114zM874 279q0 -15 -3 -44h-379q6 -86 43 -127.5t94 -41.5q49 0 83 28t42 78h112q-17 -91 -83 -138.5 t-157 -47.5q-146 0 -205 117l-37 -62q-66 -55 -163 -55q-81 0 -133.5 40.5t-52.5 113.5q0 89 75.5 130.5t227.5 41.5h40v22q0 131 -106 131q-101 0 -106 -102h-110q2 86 60 134t155 48q140 0 180 -95q64 95 188 95q110 0 172.5 -75t62.5 -191z"/>
<glyph glyph-name="ccedilla" horiz-adv-x="544" unicode="ç" d="M279 66q48 0 80 28t44 82h112q-18 -88 -76 -136t-146 -53l-14 -28q84 -11 84 -81q0 -43 -36.5 -65.5t-97.5 -22.5q-32 0 -52 8v51q23 -10 54 -10q62 0 62 39q0 42 -71 42q-16 0 -25 -1l36 70q-93 12 -148.5 81t-55.5 193q0 131 74 206.5t183 75.5q99 0 160.5 -54.5 t71.5 -143.5h-111q-23 118 -124 118q-61 0 -99.5 -49.5t-38.5 -144.5q0 -103 37.5 -154t96.5 -51z"/>
<glyph glyph-name="egrave" horiz-adv-x="562" unicode="è" d="M285 465q-58 0 -95 -39t-46 -114h269q-6 74 -38.5 113.5t-89.5 39.5zM526 279q0 -25 -2 -44h-381q12 -169 139 -169q49 0 83 28t42 78h111q-17 -91 -83 -138.5t-157 -47.5q-111 0 -180 71t-69 207q0 126 72.5 203.5t187.5 77.5q112 0 174.5 -74.5t62.5 -191.5zM258 578 l-102 114h100l68 -114h-66z"/>
<glyph glyph-name="eacute" horiz-adv-x="562" unicode="é" d="M285 465q-58 0 -95 -39t-46 -114h269q-6 74 -38.5 113.5t-89.5 39.5zM526 279q0 -25 -2 -44h-381q12 -169 139 -169q49 0 83 28t42 78h111q-17 -91 -83 -138.5t-157 -47.5q-111 0 -180 71t-69 207q0 126 72.5 203.5t187.5 77.5q112 0 174.5 -74.5t62.5 -191.5zM310 578 h-66l69 114h100z"/>
<glyph glyph-name="ecircumflex" horiz-adv-x="562" unicode="ê" d="M285 465q-58 0 -95 -39t-46 -114h269q-6 74 -38.5 113.5t-89.5 39.5zM526 279q0 -25 -2 -44h-381q12 -169 139 -169q49 0 83 28t42 78h111q-17 -91 -83 -138.5t-157 -47.5q-111 0 -180 71t-69 207q0 126 72.5 203.5t187.5 77.5q112 0 174.5 -74.5t62.5 -191.5zM250 578 h-73l66 114h81l66 -114h-74l-33 65z"/>
<glyph glyph-name="edieresis" horiz-adv-x="562" unicode="ë" d="M285 465q-58 0 -95 -39t-46 -114h269q-6 74 -38.5 113.5t-89.5 39.5zM526 279q0 -25 -2 -44h-381q12 -169 139 -169q49 0 83 28t42 78h111q-17 -91 -83 -138.5t-157 -47.5q-111 0 -180 71t-69 207q0 126 72.5 203.5t187.5 77.5q112 0 174.5 -74.5t62.5 -191.5zM363 580 q-23 0 -38 15t-15 37t15 37.5t38 15.5t38 -15.5t15 -37.5t-15 -37t-38 -15zM203 580q-23 0 -38 15t-15 37t15 37.5t38 15.5t38.5 -15.5t15.5 -37.5t-15.5 -37t-38.5 -15z"/>
<glyph glyph-name="igrave" horiz-adv-x="251" unicode="ì" d="M179 0h-110v531h110v-531zM165 578h-66l-102 114h100z"/>
<glyph glyph-name="iacute" horiz-adv-x="251" unicode="í" d="M179 0h-110v531h110v-531zM151 578h-66l69 114h100z"/>
<glyph glyph-name="icircumflex" horiz-adv-x="251" unicode="î" d="M69 531h110v-531h-110v531zM91 578h-73l66 114h81l66 -114h-74l-33 65z"/>
<glyph glyph-name="idieresis" horiz-adv-x="251" unicode="ï" d="M179 0h-110v531h110v-531zM204 685q22 0 37.5 -15.5t15.5 -37.5t-15 -37t-38 -15t-38 15t-15 37t15.5 37.5t37.5 15.5zM44 685q23 0 38.5 -15.5t15.5 -37.5t-15.5 -37t-38.5 -15t-38 15t-15 37t15.5 37.5t37.5 15.5z"/>
<glyph glyph-name="eth" horiz-adv-x="604" unicode="ð" d="M442 260v29q0 85 -43.5 129.5t-104.5 44.5q-67 0 -107.5 -54t-40.5 -142q0 -95 38 -146.5t110 -51.5q66 0 107 49t41 142zM511 652l-42 -14q89 -110 89 -331q0 -164 -77 -242.5t-191 -78.5q-127 0 -194 75.5t-67 198.5q0 130 72 207.5t175 77.5q62 0 111 -29l45 -59 q-9 90 -62 147l-137 -46l-18 57l101 35q-32 20 -76 37l79 58q62 -27 102 -60l72 25z"/>
<glyph glyph-name="ntilde" horiz-adv-x="606" unicode="ñ" d="M538 393q3 -41 3 -94v-299h-110v287q0 48 -2 75q-9 102 -112 102q-62 0 -100 -54.5t-38 -171.5v-238h-110v531h110v-88l36 61q54 41 134 41q84 0 132.5 -40.5t56.5 -111.5zM257 616q-16 0 -16 -22h-52q0 47 15 66.5t46 19.5q30 0 67 -14q32 -12 44 -12q16 0 16 23h53 q0 -48 -15.5 -67.5t-46.5 -19.5q-25 0 -67 14q-32 12 -44 12z"/>
<glyph glyph-name="ograve" horiz-adv-x="595" unicode="ò" d="M298 66q71 0 111.5 54.5t40.5 145.5t-40.5 145t-111.5 54q-72 0 -112.5 -54t-40.5 -145t40.5 -145.5t112.5 -54.5zM298 545q129 0 199 -78.5t70 -200.5t-70.5 -201t-198.5 -79q-129 0 -199 79t-70 201t70 200.5t199 78.5zM273 578l-102 114h100l68 -114h-66z"/>
<glyph glyph-name="oacute" horiz-adv-x="595" unicode="ó" d="M298 66q71 0 111.5 54.5t40.5 145.5t-40.5 145t-111.5 54q-72 0 -112.5 -54t-40.5 -145t40.5 -145.5t112.5 -54.5zM298 545q129 0 199 -78.5t70 -200.5t-70.5 -201t-198.5 -79q-129 0 -199 79t-70 201t70 200.5t199 78.5zM325 578h-66l69 114h100z"/>
<glyph glyph-name="ocircumflex" horiz-adv-x="595" unicode="ô" d="M298 66q71 0 111.5 54.5t40.5 145.5t-40.5 145t-111.5 54q-72 0 -112.5 -54t-40.5 -145t40.5 -145.5t112.5 -54.5zM298 545q129 0 199 -78.5t70 -200.5t-70.5 -201t-198.5 -79q-129 0 -199 79t-70 201t70 200.5t199 78.5zM265 578h-73l66 114h81l66 -114h-74l-33 65z"/>
<glyph glyph-name="otilde" horiz-adv-x="595" unicode="õ" d="M298 66q71 0 111.5 54.5t40.5 145.5t-40.5 145t-111.5 54q-72 0 -112.5 -54t-40.5 -145t40.5 -145.5t112.5 -54.5zM298 545q129 0 199 -78.5t70 -200.5t-70.5 -201t-198.5 -79q-129 0 -199 79t-70 201t70 200.5t199 78.5zM246 616q-16 0 -16 -22h-52q0 47 15 66.5 t46 19.5q30 0 67 -14q32 -12 44 -12q16 0 16 23h53q0 -48 -15.5 -67.5t-46.5 -19.5q-25 0 -67 14q-32 12 -44 12z"/>
<glyph glyph-name="odieresis" horiz-adv-x="595" unicode="ö" d="M298 66q71 0 111.5 54.5t40.5 145.5t-40.5 145t-111.5 54q-72 0 -112.5 -54t-40.5 -145t40.5 -145.5t112.5 -54.5zM298 545q129 0 199 -78.5t70 -200.5t-70.5 -201t-198.5 -79q-129 0 -199 79t-70 201t70 200.5t199 78.5zM378 580q-23 0 -38 15t-15 37t15.5 37.5 t37.5 15.5t37.5 -15.5t15.5 -37.5t-15 -37t-38 -15zM218 580q-23 0 -38 15t-15 37t15.5 37.5t37.5 15.5q23 0 38.5 -15.5t15.5 -37.5t-15.5 -37t-38.5 -15z"/>
<glyph glyph-name="divide" d="M302 212q26 0 44 -18t18 -44t-18 -44t-44 -18t-44 18t-18 44t18 44t44 18zM519 286h-437v66h437v-66zM302 546q26 0 44 -18t18 -44t-18 -44t-44 -18t-44 18t-18 44t18 44t44 18z" unicode="÷"/>
<glyph glyph-name="oslash" horiz-adv-x="625" unicode="ø" d="M458 266q0 47 -12 86l-243 -244q39 -42 102 -42q72 0 112.5 54.5t40.5 145.5zM153 266q0 -55 15 -97l246 246q-41 50 -109 50q-71 0 -111.5 -54t-40.5 -145zM600 505l-71 -71q45 -71 45 -168q0 -122 -70 -201t-199 -79q-102 0 -171 53l-61 -61l-48 48l62 62 q-51 73 -51 178q0 122 70 200.5t199 78.5q111 0 179 -60l68 68z"/>
<glyph glyph-name="ugrave" horiz-adv-x="604" unicode="ù" d="M532 531v-531h-109v91l-37 -66q-55 -39 -134 -39t-127.5 38.5t-58.5 96.5q-5 34 -5 94v316h109v-294q0 -37 4 -73q6 -45 35 -70.5t79 -25.5q62 0 98.5 51.5t36.5 161.5v250h109zM271 578l-102 114h100l68 -114h-66z"/>
<glyph glyph-name="uacute" horiz-adv-x="604" unicode="ú" d="M532 531v-531h-109v91l-37 -66q-55 -39 -134 -39t-127.5 38.5t-58.5 96.5q-5 34 -5 94v316h109v-294q0 -37 4 -73q6 -45 35 -70.5t79 -25.5q62 0 98.5 51.5t36.5 161.5v250h109zM323 578h-66l69 114h100z"/>
<glyph glyph-name="ucircumflex" horiz-adv-x="604" unicode="û" d="M532 531v-531h-109v91l-37 -66q-55 -39 -134 -39t-127.5 38.5t-58.5 96.5q-5 34 -5 94v316h109v-294q0 -37 4 -73q6 -45 35 -70.5t79 -25.5q62 0 98.5 51.5t36.5 161.5v250h109zM263 578h-73l66 114h81l66 -114h-74l-33 65z"/>
<glyph glyph-name="udieresis" horiz-adv-x="604" unicode="ü" d="M532 531v-531h-109v91l-37 -66q-55 -39 -134 -39t-127.5 38.5t-58.5 96.5q-5 34 -5 94v316h109v-294q0 -37 4 -73q6 -45 35 -70.5t79 -25.5q62 0 98.5 51.5t36.5 161.5v250h109zM376 580q-23 0 -38 15t-15 37t15.5 37.5t37.5 15.5t37.5 -15.5t15.5 -37.5t-15 -37t-38 -15 zM216 580q-23 0 -38 15t-15 37t15.5 37.5t37.5 15.5q23 0 38.5 -15.5t15.5 -37.5t-15.5 -37t-38.5 -15z"/>
<glyph glyph-name="yacute" horiz-adv-x="537" unicode="ý" d="M534 531l-216 -565q-37 -95 -83.5 -135.5t-118.5 -40.5q-36 0 -52 3v81q13 -1 35 -1q39 0 65 19t43 64l8 19l-214 556h123l146 -449l145 449h119zM295 578h-66l69 114h100z"/>
<glyph glyph-name="thorn" horiz-adv-x="626" unicode="þ" d="M327 66q69 0 111.5 51.5t42.5 147.5q0 89 -39.5 144.5t-109.5 55.5q-67 0 -110 -47t-43 -147v-27q0 -90 44 -134t104 -44zM358 545q111 0 175 -75.5t64 -194.5q0 -139 -73.5 -214t-183.5 -75q-84 0 -126 33l-35 53v-268h-110v931h110v-287l40 57q48 40 139 40z"/>
<glyph glyph-name="OE" horiz-adv-x="1101" unicode="Œ" d="M382 70q100 0 157 75t57 200q0 126 -57 200.5t-157 74.5t-157.5 -74.5t-57.5 -200.5q0 -125 57.5 -200t157.5 -75zM1073 88v-88h-477v129l-28 -69q-71 -74 -204 -74q-143 0 -229 101t-86 258t86 258t229 101q74 0 119.5 -17t84.5 -59l28 -69v131h467v-87h-357v-214h329 v-87h-329v-214h367z"/>
<glyph glyph-name="oe" horiz-adv-x="984" unicode="œ" d="M567 312h268q-14 153 -128 153q-58 0 -94.5 -39t-45.5 -114zM298 66q71 0 111.5 54.5t40.5 145.5t-40.5 145t-111.5 54q-72 0 -112.5 -54t-40.5 -145t40.5 -145.5t112.5 -54.5zM948 279q0 -15 -3 -44h-379q6 -86 43 -127.5t94 -41.5q49 0 83 28t42 78h112 q-17 -91 -82.5 -138.5t-156.5 -47.5q-135 0 -196 117q-63 -117 -207 -117q-129 0 -199 79t-70 201t70 200.5t199 78.5q148 0 211 -121q65 121 204 121q110 0 172.5 -75t62.5 -191z"/>
<glyph glyph-name="Scaron" horiz-adv-x="595" unicode="Š" d="M342 402q115 -27 169.5 -78.5t54.5 -136.5q0 -91 -70.5 -146t-174.5 -55q-119 0 -191 55.5t-82 158.5h114q13 -63 55 -96.5t104 -33.5q55 0 92 28t37 74q0 54 -35 85t-119 50q-108 25 -163 70.5t-55 129.5q0 89 69 143t169 54q110 0 170.5 -57.5t71.5 -152.5h-114 q-6 60 -40.5 93t-93.5 33q-51 0 -83.5 -24t-32.5 -71q0 -50 33.5 -77t114.5 -46zM270 736l-66 102h76l31 -61l31 61h75l-66 -102h-81z"/>
<glyph glyph-name="scaron" horiz-adv-x="476" unicode="š" d="M273 310q91 -23 134 -62.5t43 -107.5q0 -74 -58 -114t-149 -40q-92 0 -150.5 43t-69.5 130h111q18 -95 113 -95q40 0 66 17.5t26 50.5q0 34 -29 55.5t-97 39.5q-81 21 -125 57.5t-44 101.5q0 74 53.5 116.5t142.5 42.5t141 -45.5t61 -120.5h-112q-17 89 -98 89 q-38 0 -57.5 -19t-19.5 -50q0 -34 27.5 -53t90.5 -36zM282 578h-81l-66 114h74l33 -66l33 66h73z"/>
<glyph glyph-name="Ydieresis" horiz-adv-x="602" unicode="Ÿ" d="M371 270v-270h-109v270l-244 420h125l178 -319l172 319h122zM394 733q-23 0 -38.5 15.5t-15.5 37.5t15.5 37.5t38.5 15.5q22 0 37.5 -15.5t15.5 -37.5t-15.5 -37.5t-37.5 -15.5zM239 733q-23 0 -38.5 15.5t-15.5 37.5t15.5 37.5t38.5 15.5t38 -15.5t15 -37.5t-15 -37.5 t-38 -15.5z"/>
<glyph glyph-name="circumflex" horiz-adv-x="300" unicode="ˆ" d="M183 578l-33 65l-33 -65h-73l66 114h81l66 -114h-74z"/>
<glyph glyph-name="tilde" horiz-adv-x="300" unicode="˜" d="M91 680q30 0 67 -14q32 -12 44 -12q16 0 16 23h53q0 -48 -15.5 -67.5t-46.5 -19.5q-25 0 -67 14q-32 12 -44 12q-16 0 -16 -22h-52q0 47 15 66.5t46 19.5z"/>
<glyph glyph-name="endash" horiz-adv-x="500" unicode="–" d="M425 259h-350v66h350v-66z"/>
<glyph glyph-name="emdash" horiz-adv-x="1000" unicode="—" d="M925 259h-850v66h850v-66z"/>
<glyph glyph-name="quoteleft" horiz-adv-x="266" unicode="‘" d="M55 484l98 251h92l-78 -261h-112v10z"/>
<glyph glyph-name="quotesinglbase" horiz-adv-x="232" unicode="‚" d="M160 108l-94 -229h-96l79 239h111v-10z"/>
<glyph glyph-name="quotedblleft" horiz-adv-x="453" unicode="“" d="M242 484l98 252h92l-78 -262h-112v10zM55 484l98 252h92l-78 -262h-112v10z"/>
<glyph glyph-name="quotedblright" horiz-adv-x="453" unicode="”" d="M398 725l-97 -251h-93l79 261h111v-10zM211 725l-98 -251h-92l78 261h112v-10z"/>
<glyph glyph-name="dagger" horiz-adv-x="555" unicode="†" d="M504 365l-180 7l12 -532h-117l12 531l-180 -6v96l179 -6l-11 235h117l-11 -235l179 6v-96z"/>
<glyph glyph-name="daggerdbl" horiz-adv-x="555" unicode="‡" d="M324 372v-214l180 7v-96l-179 6l11 -235h-117l11 235l-179 -6v96l180 -6v212l-180 -6v96l179 -6l-11 235h117l-11 -235l179 6v-96z"/>
<glyph glyph-name="ellipsis" horiz-adv-x="672" unicode="…" d="M551 132q32 0 52.5 -20.5t20.5 -52.5q0 -31 -21 -52t-52 -21q-32 0 -52.5 20.5t-20.5 52.5t20.5 52.5t52.5 20.5zM331 132q32 0 52.5 -20.5t20.5 -52.5q0 -31 -21 -52t-52 -21q-32 0 -52.5 20.5t-20.5 52.5t20.5 52.5t52.5 20.5zM111 132q32 0 52.5 -20.5t20.5 -52.5 q0 -31 -21 -52t-52 -21q-32 0 -52.5 20.5t-20.5 52.5t20.5 52.5t52.5 20.5z"/>
<glyph glyph-name="perthousand" horiz-adv-x="1091" unicode="‰" d="M901 52q29 0 45 25t16 71t-16 70.5t-45 24.5q-28 0 -44.5 -24.5t-16.5 -70.5t16.5 -71t44.5 -25zM561 52q29 0 45 25t16 71t-16 70.5t-45 24.5q-28 0 -44.5 -24.5t-16.5 -70.5t16.5 -71t44.5 -25zM901 309q70 0 110.5 -43t40.5 -118t-40.5 -118.5t-110.5 -43.5 q-69 0 -110 43.5t-41 118.5t41 118t110 43zM561 309q70 0 110.5 -43t40.5 -118t-40.5 -118.5t-110.5 -43.5q-69 0 -110 43.5t-41 118.5t41 118t110 43zM129 540q0 -46 16 -71t45 -25q28 0 44.5 25t16.5 71t-16.5 70.5t-44.5 24.5q-29 0 -45 -24.5t-16 -70.5zM649 690 l-448 -690h-96l448 690h96zM341 540q0 -75 -41 -118.5t-110 -43.5q-70 0 -110.5 43.5t-40.5 118.5t40.5 118t110.5 43q69 0 110 -43t41 -118z"/>
<glyph glyph-name="guilsinglleft" horiz-adv-x="405" unicode="‹" d="M351 414l-137 -166l137 -166h-87l-137 166l137 166h87z"/>
<glyph glyph-name="guilsinglright" horiz-adv-x="396" unicode="›" d="M278 248l-137 -166h-87l137 166l-137 166h87z"/>
<glyph glyph-name="fraction" horiz-adv-x="269" unicode="⁄" d="M-42 0h-96l448 690h96z"/>
<glyph glyph-name="Euro" d="M472 251h-247q14 -95 59.5 -138t121.5 -43q84 0 147 40v-86q-67 -38 -162 -38q-125 0 -197 61.5t-89 203.5h-73l12 66h56v25q0 19 1 28h-48l13 66h41q21 134 100 201t199 67q117 0 173 -62l-47 -70q-48 48 -125 48q-153 0 -182 -184h281l-14 -66h-273v-24v-29h264z" unicode="€"/>
<glyph glyph-name="trademark" horiz-adv-x="539" unicode="™" d="M481 659v-203h-53l2 142l-40 -138h-55l-39 137l1 -141h-53v203h79l41 -151l40 151h77zM220 660v-42h-73v-162h-53v162h-73v42h199z"/>
<glyph glyph-name="partialdiff" d="M293 69q138 0 143 265q-40 81 -134 81q-69 0 -105 -46t-36 -127q0 -84 36.5 -128.5t95.5 -44.5zM274 758q75 0 130.5 -32t86.5 -89.5t45.5 -128t14.5 -156.5q0 -189 -71 -277.5t-195 -88.5q-103 0 -172 66t-69 187q0 114 65.5 186.5t181.5 72.5q97 0 140 -63 q-18 241 -167 241q-79 0 -143 -51l-42 68q83 65 195 65z" unicode="∂"/>
<glyph glyph-name="emptyset" horiz-adv-x="838" unicode="∅" d="M419 29q132 0 223.5 94.5t91.5 231.5q0 110 -64 198l-451 -451q86 -73 200 -73zM104 355q0 -115 68 -204l452 452q-88 78 -205 78q-132 0 -223.5 -95t-91.5 -231zM802 685l-81 -81q87 -108 87 -249q0 -164 -113.5 -279t-275.5 -115q-142 0 -249 91l-85 -85l-48 49l84 84 q-91 110 -91 255q0 164 113.5 279t275.5 115q146 0 255 -96l80 80z"/>
<glyph glyph-name="product" d="M568 603h-60v-713h-109v713h-197v-713h-109v713h-60v87h535v-87z" unicode="∏"/>
<glyph glyph-name="summation" d="M555 -23v-87h-507v79l268 332l-238 310v79h471v-87h-340l234 -303l-265 -323h377z" unicode="∑"/>
<glyph glyph-name="minus" d="M514 286h-427v66h427v-66z" unicode="−"/>
<glyph glyph-name="radical" d="M566 780l-217 -940h-88l-127 406h-70v64h125l115 -384l189 854h73z" unicode="√"/>
<glyph glyph-name="infinity" horiz-adv-x="995" unicode="∞" d="M715 66q60 0 97.5 55.5t37.5 143.5t-37.5 143.5t-97.5 55.5q-56 0 -96 -48.5t-52 -150.5q36 -199 148 -199zM280 66q57 0 97 48.5t52 150.5q-36 199 -149 199q-59 0 -97 -55.5t-38 -143.5t38 -143.5t97 -55.5zM720 544q119 0 183 -78.5t64 -200.5t-64.5 -200.5 t-184.5 -78.5q-154 0 -224 148q-38 -78 -89.5 -113t-129.5 -35q-118 0 -182 78.5t-64 200.5q0 123 64.5 201t184.5 78q154 0 224 -148q38 78 89 113t129 35z"/>
<glyph glyph-name="approxequal" d="M195 283q28 0 51 -8.5t67 -32.5q65 -35 95 -35q43 0 75 48l47 -41q-50 -79 -126 -79q-28 0 -51 8.5t-67 32.5q-67 35 -94 35q-43 0 -75 -49l-47 44q49 77 125 77zM195 453q28 0 51 -8.5t67 -32.5q65 -35 95 -35q43 0 75 48l47 -41q-50 -79 -126 -79q-28 0 -51 8.5 t-67 32.5q-67 35 -94 35q-43 0 -75 -49l-47 44q49 77 125 77z" unicode="≈"/>
<glyph glyph-name="notequal" d="M376 384l-75 -136h218v-64h-254l-52 -93h-76l52 93h-107v64h143l75 136h-218v64h254l52 93h76l-52 -93h107v-64h-143z" unicode="≠"/>
<glyph glyph-name="lessequal" d="M98 66h425v-66h-425v66zM523 436l-353 -126l353 -124v-79l-425 162v85l425 161v-79z" unicode="≤"/>
<glyph glyph-name="greaterequal" d="M78 66h423v-66h-423v66zM501 354v-85l-423 -162v79l351 126l-351 124v79z" unicode="≥"/>
<glyph glyph-name="lozenge" horiz-adv-x="523" unicode="◊" d="M387 345l-125 273l-126 -273l126 -273zM470 345l-165 -345h-87l-165 345l165 345h87z"/>
</font>
</defs>
</svg>
