<svg xmlns="http://www.w3.org/2000/svg">
<defs>
<font id="PTSerif-Bold" horiz-adv-x="565" >
  <font-face 
    font-family="PT Serif"
    font-weight="700"
    font-stretch="normal"
    units-per-em="1000"
    panose-1="2 10 7 3 4 5 5 2 2 4"
    ascent="778"
    descent="-222"
    x-height="500"
    cap-height="700"
    bbox="-376 -285 1216 1024.53"
    underline-thickness="50"
    underline-position="-50"
    unicode-range="U+0020-U+FB02"
  />
<missing-glyph horiz-adv-x="709" 
d="M50 700h650v-700h-650v700zM570 650l-195 -217l-195 217l-50 -50l197 -220l-197 -220l50 -50l195 217l195 -217l50 50l-198 220l198 220zM162 68h-35v-7h13v-35h9v35h13v7zM271 58h-2q-1 0 -2 1q-4 0 -9 -5v4h-7v-32h8v20q3 5 7 5q2 0 4 -1zM276 65q0 -5 4 -5q5 0 5 4
q0 5 -5 5q-4 0 -4 -4zM276 26h9v32h-9v-32zM291 51h5v-25h8v25h8v7h-8q0 2 1 3t3 1h3h3l1 6q0 1 -4 1h-5h-4q-1 0 -3 -1.5t-2 -2.5q-1 -2 -1 -5v-2h-5v-7zM331 45q0 -25 23 -25q11 0 17.5 6t6.5 19q0 23 -24 23q-10 0 -16.5 -6t-6.5 -17zM338 45q0 17 16 17q17 0 17 -17
q0 -18 -17 -18q-16 0 -16 18zM361 40q-2 -1 -4 -1q-5 0 -5 6q0 4 5 4h3l3 5q-4 2 -9 2q-10 0 -10 -11q0 -13 10 -13q5 0 9 2zM402 27h9v14h5q7 0 12.5 3t5.5 11q0 10 -6 12t-13 2h-13v-42zM416 62q9 0 9 -6t-2.5 -6.5t-7.5 -0.5h-4v13h5zM440 51q3 1 5.5 1.5t5.5 0.5
q5 0 5 -5v-2q-1 0 -2 0.5t-3 0.5q-15 0 -15 -12q0 -9 10 -9q7 0 10 6l3 -5h7q-1 1 -1 8v13q0 12 -12 12q-5 0 -9 -1.5t-6 -2.5zM450 33q-5 0 -5 5q0 4 6 4q2 0 3 -0.5t2 -0.5v-3q-1 -5 -6 -5zM494 59q-2 1 -5 1q-5 0 -7 -6h-1l-1 5h-7v-32h9v20q0 5 7 5q1 0 1 -0.5t1 -0.5h1
zM499 51q10 2 11 2q6 0 6 -5v-2q-2 0 -3 0.5t-3 0.5q-15 0 -15 -12q0 -9 10 -9q8 0 11 6h1l1 -5h7q-1 1 -1 8v13q0 12 -12 12q-5 0 -8 -1.5t-6 -2.5zM509 33q-5 0 -5 5q0 4 6 4q2 0 3 -0.5t3 -0.5v-3q-3 -5 -7 -5zM557 69h-36v-7h14v-35h8v35h14v7zM567 59h-10l14 -32
q-2 -5 -5 -5l-2 1l-2 -7q1 -1 6 -1q7 0 11 15l12 29h-9l-6 -18v-6h-1l-1 6zM595 15h9v13q2 -2 6 -2q16 0 16 18q0 16 -13 16q-6 0 -10 -5h-2l-1 4h-5v-44zM611 53q6 0 6 -9q0 -11 -9 -11q-2 0 -4 2v12q0 6 7 6zM656 35q-2 -2 -8 -2q-8 0 -8 7h21v7q0 13 -14 13

<glyph glyph-name="fi" unicode="fi" horiz-adv-x="660" 
d="M635 0h-271v39q12 7 28 13.5t33 10.5v374h-182v-374q20 -2 39.5 -9t36.5 -15v-39h-286v39q31 18 66 24v374h-76v39q35 22 76 33v35q0 62 23 102.5t59.5 64t82 32.5t91.5 9q26 0 58.5 -3.5t63.5 -9.5t57 -13.5t40 -15.5q-3 -33 -12 -59.5t-19 -46.5h-84l-74 95
q-26 0 -51.5 -5.5t-45.5 -21.5t-32.5 -45.5t-12.5 -76.5v-50h96q17 0 43 1.5l54.5 3t55 3.5t43.5 4h34v-449q20 -5 36 -10.5t30 -13.5v-39z" />
    <glyph glyph-name="fl" unicode="fl" horiz-adv-x="665" 
d="M425 669q-21 8 -40 14t-38 6q-26 0 -45 -7t-32.5 -23.5t-20 -45t-6.5 -70.5v-43h106v-63h-106v-374q22 -3 43 -9.5t38 -14.5v-39h-291v39q31 18 66 24v374h-76v39q35 22 76 33v35q0 62 15.5 102.5t42.5 64t63.5 32.5t77.5 9q42 0 75.5 -10.5t49.5 -16.5q21 8 52 16.5
t60 10.5h34v-689q17 -4 35.5 -10t35.5 -14v-39h-271v39q12 8 27 14t29 10v606z" />
    <glyph glyph-name=".notdef" horiz-adv-x="709" 
d="M50 700h650v-700h-650v700zM570 650l-195 -217l-195 217l-50 -50l197 -220l-197 -220l50 -50l195 217l195 -217l50 50l-198 220l198 220zM162 68h-35v-7h13v-35h9v35h13v7zM271 58h-2q-1 0 -2 1q-4 0 -9 -5v4h-7v-32h8v20q3 5 7 5q2 0 4 -1zM276 65q0 -5 4 -5q5 0 5 4
q0 5 -5 5q-4 0 -4 -4zM276 26h9v32h-9v-32zM291 51h5v-25h8v25h8v7h-8q0 2 1 3t3 1h3h3l1 6q0 1 -4 1h-5h-4q-1 0 -3 -1.5t-2 -2.5q-1 -2 -1 -5v-2h-5v-7zM331 45q0 -25 23 -25q11 0 17.5 6t6.5 19q0 23 -24 23q-10 0 -16.5 -6t-6.5 -17zM338 45q0 17 16 17q17 0 17 -17
q0 -18 -17 -18q-16 0 -16 18zM361 40q-2 -1 -4 -1q-5 0 -5 6q0 4 5 4h3l3 5q-4 2 -9 2q-10 0 -10 -11q0 -13 10 -13q5 0 9 2zM402 27h9v14h5q7 0 12.5 3t5.5 11q0 10 -6 12t-13 2h-13v-42zM416 62q9 0 9 -6t-2.5 -6.5t-7.5 -0.5h-4v13h5zM440 51q3 1 5.5 1.5t5.5 0.5
q5 0 5 -5v-2q-1 0 -2 0.5t-3 0.5q-15 0 -15 -12q0 -9 10 -9q7 0 10 6l3 -5h7q-1 1 -1 8v13q0 12 -12 12q-5 0 -9 -1.5t-6 -2.5zM450 33q-5 0 -5 5q0 4 6 4q2 0 3 -0.5t2 -0.5v-3q-1 -5 -6 -5zM494 59q-2 1 -5 1q-5 0 -7 -6h-1l-1 5h-7v-32h9v20q0 5 7 5q1 0 1 -0.5t1 -0.5h1
zM499 51q10 2 11 2q6 0 6 -5v-2q-2 0 -3 0.5t-3 0.5q-15 0 -15 -12q0 -9 10 -9q8 0 11 6h1l1 -5h7q-1 1 -1 8v13q0 12 -12 12q-5 0 -8 -1.5t-6 -2.5zM509 33q-5 0 -5 5q0 4 6 4q2 0 3 -0.5t3 -0.5v-3q-3 -5 -7 -5zM557 69h-36v-7h14v-35h8v35h14v7zM567 59h-10l14 -32
q-2 -5 -5 -5l-2 1l-2 -7q1 -1 6 -1q7 0 11 15l12 29h-9l-6 -18v-6h-1l-1 6zM595 15h9v13q2 -2 6 -2q16 0 16 18q0 16 -13 16q-6 0 -10 -5h-2l-1 4h-5v-44zM611 53q6 0 6 -9q0 -11 -9 -11q-2 0 -4 2v12q0 6 7 6zM656 35q-2 -2 -8 -2q-8 0 -8 7h21v7q0 13 -14 13
q-16 0 -16 -18q0 -16 16 -16q8 0 12 4zM647 53q7 0 6 -7h-13q0 7 7 7zM92 27h9v14h5q7 0 12.5 3t5.5 11q0 10 -6 12t-13 2h-13v-42zM106 62q9 0 9 -6t-2.5 -6.5t-7.5 -0.5h-4v13h5zM200 38q0 -5 -8 -5q-3 0 -5 0.5t-6 2.5l-3 -9q4 -1 7 -1.5t8 -0.5q16 0 16 14q0 5 -3.5 7.5
t-7 4l-7 3t-3.5 4.5t7 3q3 0 5.5 -0.5t5.5 -1.5l2 8q-4 1 -7 1.5t-6 0.5q-16 0 -16 -13q0 -5 3.5 -7.5t7 -4l7 -3t3.5 -3.5zM239 34q-2 -2 -8 -2q-8 0 -8 7h21v7q0 13 -14 13q-16 0 -16 -18q0 -16 16 -16q8 0 12 4zM230 52q7 0 6 -7h-13q0 7 7 7z" />
    <glyph glyph-name=".null" horiz-adv-x="0" 
 />
    <glyph glyph-name="nonmarkingreturn" horiz-adv-x="270" 
 />
    <glyph glyph-name="space" unicode=" " horiz-adv-x="270" 
 />
    <glyph glyph-name="exclam" unicode="!" horiz-adv-x="344" 
d="M172 218l-50 194v278q10 6 30 8.5t42 2.5t41.5 -2.5t30.5 -8.5v-278l-50 -194h-44zM110 71q0 36 23.5 58t61.5 22t62 -22t24 -58t-24 -57.5t-62 -21.5t-61.5 21.5t-23.5 57.5z" />
    <glyph glyph-name="quotedbl" unicode="&#x22;" horiz-adv-x="416" 
d="M221 670q5 13 23.5 21.5t41.5 8.5q21 0 40.5 -7.5t24.5 -22.5l-46 -184h-38zM65 670q5 13 23.5 21.5t41.5 8.5q21 0 40.5 -7.5t24.5 -22.5l-46 -184h-38z" />
    <glyph glyph-name="numbersign" unicode="#" 
d="M314 220h-124l-38 -162h-71l38 162h-81l19 64h77l31 132h-77l19 64h74l39 162h70l-38 -162h124l39 162h70l-39 -162h79l-22 -64h-73l-31 -132h76l-22 -64h-69l-38 -162h-70zM205 284h124l31 132h-124z" />
    <glyph glyph-name="dollar" unicode="$" 
d="M246 -12q-30 0 -60 4.5t-56 11.5t-46 15.5t-30 17.5q2 39 10.5 77.5t16.5 60.5h42l51 -97q10 -8 26.5 -15.5t45.5 -9.5v253q-2 1 -4.5 1.5t-4.5 2.5l-23 10q-31 13 -60 31.5t-52 43t-37 57.5t-14 75q0 41 14.5 73.5t40.5 55.5t62 37t78 17v50h70v-49q48 -2 86.5 -11
t73.5 -24q0 -15 -2.5 -31.5t-6.5 -32t-9 -28.5t-9 -20h-41l-51 77q-8 2 -17.5 3.5t-23.5 1.5v-240l38 -16q30 -14 60 -31.5t53.5 -41.5t38 -56t14.5 -76q0 -79 -52 -130t-152 -64v-61h-70v58zM390 166q0 43 -24 68.5t-60 44.5v-221q40 11 62 38t22 70zM175 546
q0 -42 23 -67.5t58 -44.5v210q-38 -5 -59.5 -30.5t-21.5 -67.5z" />
    <glyph glyph-name="percent" unicode="%" horiz-adv-x="848" 
d="M691 715l48 -42l-585 -686l-47 43zM42 542q0 39 14 70t39.5 53.5t60.5 34.5t78 12t78.5 -10.5t60.5 -31.5t39 -53t14 -75q0 -39 -14 -70.5t-39 -53.5t-60.5 -34t-78.5 -12t-78 10.5t-60.5 31.5t-39.5 53t-14 75zM162 542q0 -119 72 -119q35 0 53.5 26.5t18.5 92.5
t-18.5 92.5t-53.5 26.5q-37 0 -54.5 -26.5t-17.5 -92.5zM422 159q0 39 14 70t39.5 53.5t60.5 34.5t78 12t78.5 -10.5t60.5 -31.5t39 -53t14 -75q0 -39 -14 -70.5t-39 -53.5t-60.5 -34t-78.5 -12t-78 10.5t-60.5 31.5t-39.5 53t-14 75zM542 159q0 -119 72 -119
q35 0 53.5 26.5t18.5 92.5t-18.5 92.5t-53.5 26.5q-37 0 -54.5 -26.5t-17.5 -92.5z" />
    <glyph glyph-name="ampersand" unicode="&#x26;" horiz-adv-x="896" 
d="M529 116q-32 27 -65 62t-62.5 71t-53.5 70t-38 58q-29 -36 -42 -68.5t-13 -76.5q0 -37 12 -68t33.5 -53.5t50.5 -35t63 -12.5q30 0 61.5 12.5t53.5 40.5zM324 582q0 -15 6 -33t15.5 -36t21 -35t22.5 -30q34 26 50 63t14 79q-2 28 -17.5 47.5t-47.5 19.5q-33 0 -48.5 -23
t-15.5 -52zM676 0l-47 28.5t-53 42.5q-31 -32 -87 -57.5t-128 -25.5q-67 0 -115.5 18.5t-79.5 48t-46 66.5t-15 75q0 46 17.5 84.5t42.5 68.5t53.5 51.5t49.5 33.5q-25 27 -43 65t-18 75q0 25 10.5 50t32 44.5t53 31.5t73.5 12q72 0 117 -32t45 -92q0 -29 -10 -55t-26.5 -49
t-38 -43.5t-45.5 -37.5q69 -95 189 -202q8 11 18 37t17 59t9 70t-6 70q-16 3 -28 9t-25 15v39h228v-39q-27 -17 -66 -24q-5 -43 -15 -85t-23.5 -79t-28.5 -66t-30 -45q35 -31 71 -55t71 -44l51 -24v-39h-174z" />
    <glyph glyph-name="quotesingle" unicode="'" horiz-adv-x="240" 
d="M65 670q5 13 23.5 21.5t41.5 8.5q21 0 40.5 -7.5t24.5 -22.5l-46 -184h-38z" />
    <glyph glyph-name="parenleft" unicode="(" horiz-adv-x="375" 
d="M327 -210q-48 29 -97.5 67.5t-89.5 92.5t-65 125.5t-25 167.5q0 87 23.5 156.5t62.5 125t89.5 99t104.5 78.5l30 -31q-40 -43 -71.5 -86.5t-53.5 -94.5t-33.5 -111t-11.5 -136q0 -73 12.5 -134t35 -112.5t54 -94.5t68.5 -79z" />
    <glyph glyph-name="parenright" unicode=")" horiz-adv-x="375" 
d="M15 -177q37 36 68 80.5t53.5 98t35 116t12.5 135.5q0 76 -11.5 135.5t-33 108.5t-53 91t-71.5 83l30 31q57 -33 107.5 -76t89 -98t61 -123t22.5 -152q0 -85 -20.5 -155.5t-57 -127.5t-87.5 -101.5t-112 -78.5z" />
    <glyph glyph-name="asterisk" unicode="*" horiz-adv-x="463" 
d="M58 597q-6 8 -2.5 24.5t12.5 33t22 29t25 13.5l91 -106q0 -15 -13 -22zM118 429q-11 0 -23.5 12.5t-22.5 29t-15 33.5t0 26l135 26q14 -8 14 -21zM291 395q-4 -8 -20.5 -12.5t-35.5 -5t-36 3.5t-22 12l43 131q14 8 27 0zM405 530q6 -11 2.5 -28t-12 -33t-21 -27.5
t-24.5 -11.5l-88 103q0 13 12 21zM352 696q12 1 23.5 -9.5t19.5 -26t11.5 -33t0.5 -29.5l-134 -30q-12 9 -12 22zM177 731q4 9 20 14t35 5t35.5 -4.5t21.5 -14.5l-43 -131q-13 -8 -26 0z" />
    <glyph glyph-name="plus" unicode="+" 
d="M57 384h185v196h80v-196h185v-80h-185v-202h-80v202h-185v80z" />
    <glyph glyph-name="comma" unicode="," horiz-adv-x="306" 
d="M53 -131q20 6 36 18t27.5 27t17.5 32t5 33q-14 18 -33.5 29t-41.5 18q-5 21 -1.5 42t13.5 39t23.5 30.5t28.5 15.5q21 -1 41 -9.5t36 -24t25.5 -39.5t9.5 -56q0 -31 -12.5 -63t-34 -59.5t-51.5 -48t-66 -28.5z" />
    <glyph glyph-name="hyphen" unicode="-" horiz-adv-x="414" 
d="M66 327h282v-90h-282v90z" />
    <glyph glyph-name="period" unicode="." horiz-adv-x="296" 
d="M63 71q0 36 23 58t61 22t62 -22t24 -58t-24 -57.5t-62 -21.5t-61 21.5t-23 57.5z" />
    <glyph glyph-name="slash" unicode="/" horiz-adv-x="344" 
d="M318 716l60 -25l-365 -824l-59 26z" />
    <glyph glyph-name="zero" unicode="0" 
d="M23 350q0 90 19.5 157.5t54 113t82 68.5t103.5 23q120 0 190 -90.5t70 -271.5q0 -90 -19.5 -157.5t-55 -113t-84.5 -68.5t-107 -23q-61 0 -108 24.5t-79.5 71t-49 113.5t-16.5 153zM173 350q0 -72 4.5 -129t16.5 -96.5t31.5 -60.5t49.5 -21q35 0 57.5 17t36 54t18.5 95
t5 141q0 72 -4 129t-15.5 96.5t-33 60.5t-57.5 21q-32 0 -53 -17t-33.5 -54t-17.5 -95.5t-5 -140.5z" />
    <glyph glyph-name="one" unicode="1" 
d="M466 0h-346v43q25 11 50.5 19.5t51.5 14.5v459l4 59q-28 -9 -58 -12t-62 -2l-5 37q53 14 115.5 38t115.5 56h34v-635q25 -6 50 -14.5t50 -19.5v-43z" />
    <glyph glyph-name="two" unicode="2" 
d="M141 478h-34l-13.5 35l-15.5 42t-15 43.5t-11 39.5q35 30 89.5 52t132.5 22q55 0 95 -14t66.5 -39t39 -58t12.5 -71q0 -61 -28 -115.5t-69 -102t-88 -88l-85 -73.5l-52 -35v-4l61 6h172l49 112h34q3 -24 6.5 -56t6.5 -64.5t5 -62t2 -47.5h-458v64l59 53.5t67 67t67 77.5
t59 83.5t41.5 86.5t15.5 86q0 55 -29.5 89.5t-83.5 34.5q-17 0 -30.5 -2t-30.5 -7z" />
    <glyph glyph-name="three" unicode="3" 
d="M257 53q23 0 45 10.5t39.5 29.5t28 45t10.5 56q0 34 -11.5 58.5t-30 40.5t-42.5 23.5t-48 7.5h-58v40l150 196l34 35v4l-54 -6h-151l-39 -102h-34q-5 21 -10.5 50t-10 58t-7 56t-2.5 45h436v-49l-173 -211l-43 -44v-2l34 7q47 -2 84.5 -17.5t63 -42t39 -61.5t13.5 -77
q0 -50 -21.5 -90t-57.5 -68t-84 -42.5t-101 -14.5q-30 0 -60 4.5t-56.5 12.5t-48 19t-36.5 24l37 104h29l16.5 -18.5l22 -24.5l22.5 -26l19 -22q10 -2 22.5 -5t33.5 -3z" />
    <glyph glyph-name="four" unicode="4" 
d="M513 0h-309v43q49 17 92 24v113h-296v45l383 487h54v-467h123v-65h-123v-113q39 -8 76 -24v-43zM296 458l10 70h-3l-38 -70l-145 -187l-40 -33l71 7h145v213z" />
    <glyph glyph-name="five" unicode="5" 
d="M455 755h34q0 -15 -1 -39t-4 -49t-7 -47.5t-8 -34.5h-274l-18 -143h83q54 0 98 -14.5t75 -42t48 -67t17 -90.5q0 -57 -21.5 -101.5t-58.5 -75t-87 -47t-108 -16.5t-106 18.5t-77 41.5l42 99h29q7 -7 16 -18l19 -23t19 -24l16 -21q10 -4 18.5 -6t22.5 -2q30 0 56 10.5
t44.5 29.5t29.5 45.5t11 58.5q0 35 -13.5 61.5t-36.5 43.5t-54 25.5t-65 8.5l-87 -1l40 365h261z" />
    <glyph glyph-name="six" unicode="6" 
d="M536 215q0 -52 -19.5 -94t-52.5 -71.5t-77.5 -45.5t-94.5 -16q-62 0 -109.5 19.5t-79.5 54.5t-48.5 83t-16.5 105q0 94 33 172t89 138t130.5 100t158.5 58l15 -43q-54 -17 -100 -46t-81.5 -70.5t-58 -94t-28.5 -115.5q8 13 20.5 25.5t30.5 23t41.5 17t53.5 6.5
q41 0 76.5 -13t61.5 -39t41 -64.5t15 -89.5zM386 203q0 148 -99 148q-34 0 -58 -17.5t-35 -40.5q-3 -14 -4.5 -32.5t-1.5 -35.5q0 -34 6 -65.5t19 -56t33.5 -39.5t49.5 -15q25 0 42 12.5t27.5 33.5t15.5 49t5 59z" />
    <glyph glyph-name="seven" unicode="7" 
d="M117 481h-34q-5 21 -10 51.5t-9.5 61.5t-7.5 59.5t-3 46.5h468v-47q-54 -84 -91 -158t-62 -150t-41.5 -159t-28.5 -186h-142q36 145 93 276t135 264l37 48l-50 -5h-215z" />
    <glyph glyph-name="eight" unicode="8" 
d="M35 157q0 70 45 117.5t118 70.5q-60 34 -97 80.5t-37 107.5q0 39 15.5 71.5t44.5 56.5t70.5 37.5t93.5 13.5q48 0 87.5 -12t67.5 -33t43 -51t15 -66q0 -60 -40 -104t-101 -63q43 -23 74.5 -46t52.5 -48t31.5 -53t10.5 -61q0 -39 -16.5 -73t-48 -59.5t-78 -40
t-107.5 -14.5q-56 0 -101.5 13t-77 35.5t-48.5 53.5t-17 67zM387 146q0 34 -12.5 58t-33 43.5t-48 36l-57.5 34.5q-35 -27 -48 -64t-13 -72q0 -24 6 -48t19.5 -42.5t34.5 -30.5t52 -12q25 0 43.5 8t31 21.5t19 31t6.5 36.5zM200 554q0 -48 33.5 -84.5t86.5 -63.5
q28 26 39.5 57.5t11.5 72.5q0 58 -23.5 86.5t-61.5 28.5q-45 0 -65.5 -28t-20.5 -69z" />
    <glyph glyph-name="nine" unicode="9" 
d="M38 482q0 51 18 93t50.5 72.5t77.5 47.5t100 17q58 0 104 -19.5t78 -54.5t48.5 -85.5t16.5 -111.5q0 -93 -28 -171.5t-79 -138t-122.5 -97t-157.5 -46.5l-23 43q115 30 177 108t78 192q-19 -25 -50 -41t-80 -16q-43 0 -80.5 13t-66 39.5t-45 65.5t-16.5 90zM188 488
q0 -29 6.5 -55t19.5 -46t32 -31.5t45 -11.5q30 0 53 11.5t35 31.5q2 13 3 32t1 37q0 39 -5.5 74.5t-17.5 62t-31 42.5t-47 16q-50 0 -72 -40.5t-22 -122.5z" />
    <glyph glyph-name="colon" unicode=":" horiz-adv-x="343" 
d="M110 429q0 36 23 58t61 22t62 -22t24 -58t-24 -57.5t-62 -21.5t-61 21.5t-23 57.5zM110 71q0 36 23 58t61 22t62 -22t24 -58t-24 -57.5t-62 -21.5t-61 21.5t-23 57.5z" />
    <glyph glyph-name="semicolon" unicode=";" horiz-adv-x="348" 
d="M112 429q0 36 23 58t61 22t62 -22t24 -58t-24 -57.5t-62 -21.5t-61 21.5t-23 57.5zM102 -131q20 6 36 18t27.5 27t17.5 32t5 33q-14 18 -33.5 29t-41.5 18q-5 21 -1.5 42t13.5 39t23.5 30.5t28.5 15.5q21 -1 41 -9.5t36 -24t25.5 -39.5t9.5 -56q0 -31 -12.5 -63
t-34 -59.5t-51.5 -48t-66 -28.5z" />
    <glyph glyph-name="semicolon" unicode="&#x37e;" horiz-adv-x="348" 
d="M112 429q0 36 23 58t61 22t62 -22t24 -58t-24 -57.5t-62 -21.5t-61 21.5t-23 57.5zM102 -131q20 6 36 18t27.5 27t17.5 32t5 33q-14 18 -33.5 29t-41.5 18q-5 21 -1.5 42t13.5 39t23.5 30.5t28.5 15.5q21 -1 41 -9.5t36 -24t25.5 -39.5t9.5 -56q0 -31 -12.5 -63
t-34 -59.5t-51.5 -48t-66 -28.5z" />
    <glyph glyph-name="less" unicode="&#x3c;" 
d="M65 324v31l385 235l36 -65l-213 -128l-82 -34l81 -31l233 -137l-56 -92z" />
    <glyph glyph-name="equal" unicode="=" 
d="M57 469h450v-80h-450v80zM57 299h450v-80h-450v80z" />
    <glyph glyph-name="greater" unicode="&#x3e;" 
d="M513 369v-31l-385 -235l-36 65l213 128l82 34l-81 31l-233 136l56 93z" />
    <glyph glyph-name="question" unicode="?" horiz-adv-x="486" 
d="M135 501h-34q-6 13 -13 32.5t-13.5 41t-11.5 44t-7 42.5q38 23 86.5 37t123.5 14q45 0 80.5 -12.5t61 -34t39 -51.5t13.5 -65q0 -45 -17 -77t-42 -56.5t-54.5 -45t-55 -44t-42.5 -52.5t-17 -71h-33q-14 46 -10.5 79.5t16.5 60.5t32 49t36.5 45t30 49t12.5 60
q0 19 -4.5 37.5t-15 32.5t-27 22.5t-40.5 8.5q-21 0 -37 -4t-24 -10zM142 71q0 36 23 58t61 22t62 -22t24 -58t-24 -57.5t-62 -21.5t-61 21.5t-23 57.5z" />
    <glyph glyph-name="at" unicode="@" horiz-adv-x="1064" 
d="M647 465q24 11 57.5 16t67.5 4l-49 -278q-12 -64 -10.5 -95.5t29.5 -31.5q23 0 52.5 15t55.5 45.5t44 77t18 108.5q0 76 -27.5 136t-76 101t-115 62.5t-143.5 21.5q-87 0 -159.5 -30.5t-124.5 -84.5t-81 -128.5t-29 -161.5q0 -89 29.5 -155.5t81.5 -111.5t123.5 -67.5
t155.5 -22.5q29 0 66 7t67 21l16 -57q-35 -20 -77 -28t-93 -8q-89 0 -169.5 26t-141.5 78t-97 130t-36 182q0 109 37.5 197t102 150t150.5 95.5t184 33.5q95 0 174.5 -26.5t136.5 -76t89 -121t32 -162.5q0 -70 -25.5 -127.5t-66.5 -99t-93 -64t-105 -22.5q-30 0 -52 7.5
t-36 25.5t-18.5 47t1.5 72h-4q-9 -27 -26.5 -54.5t-40 -49t-49.5 -35t-55 -13.5q-68 0 -102.5 44t-34.5 112q0 59 19.5 117t54 103.5t82.5 74t105 28.5q35 0 58.5 -6.5t47.5 -20.5zM627 415q-11 8 -23 12t-29 4q-34 0 -63 -26t-50 -66t-33 -86.5t-12 -86.5q0 -34 12 -53.5
t41 -19.5q17 0 34.5 14t34 36.5t32 51t28.5 56.5z" />
    <glyph glyph-name="A" unicode="A" horiz-adv-x="729" 
d="M247 0h-247v38q16 10 34.5 17.5t36.5 11.5l258 645h74l251 -645q20 -4 40 -11.5t35 -17.5v-38h-313v38q19 9 41 17t42 12l-58 159h-222l-59 -159q46 -6 87 -29v-38zM243 291h177l-65 191l-19 86h-2l-22 -88z" />
    <glyph glyph-name="B" unicode="B" horiz-adv-x="649" 
d="M20 0v38q19 11 40.5 19t41.5 10v566q-20 4 -42 11.5t-40 17.5v38h161q38 0 72 3t78 3q48 0 93 -7t80 -25t56 -50.5t21 -83.5q0 -32 -11.5 -59.5t-32 -48.5t-48 -35t-59.5 -20v-4q32 -4 64.5 -15t58.5 -32t42.5 -52.5t16.5 -74.5q0 -54 -24 -93t-64.5 -64t-92.5 -36.5
t-108 -11.5q-21 0 -46 1l-50 2l-48.5 2t-39.5 1h-119zM322 59q63 0 99 37.5t36 99.5q0 38 -12 62.5t-33 39t-50 20t-63 5.5h-53v-257q14 -3 29.5 -5t46.5 -2zM278 388q17 0 34 1.5t32 3.5q39 16 63 49.5t24 76.5q0 63 -33 92.5t-85 29.5q-22 0 -38 -1t-29 -3v-249h32z" />
    <glyph glyph-name="C" unicode="C" horiz-adv-x="652" 
d="M540 210h41q4 -16 7.5 -38.5t6 -48t3.5 -50.5t1 -45q-35 -22 -87.5 -31t-107.5 -9q-83 0 -150.5 20.5t-115 65t-73.5 113t-26 164.5q0 95 28.5 163.5t76.5 112.5t111.5 64.5t133.5 20.5q66 0 119.5 -9.5t87.5 -25.5q0 -16 -1.5 -41t-5 -52.5t-8 -54t-8.5 -44.5h-42
l-55 151q-9 5 -29 8t-41 3q-41 0 -77 -16.5t-64 -52.5t-44 -92.5t-16 -135.5q0 -143 57 -220t155 -77q28 0 47.5 4.5t26.5 12.5z" />
    <glyph glyph-name="D" unicode="D" horiz-adv-x="736" 
d="M20 0v38q17 10 38 17.5t44 11.5v566q-23 5 -44.5 12.5t-37.5 16.5v38h116q17 0 42 1t52 2.5l52.5 3t43.5 1.5q87 0 155.5 -23t116 -67t73 -109t25.5 -150q0 -83 -24 -151t-72 -116t-121.5 -74.5t-172.5 -26.5q-13 0 -35 1.5t-47 3l-50 3t-44 1.5h-110zM313 643
q-18 0 -36 -1t-31 -3v-579q4 -1 14 -1.5l20.5 -1l20.5 -1t15 -0.5q58 0 98.5 24t66.5 65t38 96t12 117q0 55 -12.5 106t-38.5 91t-67.5 64t-99.5 24z" />
    <glyph glyph-name="E" unicode="E" horiz-adv-x="604" 
d="M546 700q-2 -45 -7 -93t-13 -90h-41l-46 118h-187v-245h122l44 77h32q5 -49 5 -109t-5 -112h-32l-44 79h-122v-260h195l53 127h41q4 -19 8 -43t6.5 -49.5t4 -51.5t1.5 -48h-541v38q17 9 38 17t44 12v566q-20 4 -42.5 11.5t-39.5 17.5v38h526z" />
    <glyph glyph-name="F" unicode="F" horiz-adv-x="575" 
d="M242 67q46 -6 87 -29v-38h-309v38q16 9 34 16.5t38 12.5v566q-23 5 -40.5 13t-31.5 16v38h523q0 -20 -2 -43.5t-4.5 -48t-6 -48t-7.5 -43.5h-41l-46 118h-194v-263h137l45 77h30q4 -26 5.5 -55t1.5 -58q-1 -30 -2.5 -58t-4.5 -50h-30l-45 79h-137v-240z" />
    <glyph glyph-name="G" unicode="G" horiz-adv-x="709" 
d="M636 44q-20 -10 -49 -20t-61 -18t-64 -13t-57 -5q-86 0 -153.5 22.5t-115 68t-72.5 113.5t-25 158q0 98 30.5 166.5t81 112t114.5 63.5t131 20q66 0 124 -9t92 -26q0 -15 -1.5 -38.5t-4.5 -50.5t-7.5 -54t-10.5 -49h-41l-56 152q-11 5 -33 7.5t-44 2.5q-41 0 -79 -16
t-67 -51.5t-46 -92t-17 -137.5q0 -66 15.5 -120.5t43.5 -93.5t67 -61t86 -22q15 0 31 2.5t30 6.5t24.5 9t14.5 9v188q-26 2 -49 10t-43 19v38h273v-38q-9 -9 -24 -16.5t-38 -12.5v-224z" />
    <glyph glyph-name="H" unicode="H" horiz-adv-x="769" 
d="M323 0h-303v38q17 9 39.5 17t42.5 12v566q-24 4 -46 12t-36 17v38h303v-38q-15 -10 -33.5 -18t-37.5 -11v-242h265v242q-22 4 -39.5 12t-31.5 17v38h303v-38q-17 -11 -39 -18t-43 -11v-566q23 -4 44.5 -12t37.5 -17v-38h-303v38q15 9 33 17t38 12v259h-265v-259
q20 -4 37 -11t34 -18v-38z" />
    <glyph glyph-name="I" unicode="I" horiz-adv-x="372" 
d="M342 0h-312v38q40 22 81 29v566q-20 3 -42 11t-39 18v38h312v-38q-18 -11 -39.5 -18.5t-41.5 -10.5v-566q20 -4 41.5 -11t39.5 -18v-38z" />
    <glyph glyph-name="J" unicode="J" horiz-adv-x="365" 
d="M27 700h308v-38q-16 -10 -36 -18t-40 -11v-512q0 -82 -24.5 -134.5t-58 -83t-68.5 -44.5t-57 -19l-19 26q15 12 29 30.5t24.5 47.5t17 70.5t6.5 100.5v518q-22 5 -43.5 11.5t-38.5 17.5v38z" />
    <glyph glyph-name="K" unicode="K" horiz-adv-x="710" 
d="M399 700h268v-38q-17 -11 -39 -18.5t-40 -10.5l-190 -241l54 -72.5l66 -84l72 -88l72 -84.5l48 -29v-34h-174l-40 28q-24 30 -50.5 66.5l-52.5 76l-51 79.5l-47 78h-43v-261q22 -4 40 -12t31 -17v-38h-303v38q20 10 41 17.5t41 11.5v566q-23 3 -44.5 11t-37.5 18v38h303
v-38q-13 -8 -31.5 -16t-39.5 -13v-254l59 14l161 240q-20 4 -39.5 12.5t-33.5 16.5v38z" />
    <glyph glyph-name="L" unicode="L" horiz-adv-x="583" 
d="M20 700h328v-38q-21 -11 -46.5 -18.5t-49.5 -10.5v-568h193l67 179h41q4 -23 7.5 -54t5.5 -65t3 -67t0 -58h-549v38q23 12 43.5 19t38.5 10v566q-49 8 -82 29v38z" />
    <glyph glyph-name="M" unicode="M" horiz-adv-x="930" 
d="M909 0h-299v38q20 10 39 17t41 12v418l5 117h-8l-33 -107l-193 -495h-46l-192 491l-36 117h-9l1 -127v-410q19 -4 42 -13t43 -20v-38h-244v38l39.5 19t44.5 15v561q-20 4 -42.5 11t-39.5 18v38h271l153 -407l29 -96h1l30 98l156 405h248v-38q-17 -10 -36.5 -17.5
t-39.5 -11.5v-567q21 -4 40.5 -12t34.5 -16v-38z" />
    <glyph glyph-name="N" unicode="N" horiz-adv-x="758" 
d="M490 700h248v-38q-19 -15 -42 -26.5t-43 -17.5v-630h-85l-353 510l-40 77h-3l9 -80v-417q20 -5 44.5 -16.5t41.5 -23.5v-38h-247v38q18 12 39.5 22.5t44.5 17.5v546q-20 8 -40 18t-36 21v37h216l287 -416l46 -86h4l-5 86v334q-24 8 -46.5 19.5t-39.5 24.5v38z" />
    <glyph glyph-name="O" unicode="O" horiz-adv-x="754" 
d="M39 350q0 78 22 144.5t65 115t106 75.5t145 27t145 -27t105.5 -75.5t64.5 -115t22 -144.5t-22 -144.5t-64.5 -115t-105.5 -75.5t-145 -27t-145 27t-106 75.5t-65 115t-22 144.5zM209 350q0 -64 10 -118.5t31.5 -94t55 -62t80.5 -22.5q43 0 73 22.5t49 62t27.5 94
t8.5 118.5t-9.5 118.5t-30 94t-54 62t-81.5 22.5q-46 0 -77 -22.5t-49.5 -62t-26 -94t-7.5 -118.5z" />
    <glyph glyph-name="P" unicode="P" horiz-adv-x="640" 
d="M252 67q27 -4 53.5 -11.5t47.5 -17.5v-38h-333v38q19 11 40.5 18t41.5 11v566q-23 4 -44 11.5t-38 17.5v38h126q40 0 91.5 4t94.5 4q53 0 103.5 -10.5t90 -35.5t63.5 -66.5t24 -103.5q0 -59 -23.5 -102t-62.5 -71t-90 -41.5t-105 -13.5h-16t-23.5 0.5l-24 1t-16.5 1.5
v-200zM306 643q-20 0 -31.5 -1.5t-22.5 -4.5v-304q9 -3 27 -3.5t29 -0.5q27 0 52 9t44.5 28t31.5 49t12 72q0 80 -39 118t-103 38z" />
    <glyph glyph-name="Q" unicode="Q" horiz-adv-x="754" 
d="M774 -112q-18 -19 -38.5 -36.5t-43 -31.5t-47.5 -22t-52 -8q-46 0 -92.5 16.5t-97 38t-106 41.5t-120.5 28l25 44q48 9 94.5 4.5t92 -15t91 -23.5t91.5 -21t94 -7.5t99 17.5zM39 350q0 78 22 144.5t65 115t106 75.5t145 27t145 -27t105.5 -75.5t64.5 -115t22 -144.5
t-22 -144.5t-64.5 -115t-105.5 -75.5t-145 -27t-145 27t-106 75.5t-65 115t-22 144.5zM209 350q0 -64 10 -118.5t31.5 -94t55 -62t80.5 -22.5q43 0 73 22.5t49 62t27.5 94t8.5 118.5t-9.5 118.5t-30 94t-54 62t-81.5 22.5q-46 0 -77 -22.5t-49.5 -62t-26 -94t-7.5 -118.5z
" />
    <glyph glyph-name="R" unicode="R" horiz-adv-x="697" 
d="M252 67q23 -5 41 -13l35 -16v-38h-308v38q22 12 42 18.5t40 10.5v566q-50 11 -82 29v38h106q20 0 45.5 1t53.5 2.5l57 3t56 1.5q55 0 101.5 -12.5t80 -37.5t52 -62.5t18.5 -87.5q0 -72 -35 -118t-96 -69l85 -128.5t95 -126.5l48 -32v-34h-167l-43 33q-46 55 -81.5 127.5
t-62.5 142.5h-81v-236zM302 643q-31 0 -50 -6v-279h59q51 0 87 36.5t36 108.5q0 37 -10 63.5t-28 43.5t-42 25t-52 8z" />
    <glyph glyph-name="S" unicode="S" horiz-adv-x="558" 
d="M157 83q11 -11 31 -20.5t53 -9.5q55 0 91.5 28.5t36.5 79.5q0 37 -23.5 62t-59.5 46t-77 41.5t-77 48.5t-59.5 66.5t-23.5 95.5q0 49 18 85t49.5 59.5t74.5 35t93 11.5q61 0 113.5 -8.5t94.5 -26.5q-1 -20 -3.5 -46t-6.5 -51.5t-8.5 -48t-8.5 -37.5h-41l-46 137
q-12 6 -35.5 11t-48.5 5q-42 0 -71 -22t-29 -64q0 -38 24 -64.5t60 -48.5t78.5 -43.5t78.5 -49.5t60 -65.5t24 -92.5q0 -100 -67.5 -154.5t-198.5 -54.5q-32 0 -64.5 4t-61.5 11t-51.5 15t-33.5 17q1 23 5 49.5t8.5 53t9.5 50.5t10 42h41z" />
    <glyph glyph-name="T" unicode="T" horiz-adv-x="667" 
d="M505 0h-344v38q20 8 45.5 16.5t51.5 12.5v568h-116l-64 -171h-41q-4 20 -8 51t-7 64t-5 65.5t-2 55.5h637q0 -24 -2 -56t-5 -65t-7 -63.5t-8 -51.5h-42l-64 171h-116v-568q26 -5 51.5 -12t45.5 -17v-38z" />
    <glyph glyph-name="U" unicode="U" horiz-adv-x="715" 
d="M7 700h308v-38q-33 -21 -76 -29v-385q0 -49 11 -82t32 -53.5t50.5 -29.5t66.5 -9q33 0 60.5 9.5t48 30.5t31.5 55t11 84v375q-23 5 -47.5 14t-40.5 20v38h248v-38q-18 -13 -40 -21t-43 -13v-376q0 -128 -67.5 -194.5t-190.5 -66.5q-134 0 -207 60t-73 192v390
q-20 3 -42 10.5t-40 18.5v38z" />
    <glyph glyph-name="V" unicode="V" horiz-adv-x="734" 
d="M564 633q-24 5 -45.5 13t-38.5 16v38h254v-38q-12 -8 -31.5 -16t-40.5 -13l-230 -633l-99 -12l-258 645q-20 5 -40 12.5t-35 16.5v38h333v-38q-17 -8 -38 -16t-44 -13l140 -394l23 -94h2l22 96z" />
    <glyph glyph-name="W" unicode="W" horiz-adv-x="1033" 
d="M865 633q-40 6 -84 29v38h252v-38q-17 -11 -36 -18t-37 -11l-177 -633l-104 -12l-155 484l-151 -472l-105 -12l-195 645q-21 4 -39 11.5t-34 17.5v38h324v-38q-17 -9 -38.5 -16.5t-44.5 -12.5l93 -353l21 -130h2l35 135l133 415h59l142 -410l34 -130h2l23 132z" />
    <glyph glyph-name="X" unicode="X" horiz-adv-x="728" 
d="M435 700h248v-38l-31.5 -16t-36.5 -13l-178 -261l207 -305q23 -5 41.5 -12.5t35.5 -16.5v-38h-324v38q16 9 33.5 16.5t37.5 12.5l-142 220l-132 -221q21 -3 39 -10t35 -18v-38h-256v38q33 20 68 29l201 285l-188 281q-19 5 -36 13l-33 16v38h317v-38q-12 -7 -30 -14.5
t-42 -14.5l122 -201l120 201q-20 4 -40 12.5t-36 16.5v38z" />
    <glyph glyph-name="Y" unicode="Y" horiz-adv-x="698" 
d="M453 700h245v-38q-15 -9 -33.5 -17.5t-37.5 -11.5l-194 -340v-226q20 -2 39.5 -10.5t36.5 -18.5v-38h-308v38q17 9 38 17t44 12v225l-202 341q-23 4 -43.5 12t-37.5 17v38h328v-38q-14 -8 -32 -16t-42 -13l143 -268l136 268q-23 5 -44 13t-36 16v38z" />
    <glyph glyph-name="Z" unicode="Z" horiz-adv-x="634" 
d="M537 211h42q4 -21 7.5 -47.5t6.5 -55t4.5 -56.5t1.5 -52h-564v65l388 570h-248l-59 -143h-42q-5 22 -9 50t-7 56.5t-4 55t-1 46.5h534v-65l-386 -570h274z" />
    <glyph glyph-name="bracketleft" unicode="[" horiz-adv-x="324" 
d="M72 700h234v-55h-104v-820h104v-55h-234v930z" />
    <glyph glyph-name="backslash" unicode="\" horiz-adv-x="382" 
d="M416 -104l-57 -30l-415 820l58 29z" />
    <glyph glyph-name="bracketright" unicode="]" horiz-adv-x="324" 
d="M252 -230h-234v55h104v820h-104v55h234v-930z" />
    <glyph glyph-name="asciicircum" unicode="^" horiz-adv-x="498" 
d="M229 711h46l170 -277h-120l-79 135l-18 53l-25 -54l-90 -134h-70z" />
    <glyph glyph-name="underscore" unicode="_" horiz-adv-x="410" 
d="M0 -116h410v-80h-410v80z" />
    <glyph glyph-name="grave" unicode="`" horiz-adv-x="351" 
d="M291 589l-45 -22l-186 145v29q6 6 26 11.5t42.5 8.5t42.5 3.5t27 -1.5z" />
    <glyph glyph-name="a" unicode="a" horiz-adv-x="557" 
d="M470 145q0 -22 0.5 -38t2.5 -34l69 -10v-35q-12 -6 -32.5 -12t-43 -11.5t-44.5 -9t-39 -5.5h-34q-10 23 -12 46t-3 56h-5q-5 -20 -17 -38.5t-30.5 -33t-43.5 -23.5t-56 -9q-33 0 -61 10t-49 28t-33 43.5t-12 57.5q0 45 17 74t53.5 47.5t94 27.5t139.5 13q8 86 -7 126
t-65 40q-31 0 -57 -10l-47 -120h-44q-8 12 -15.5 27.5t-14 33t-11 35.5t-6.5 35q38 26 98 41t127 15q57 0 93 -12.5t56.5 -34t28.5 -50.5t8 -62q0 -60 -2.5 -108.5t-2.5 -99.5zM245 68q21 0 36 8t25.5 19t16 24t8.5 23v100q-47 -1 -77 -6t-47 -16.5t-23.5 -29t-6.5 -42.5
q0 -38 18 -59t50 -21z" />
    <glyph glyph-name="b" unicode="b" horiz-adv-x="588" 
d="M67 669l-76 8v39q15 6 39.5 12t51 10.5t52 8t43.5 5.5h34v-346h2q20 50 61 78t97 28q88 0 137 -61t49 -185q0 -137 -72.5 -206t-212.5 -69q-25 0 -56 3.5t-60 8.5t-53.5 12t-35.5 14v640zM306 432q-38 0 -61 -27.5t-34 -69.5v-265q14 -10 34.5 -16t46.5 -6q57 0 83.5 51
t26.5 160q0 79 -21.5 126t-74.5 47z" />
    <glyph glyph-name="c" unicode="c" horiz-adv-x="484" 
d="M456 81q-7 -20 -23 -36.5t-38.5 -29.5t-51 -20t-59.5 -7q-66 0 -113.5 18.5t-78.5 53t-46 83t-15 107.5q0 127 69.5 194.5t197.5 67.5q49 0 90 -10.5t68 -24.5q-2 -17 -5.5 -37.5t-8 -41t-10.5 -40t-12 -32.5h-49l-42 119q-7 5 -15 7.5t-24 2.5q-26 0 -45 -9.5
t-32.5 -32.5t-20 -61t-6.5 -94q0 -41 9 -75.5t27.5 -60t46.5 -40t66 -14.5q35 0 61 10t44 24z" />
    <glyph glyph-name="d" unicode="d" horiz-adv-x="599" 
d="M372 99q-5 -22 -18 -42t-31 -35.5t-41 -24.5t-49 -9q-99 0 -150.5 62.5t-51.5 191.5q0 66 18 115.5t50.5 83.5t78.5 51t102 17q18 0 30.5 -1t23 -2.5t20 -5t21.5 -7.5v176l-76 8v39q14 6 38.5 11t51.5 9.5l53 8.5t43 7h34v-681l66 -8v-35q-14 -7 -36 -13t-46 -11
t-46.5 -8.5t-37.5 -5.5h-34l-9 109h-4zM281 68q35 0 59 22t35 75v269q-13 8 -32.5 13t-48.5 5q-58 0 -83 -52.5t-25 -152.5q0 -81 22 -130t73 -49z" />
    <glyph glyph-name="e" unicode="e" horiz-adv-x="537" 
d="M486 84q-8 -17 -25.5 -34.5t-43 -31t-59 -22t-72.5 -8.5q-62 0 -110 18.5t-80 53t-48.5 82.5t-16.5 108q0 128 67 195t186 67q51 0 95.5 -14t74 -46t41 -84t-1.5 -127h-307q1 -79 40.5 -126t116.5 -47q33 0 68.5 10t55.5 26zM280 455q-20 0 -35.5 -7t-27 -25.5t-18.5 -50
t-10 -79.5h161q7 78 -9 120t-61 42z" />
    <glyph glyph-name="f" unicode="f" horiz-adv-x="372" 
d="M321 752q41 0 73.5 -7.5t49.5 -14.5q-3 -33 -13 -68t-18 -58h-34l-44 95q-26 0 -43.5 -5.5t-28 -21.5t-15.5 -45.5t-5 -76.5v-50h106v-63h-106v-374q52 -6 96 -24v-39h-306v39q31 18 66 24v374h-76v39q35 22 76 33v35q0 62 17.5 102.5t47.5 64t70.5 32.5t86.5 9z" />
    <glyph glyph-name="g" unicode="g" horiz-adv-x="564" 
d="M264 512q65 0 108 -13.5t65 -33.5q47 51 108 71q7 -5 14 -14.5t12 -20.5t8 -22t3 -18l-13 -24h-105q11 -14 20.5 -36.5t9.5 -53.5q0 -33 -14 -62t-42.5 -51.5t-72 -35.5t-101.5 -13q-17 0 -30.5 0.5t-23.5 2.5q-4 -6 -8.5 -14.5t-4.5 -16.5q0 -17 24 -27t61 -18l79.5 -18
t79.5 -26.5t62 -43t26 -68.5q1 -40 -20 -71t-57.5 -52.5t-86 -33t-105.5 -11.5q-66 0 -112.5 10.5t-75.5 28.5t-42.5 41t-13.5 48q0 28 11 48t31 35t46.5 25t58.5 18q-15 4 -29 10t-25 14.5t-18 20t-7 26.5q0 13 8 25.5t21 23t28 19t30 14.5q-63 14 -100 54.5t-37 103.5
q0 75 62 117t168 42zM390 -76q0 27 -16.5 43.5t-42.5 27t-58.5 18t-64.5 17.5q-26 -20 -37 -40t-11 -48q0 -46 31.5 -71.5t88.5 -25.5q56 0 83 23.5t27 55.5zM178 348q0 -52 17.5 -79t68.5 -27q49 0 67.5 27.5t18.5 78.5q0 54 -19 80.5t-67 26.5q-50 0 -68 -26t-18 -81z" />
    <glyph glyph-name="h" unicode="h" horiz-adv-x="640" 
d="M628 0h-265v39q12 7 25 13t30 11v202q0 86 -16.5 126.5t-64.5 40.5q-40 0 -68 -27.5t-40 -63.5v-278q16 -4 28.5 -9t26.5 -15v-39h-265v39q31 16 66 24v606l-76 8v39q15 6 38.5 12t49.5 10.5t52 8t46 5.5h34v-353h1q10 23 27 43.5t38.5 36t46.5 24.5t53 9q40 0 71.5 -9.5
t52.5 -33.5t32 -64.5t11 -102.5v-239q17 -4 34 -9t32 -15v-39z" />
    <glyph glyph-name="i" unicode="i" horiz-adv-x="332" 
d="M307 0h-276v39q15 8 31 13.5t35 10.5v366l-66 8v39q15 6 37.5 12t47.5 10.5t49 8t42 5.5h34v-449q20 -5 36 -10.5t30 -13.5v-39zM80 664q0 35 24 55t62 20t62 -20t24 -55q0 -34 -24 -54t-62 -20t-62 20t-24 54z" />
    <glyph glyph-name="j" unicode="j" horiz-adv-x="320" 
d="M97 429l-66 8v39q15 7 37 13t47 10.5t49.5 7.5t42.5 5h34v-469q0 -47 -11.5 -84t-30 -64t-41 -46t-44 -31.5t-39.5 -19.5t-28 -10l-20 30q12 6 24 19.5t22.5 37.5t17 60.5t6.5 88.5v405zM80 664q0 35 24 55t62 20t62 -20t24 -55q0 -34 -24 -54t-62 -20t-62 20t-24 54z
" />
    <glyph glyph-name="k" unicode="k" horiz-adv-x="583" 
d="M322 500h234v-39q-19 -8 -35.5 -14t-36.5 -10q-15 -20 -32.5 -39.5l-35 -37.5l-33.5 -34.5l-29 -29.5l35 -48l43 -59.5l48.5 -64t51.5 -61.5l51 -24v-39h-169l-27 24q-23 31 -40.5 58t-31.5 52l-27 48.5l-26 46.5l-33 10v-176q17 -3 31 -9t30 -15v-39h-271v39
q33 16 66 24v606l-76 8v39q14 6 38 12t51 10.5t53 8t44 5.5h34v-469h26q33 35 61.5 77l50.5 77q-13 4 -23.5 10t-21.5 14v39z" />
    <glyph glyph-name="l" unicode="l" horiz-adv-x="332" 
d="M307 0h-276v39q33 16 66 24v606l-76 8v39q13 6 36 12t49.5 10.5t53 8t47.5 5.5h34v-689q33 -8 66 -24v-39z" />
    <glyph glyph-name="m" unicode="m" horiz-adv-x="924" 
d="M594 0h-250v39q10 6 22.5 12.5t27.5 11.5v199q0 46 -2.5 78t-10.5 52.5t-22 30t-36 9.5q-32 0 -55.5 -24.5t-34.5 -64.5v-280q27 -8 50 -24v-39h-260v39q14 7 31 13t35 11v366l-66 8v39q16 7 39.5 13t48.5 10.5t48.5 7.5l39.5 5h34v-113h1q16 47 56.5 80t97.5 33
q24 0 47 -5t42.5 -18.5t33.5 -37.5t20 -62q18 55 60 89t102 34q37 0 65.5 -9.5t48 -33.5t29.5 -65t10 -104v-237q34 -6 66 -24v-39h-260v39q23 15 50 24v217q0 78 -14.5 115t-62.5 37q-36 0 -56.5 -27t-30.5 -72v-270q17 -5 30.5 -11t25.5 -13v-39z" />
    <glyph glyph-name="n" unicode="n" horiz-adv-x="644" 
d="M632 0h-265v39q13 7 25.5 12.5t29.5 11.5v235q0 63 -18 98.5t-64 35.5q-38 0 -65.5 -24.5t-41.5 -66.5v-278q16 -4 28.5 -9.5t26.5 -14.5v-39h-265v39q25 13 66 24v366l-66 8v39q13 6 34 11.5t45.5 10.5t50 8.5t46.5 5.5h34v-103h1q21 42 63 72.5t102 30.5q39 0 70 -9.5
t52.5 -33.5t33 -64.5t11.5 -102.5v-239q40 -7 66 -24v-39z" />
    <glyph glyph-name="o" unicode="o" horiz-adv-x="594" 
d="M31 250q0 61 18.5 109.5t53 82.5t83.5 52t111 18q70 0 120.5 -19.5t83 -54t47.5 -83t15 -105.5q0 -61 -18 -109.5t-52.5 -82.5t-84 -52t-111.5 -18q-68 0 -118 19.5t-83 54t-49 83t-16 105.5zM186 250q0 -45 5.5 -82.5t19.5 -63.5t38 -40.5t62 -14.5q22 0 40 10.5t31 34
t19.5 62t6.5 94.5q0 46 -5.5 83t-19 63t-36.5 40.5t-58 14.5q-26 0 -45 -10.5t-32 -34t-19.5 -62t-6.5 -94.5z" />
    <glyph glyph-name="p" unicode="p" horiz-adv-x="609" 
d="M297 -200h-276v39q34 16 66 24v566l-66 8v39q16 7 39.5 13t48.5 10.5t48.5 7.5l39.5 5h34v-112h1q17 48 53.5 80t101.5 32q44 0 79.5 -14.5t60 -45t38 -78t13.5 -113.5q0 -63 -17.5 -114t-50 -86t-79 -54t-105.5 -19q-34 0 -53.5 4.5t-41.5 15.5v-145q16 -2 32 -7.5
t34 -16.5v-39zM329 432q-34 0 -60.5 -24t-37.5 -74v-266q16 -12 34 -17.5t47 -5.5q57 0 84 55t27 161q0 82 -20.5 126.5t-73.5 44.5z" />
    <glyph glyph-name="q" unicode="q" horiz-adv-x="589" 
d="M367 89q-7 -20 -20 -38t-31 -32t-41.5 -22.5t-52.5 -8.5q-91 0 -141 62t-50 187q0 137 73.5 204.5t208.5 67.5q28 0 59 -3t59 -7.5t50.5 -10t33.5 -10.5v-615q33 -6 66 -24v-39h-276v39q31 16 66 24v226h-4zM272 68q75 0 99 96v274q-17 5 -36 9.5t-42 4.5
q-58 0 -82.5 -46t-24.5 -157q0 -87 18 -134t68 -47z" />
    <glyph glyph-name="r" unicode="r" horiz-adv-x="431" 
d="M290 385q-12 -6 -28 -20t-29 -46v-256q20 -2 40 -7.5t40 -16.5v-39h-290v39q18 10 34 15t32 9v366l-66 8v39q16 7 39.5 13t48.5 10.5t48.5 7.5l39.5 5h34v-133h4q8 22 23.5 46t36.5 44t46 32t52 11q11 -14 19 -39.5t13 -48.5v-39h-137z" />
    <glyph glyph-name="s" unicode="s" horiz-adv-x="452" 
d="M288 109q0 26 -18.5 45t-46 35t-60 32t-60 37.5t-46 50.5t-18.5 71q0 30 14 54.5t38 41.5t57.5 26.5t72.5 9.5q54 0 100.5 -8.5t81.5 -23.5q-4 -32 -16 -68.5t-23 -66.5h-34l-42 102q-12 5 -25 6.5t-29 1.5q-30 0 -45.5 -17.5t-15.5 -39.5q0 -25 18.5 -43.5t46 -34.5
t60 -32t60 -36.5t46 -48.5t18.5 -67q0 -69 -56 -108.5t-150 -39.5q-48 0 -99 10t-88 28q2 36 17 73t32 66h34l49 -109q11 -8 24.5 -9.5t25.5 -1.5q29 0 53 17t24 47z" />
    <glyph glyph-name="t" unicode="t" horiz-adv-x="399" 
d="M8 476q38 24 80 34v81q6 6 20.5 11.5t31 10l32.5 8.5t26 6h34v-127h132v-63h-132v-259q0 -62 15.5 -86t51.5 -24q18 0 40.5 2.5t41.5 9.5l7 -33q-9 -9 -26.5 -19t-40 -19t-49 -15t-55.5 -6q-65 0 -97 34t-32 110v305h-80v39z" />
    <glyph glyph-name="u" unicode="u" horiz-adv-x="622" 
d="M71 198q0 63 3 117t3 114l-66 8v39q16 6 39.5 12t48.5 10.5t48.5 8t39.5 5.5h34q0 -75 -3 -147.5t-3 -142.5q0 -82 16.5 -118t61.5 -36q31 0 57.5 23.5t43.5 75.5v262l-65 8v39q15 6 37.5 12t47 10.5t48.5 8t42 5.5h34v-441l66 -8v-35q-14 -6 -35 -12t-44 -11.5t-45.5 -9
t-40.5 -5.5h-34l-7 119h-4q-5 -21 -18 -42.5t-33.5 -39t-48.5 -28.5t-62 -11q-38 0 -67.5 9.5t-50.5 33.5t-32 64.5t-11 102.5z" />
    <glyph glyph-name="v" unicode="v" horiz-adv-x="539" 
d="M243 -12l-200 449q-29 10 -53 24v39h263v-38q-13 -7 -26.5 -13.5t-30.5 -11.5l93 -256l19 -67h2l16 68l85 255q-16 4 -29.5 10t-25.5 14v39h193v-39q-10 -7 -24.5 -13t-32.5 -11l-175 -437z" />
    <glyph glyph-name="w" unicode="w" horiz-adv-x="784" 
d="M200 -12l-157 449q-14 5 -27.5 10.5t-25.5 13.5v39h253v-38q-14 -8 -28 -14.5t-29 -10.5l69 -256l13 -77h2l18 80l106 310l49 6l114 -317l21 -79h2l16 78l60 255q-11 2 -25.5 8t-29.5 16v39h193v-39q-21 -14 -57 -24l-139 -437l-94 -12l-86 247l-19 83h-3l-23 -83
l-80 -235z" />
    <glyph glyph-name="x" unicode="x" horiz-adv-x="560" 
d="M343 268l158 -205q26 -8 49 -24v-39h-255v38q11 8 22.5 14.5t23.5 10.5l-95 136l-92 -136q14 -5 24.5 -11t20.5 -13v-39h-189v39l25.5 14t26.5 10l148 184l-149 190q-14 5 -25 10.5t-20 13.5v39h251v-38l-21.5 -14.5t-23.5 -10.5l87 -124l83 124q-17 5 -27 11t-18 13v39
h185v-39q-10 -7 -22 -13t-30 -11z" />
    <glyph glyph-name="y" unicode="y" horiz-adv-x="528" 
d="M38 437q-15 4 -27.5 10t-25.5 14v39h263v-38q-21 -14 -57 -25l101 -251l17 -64h2l16 65l78 250q-30 6 -55 24v39h193v-39q-21 -14 -57 -24l-163 -437q-24 -64 -48 -104.5t-48 -64.5t-48 -33.5t-48 -12.5q-10 9 -18 22.5t-14 29t-10 31.5t-5 30l13 24h122q9 14 15.5 30
t15.5 48z" />
    <glyph glyph-name="z" unicode="z" horiz-adv-x="516" 
d="M453 185q11 -41 19 -91t6 -94h-446v39l285 404h-166l-44 -118h-34q-11 43 -18 91t-7 84h430v-39l-286 -404h173l54 128h34z" />
    <glyph glyph-name="braceleft" unicode="{" horiz-adv-x="354" 
d="M123 102q0 51 -21 80t-59 29v48q38 0 59 30.5t21 74.5v230q0 48 24 77t72 29h121v-55h-35q-27 0 -39.5 -14t-12.5 -46v-220q0 -33 -10.5 -56t-27 -37.5t-35.5 -22t-37 -9.5v-6q17 -2 36.5 -10t36 -24t27 -39.5t10.5 -55.5v-220q0 -31 12 -45.5t41 -14.5h34v-55h-121
q-45 0 -70.5 26.5t-25.5 78.5v227z" />
    <glyph glyph-name="bar" unicode="|" horiz-adv-x="235" 
d="M83 700h70v-830h-70v830z" />
    <glyph glyph-name="braceright" unicode="}" horiz-adv-x="354" 
d="M244 369q0 -51 21 -80t59 -29v-48q-38 0 -59 -30.5t-21 -74.5v-231q0 -48 -24 -77t-72 -29h-121v55h35q27 0 39.5 14t12.5 46v221q0 33 9 56t23.5 37.5t32 22t35.5 9.5v6q-17 2 -35 10t-32.5 24t-23.5 39.5t-9 55.5v219q0 31 -12 45.5t-41 14.5h-34v55h122q45 0 70 -26.5
t25 -78.5v-226z" />
    <glyph glyph-name="asciitilde" unicode="~" horiz-adv-x="530" 
d="M46 312q27 58 67 88.5t77 30.5q25 0 49 -10.5t47 -23.5t46.5 -23.5t48.5 -10.5q18 0 37.5 7.5t39.5 26.5l23 -30q-23 -48 -56 -71.5t-67 -23.5q-26 0 -50.5 10.5t-48.5 23.5t-48 23.5t-48 10.5q-22 0 -44.5 -12t-45.5 -43z" />
    <glyph glyph-name="uni00A0" unicode="&#xa0;" horiz-adv-x="270" 
 />
    <glyph glyph-name="exclamdown" unicode="&#xa1;" horiz-adv-x="344" 
d="M172 286l50 -194v-278q-11 -6 -30.5 -8.5t-41.5 -2.5t-42 2.5t-30 8.5v278l50 194h44zM233 433q0 -37 -23 -58.5t-61 -21.5t-62 21.5t-24 58.5q0 36 24 57.5t62 21.5t61 -21.5t23 -57.5z" />
    <glyph glyph-name="cent" unicode="&#xa2;" 
d="M521 81q-13 -35 -52 -60t-93 -30v-161h-77v161q-121 13 -182 81.5t-61 177.5q0 112 62.5 177.5t180.5 80.5v152h77v-149q45 -2 82 -11.5t63 -22.5q-2 -17 -5.5 -37.5t-8 -41t-10.5 -40t-12 -32.5h-34l-36 119q-5 2 -10.5 4.5t-19.5 3.5l-16 1v-384q8 -2 15.5 -2h15.5
q35 0 61 10t44 24zM211 258q0 -59 22.5 -104.5t72.5 -68.5v361q-41 -15 -68 -59t-27 -129z" />
    <glyph glyph-name="sterling" unicode="&#xa3;" 
d="M40 375h77q-20 31 -36 68.5t-16 90.5q0 42 17 75t47 56t71.5 35t91.5 12q30 0 62 -3.5t60.5 -8.5t52.5 -12t38 -14q-1 -16 -4.5 -40t-8 -49.5t-10.5 -49.5t-11 -41h-34l-40 137q-36 16 -89 16q-38 0 -62 -18.5t-30 -54.5q-4 -19 -1 -42q3 -22 9 -42t14.5 -39l17 -38
l16.5 -38h125v-61h-108q4 -31 -3.5 -55t-19.5 -47q-4 -20 -14.5 -39t-28.5 -33l-33 -24v-4l51 6h177l49 112h34q3 -23 6.5 -55t6.5 -65t5 -62.5t2 -47.5h-478v54q58 25 89 59.5t36 86.5q2 11 2 21.5v21.5q-2 20 -6.5 37.5t-10.5 33.5h-113v61z" />
    <glyph glyph-name="currency" unicode="&#xa4;" 
d="M36 178l75 74l40 14q-13 17 -18.5 35.5t-5.5 44.5q0 46 24 79l-40 15l-74 74l78 78l73 -74l16 -40q16 11 34 17t44 6q52 -1 80 -22l16 39l72 72l78 -77l-74 -73l-38 -14q10 -17 15 -36t6 -45q0 -45 -21 -79l38 -14l73 -74l-78 -78l-73 73l-14 39q-15 -9 -35.5 -15
t-43.5 -6q-26 1 -45.5 6.5t-35.5 14.5l-14 -38l-74 -74zM282 264q36 0 60.5 23t24.5 59t-24.5 59.5t-60.5 23.5q-36 1 -60.5 -23t-24.5 -60t24.5 -59t60.5 -23z" />
    <glyph glyph-name="yen" unicode="&#xa5;" 
d="M379 700h240v-38q-14 -9 -35.5 -17.5t-40.5 -11.5l-151 -291h117v-65h-142v-57h142v-65h-142v-88q19 -2 39 -10.5t37 -18.5v-38h-308v38q17 9 38 17t44 12v88h-143v65h143v57h-143v65h115l-163 291q-23 4 -43.5 12t-37.5 17v38h328v-38q-13 -8 -31.5 -16t-42.5 -13
l132 -282l128 282q-23 5 -43.5 13t-36.5 16v38z" />
    <glyph glyph-name="brokenbar" unicode="&#xa6;" horiz-adv-x="235" 
d="M83 190h70v-320h-70v320zM153 380h-70v320h70v-320z" />
    <glyph glyph-name="section" unicode="&#xa7;" horiz-adv-x="566" 
d="M338 39q0 27 -21 45t-52.5 31.5t-68.5 27.5t-68.5 33.5t-52.5 48t-21 73.5q0 50 38.5 85t96.5 58q-21 11 -39 24t-31.5 29.5t-21.5 37.5t-8 48q0 60 51.5 96t135.5 36q54 0 97.5 -8t79.5 -19q-4 -32 -11 -58.5t-18 -56.5h-34l-52 77q-12 5 -22.5 6.5t-26.5 1.5
q-34 0 -50 -17.5t-16 -39.5q0 -27 21.5 -45.5t53.5 -34t69.5 -31t69.5 -36t53.5 -49t21.5 -69.5q0 -26 -11.5 -48t-29.5 -40.5t-41 -33t-45 -25.5q36 -20 61.5 -47t25.5 -71q0 -70 -55 -110t-156 -40q-48 0 -96.5 10t-85.5 28q2 36 12 60.5t27 53.5h34l59 -84q11 -8 22 -9.5
t23 -1.5q32 0 57 17t25 47zM378 301q0 22 -11.5 39t-30 30t-43 23.5l-50.5 21.5q-22 -16 -38.5 -39t-16.5 -48q0 -22 12 -38.5t31.5 -29.5t44.5 -23.5l51 -21.5q20 17 35.5 40.5t15.5 45.5z" />
    <glyph glyph-name="dieresis" unicode="&#xa8;" horiz-adv-x="505" 
d="M60 659q0 32 20 51t53 19q32 0 52.5 -19t20.5 -51q0 -30 -20.5 -49t-52.5 -19q-33 0 -53 19t-20 49zM299 659q0 32 20 51t52 19q33 0 53.5 -19t20.5 -51q0 -30 -20.5 -49t-53.5 -19q-32 0 -52 19t-20 49z" />
    <glyph glyph-name="copyright" unicode="&#xa9;" horiz-adv-x="819" 
d="M55 290q0 83 29.5 148.5t79 110.5t113 69t132.5 24t132.5 -24t113 -69t79 -110.5t29.5 -148.5t-29.5 -148.5t-79 -110.5t-113 -69t-132.5 -24q-72 0 -136.5 24t-113 69t-76.5 110.5t-28 148.5zM122 290q0 -67 23 -121t62 -91.5t91 -58t111 -20.5q61 0 113.5 20.5t91 58
t60.5 91.5t22 121q0 69 -24 123t-63.5 91.5t-91.5 57t-108 19.5q-63 0 -115.5 -20.5t-90.5 -58t-59.5 -91.5t-21.5 -121zM515 220h34q2 -8 4.5 -20.5t4 -27.5t2 -30t-0.5 -27q-17 -14 -52.5 -23.5t-76.5 -9.5q-49 0 -89.5 13.5t-70 40t-46 65.5t-16.5 90q0 52 18.5 91t48 65
t67 39.5t75.5 13.5q48 0 83 -8.5t56 -21.5q1 -9 0 -24t-3 -31.5t-4.5 -32.5t-5.5 -26h-34l-30 83q-7 5 -19 5.5t-24 0.5q-45 0 -69 -38t-24 -116q0 -33 5.5 -61.5t17.5 -49t31 -32t46 -11.5q16 0 28 2.5t16 6.5z" />
    <glyph glyph-name="ordfeminine" unicode="&#xaa;" horiz-adv-x="460" 
d="M99 596q-10 11 -19 33t-10 43q25 13 68 24.5t119 11.5q39 0 64 -6.5t40 -19.5t21 -32t6 -43q0 -38 -1.5 -81t-1.5 -75l50 -10v-35q-9 -5 -24.5 -9.5t-33 -8.5t-34 -6.5t-27.5 -3.5h-26q-7 17 -9.5 31.5t-3.5 31.5h-4q-5 -9 -14 -20.5t-23.5 -21.5t-34.5 -16.5t-47 -6.5
q-50 0 -79.5 25.5t-29.5 69.5q0 31 16.5 50.5t44 30.5t63.5 15.5t76 4.5q7 0 13.5 -0.5t13.5 -0.5q1 6 1 16.5v15.5q0 23 -12 38.5t-46 15.5q-11 0 -24.5 -2t-27.5 -7l-28 -52h-36zM205 431q28 0 44 17.5t23 33.5v51q-9 1 -17.5 1.5t-16.5 0.5q-32 0 -54 -12t-22 -43
q0 -19 11 -34t32 -15z" />
    <glyph glyph-name="guillemotleft" unicode="&#xab;" horiz-adv-x="505" 
d="M236 259l178 222l43 -36l-106 -179l112 -189l-42 -36zM20 259l240 223l39 -36l-144 -181l150 -189l-39 -37z" />
    <glyph glyph-name="logicalnot" unicode="&#xac;" horiz-adv-x="552" 
d="M59 401h434v-216h-80v126h-354v90z" />
    <glyph glyph-name="uni00AD" unicode="&#xad;" horiz-adv-x="414" 
d="M66 327h282v-90h-282v90z" />
    <glyph glyph-name="registered" unicode="&#xae;" horiz-adv-x="703" 
d="M69 451q0 66 23 118t62 88t90 55t107 19q57 0 108.5 -19t90 -55t61 -88t22.5 -118t-23 -118t-62 -88t-90 -55t-107 -19q-57 0 -108.5 19t-90 55t-61 88t-22.5 118zM131 451q0 -52 17.5 -93.5t47.5 -71t70 -45t85 -15.5q47 0 87.5 15.5t70 44.5t46 70.5t16.5 94.5
q0 52 -17.5 93.5t-47.5 70.5t-70 45t-85 16q-48 0 -88 -16t-69.5 -45t-46 -70.5t-16.5 -93.5zM320 351q13 -1 20 -3.5t14 -5.5v-33h-138v33q17 6 35 9v215q-11 1 -19 3.5t-16 7.5v31h52q18 0 43 2t41 2q54 0 88 -19.5t34 -64.5q0 -31 -19 -50.5t-47 -28.5l16.5 -27
t15.5 -23.5t18.5 -23t24.5 -24.5l23 -12v-30h-64l-28 11q-25 30 -37.5 60t-23.5 59h-33v-88zM347 571q-11 0 -16 -0.5t-11 -2.5v-91h29q24 0 37 12t12 39q-1 23 -14.5 33t-36.5 10z" />
    <glyph glyph-name="macron" unicode="&#xaf;" horiz-adv-x="414" 
d="M60 619v70h294v-70h-294z" />
    <glyph glyph-name="macron" unicode="&#x2c9;" horiz-adv-x="414" 
d="M60 619v70h294v-70h-294z" />
    <glyph glyph-name="degree" unicode="&#xb0;" horiz-adv-x="413" 
d="M69 571q0 31 11.5 57t31 44.5t46 29t55.5 10.5t55.5 -9t46 -26.5t31 -44t11.5 -61.5q0 -33 -11.5 -59t-31 -44.5t-46 -28t-55.5 -9.5t-55.5 9.5t-46 28t-31 44.5t-11.5 59zM138 571q0 -38 23 -59t52 -21q32 0 53.5 19.5t21.5 60.5q0 39 -21.5 59.5t-53.5 20.5
q-33 0 -54 -21t-21 -59z" />
    <glyph glyph-name="plusminus" unicode="&#xb1;" 
d="M57 504h185v196h80v-196h185v-80h-185v-132h-80v132h-185v80zM57 244h450v-80h-450v80z" />
    <glyph glyph-name="twosuperior" unicode="&#xb2;" horiz-adv-x="440" 
d="M114 621h-27q-6 12 -14 32.5t-14.5 42t-11.5 40.5t-6 29q32 18 78.5 33t101.5 15q83 0 120.5 -32.5t37.5 -83.5q0 -33 -16 -65t-44.5 -61t-68.5 -55.5t-88 -49.5v-6l31 7h119l44 67h31q3 -17 6 -39t5 -43t2.5 -38.5t0.5 -27.5h-357v51q41 23 79.5 51.5t68.5 59.5
t48.5 63.5t18.5 63.5q0 30 -14.5 46.5t-49.5 16.5q-30 0 -52 -12z" />
    <glyph glyph-name="threesuperior" unicode="&#xb3;" horiz-adv-x="440" 
d="M207 437q38 0 55.5 22.5t17.5 48.5q0 31 -19 48.5t-62 17.5h-38v35l77 86l44 42v2l-62 -4h-71l-40 -83h-31q-6 13 -11 34t-8.5 43.5t-6 43t-2.5 31.5h334v-45l-102 -101l-37 -31v-1l31 4q24 0 46 -7.5t39.5 -22t28 -36.5t10.5 -51q0 -65 -49.5 -100.5t-150.5 -35.5
q-20 0 -43 3.5t-45 10t-41 15t-32 17.5l34 106h27q5 -5 11 -15l13 -21.5t13.5 -23.5l11.5 -22q9 -3 23.5 -6.5t34.5 -3.5z" />
    <glyph glyph-name="acute" unicode="&#xb4;" horiz-adv-x="351" 
d="M168 763q8 2 26.5 1.5t38.5 -3.5t36.5 -8.5t21.5 -11.5v-24l-191 -155l-40 22z" />
    <glyph glyph-name="mu" unicode="&#xb5;" horiz-adv-x="622" 
d="M150 13l49 -174v-39q-36 -8 -67.5 -8t-60.5 8v629l-60 8v39q16 6 39.5 12t48.5 10.5t48.5 8t39.5 5.5h34q0 -75 -3 -147.5t-3 -142.5q0 -82 16.5 -118t61.5 -36q31 0 58 23.5t44 75.5v262l-66 8v39q15 6 37.5 12t47.5 10.5t49 8t42 5.5h34v-441l66 -8v-35q-14 -6 -35 -12
t-44.5 -11.5t-46 -9t-40.5 -5.5h-34l-7 119h-4q-5 -21 -17.5 -42.5t-32.5 -39t-46 -28.5t-56 -11q-28 0 -50.5 7t-36.5 18h-5z" />
    <glyph glyph-name="mu" unicode="&#x3bc;" horiz-adv-x="622" 
d="M150 13l49 -174v-39q-36 -8 -67.5 -8t-60.5 8v629l-60 8v39q16 6 39.5 12t48.5 10.5t48.5 8t39.5 5.5h34q0 -75 -3 -147.5t-3 -142.5q0 -82 16.5 -118t61.5 -36q31 0 58 23.5t44 75.5v262l-66 8v39q15 6 37.5 12t47.5 10.5t49 8t42 5.5h34v-441l66 -8v-35q-14 -6 -35 -12
t-44.5 -11.5t-46 -9t-40.5 -5.5h-34l-7 119h-4q-5 -21 -17.5 -42.5t-32.5 -39t-46 -28.5t-56 -11q-28 0 -50.5 7t-36.5 18h-5z" />
    <glyph glyph-name="paragraph" unicode="&#xb6;" horiz-adv-x="547" 
d="M411 94q0 -67 -10 -110.5t-29.5 -70t-48 -40t-65.5 -21.5q-20 -29 -49.5 -43.5t-60.5 -20.5l-16 33q22 9 41.5 22.5t33.5 36t22.5 57.5t8.5 87v286q-32 0 -63.5 10t-57 32.5t-41.5 59t-16 88.5q0 42 12.5 78.5t37 63.5t62.5 42.5t89 15.5h226v-43q-17 -8 -35 -14t-41 -10
v-539zM278 -111q41 13 55 64.5t14 140.5v544h-44v-614q0 -40 -5.5 -74.5t-19.5 -60.5z" />
    <glyph glyph-name="periodcentered" unicode="&#xb7;" horiz-adv-x="296" 
d="M63 321q0 36 23 58t61 22t62 -22t24 -58t-24 -57.5t-62 -21.5t-61 21.5t-23 57.5z" />
    <glyph glyph-name="periodcentered" unicode="&#x22c5;" horiz-adv-x="296" 
d="M63 321q0 36 23 58t61 22t62 -22t24 -58t-24 -57.5t-62 -21.5t-61 21.5t-23 57.5z" />
    <glyph glyph-name="periodcentered" unicode="&#x2219;" horiz-adv-x="296" 
d="M63 321q0 36 23 58t61 22t62 -22t24 -58t-24 -57.5t-62 -21.5t-61 21.5t-23 57.5z" />
    <glyph glyph-name="cedilla" unicode="&#xb8;" horiz-adv-x="318" 
d="M134 -68q60 -3 91.5 -21.5t32.5 -54.5q0 -29 -17 -50t-45 -35t-63 -21t-70 -7v39q70 11 70 57q-1 23 -19.5 33t-53.5 14l41 115h59z" />
    <glyph glyph-name="onesuperior" unicode="&#xb9;" horiz-adv-x="440" 
d="M385 386h-313v30q27 14 51.5 24t49.5 15v215l4 45q-24 -7 -56.5 -7.5t-55.5 1.5v42q46 6 95 24t85 38h40v-358q55 -13 100 -39v-30z" />
    <glyph glyph-name="ordmasculine" unicode="&#xba;" horiz-adv-x="458" 
d="M37 542q0 39 14 70t39.5 53.5t60.5 34.5t78 12t78.5 -10.5t60.5 -31.5t39 -53t14 -75q0 -39 -14 -70.5t-39 -53.5t-60.5 -34t-78.5 -12t-78 10.5t-60.5 31.5t-39.5 53t-14 75zM157 542q0 -119 72 -119q35 0 53.5 26.5t18.5 92.5t-18.5 92.5t-53.5 26.5q-37 0 -54.5 -26.5
t-17.5 -92.5z" />
    <glyph glyph-name="guillemotright" unicode="&#xbb;" horiz-adv-x="505" 
d="M87 41l-42 36l109 182l-109 186l42 36l182 -220zM242 40l-39 37l147 182l-147 187l39 36l243 -221z" />
    <glyph glyph-name="onequarter" unicode="&#xbc;" horiz-adv-x="958" 
d="M371 282h-313v30q27 14 51.5 24t49.5 15v215l4 45q-24 -7 -56.5 -7.5t-55.5 1.5v42q46 6 95 24t85 38h40v-358q55 -13 100 -39v-30zM877 0h-244v30q15 8 34 16.5t39 12.5v54h-231v37l274 277h69v-254h85v-60h-85v-54q30 -6 59 -29v-30zM706 276l8 43h-3l-33 -43l-84 -87
l-36 -23l54 7h94v103zM772 715l48 -42l-585 -686l-47 43z" />
    <glyph glyph-name="onehalf" unicode="&#xbd;" horiz-adv-x="1031" 
d="M371 282h-313v30q27 14 51.5 24t49.5 15v215l4 45q-24 -7 -56.5 -7.5t-55.5 1.5v42q46 6 95 24t85 38h40v-358q55 -13 100 -39v-30zM688 235h-27q-6 12 -14 32.5t-14.5 42t-11.5 40.5t-6 29q32 18 78.5 33t101.5 15q83 0 120.5 -32.5t37.5 -83.5q0 -33 -16 -65t-44.5 -61
t-68.5 -55.5t-88 -49.5v-6l31 7h119l44 67h31q3 -17 6 -39t5 -43t2.5 -38.5t0.5 -27.5h-357v51q41 23 79.5 51.5t68.5 59.5t48.5 63.5t18.5 63.5q0 30 -14.5 46.5t-49.5 16.5q-30 0 -52 -12zM772 715l48 -42l-585 -686l-47 43z" />
    <glyph glyph-name="threequarters" unicode="&#xbe;" horiz-adv-x="980" 
d="M223 333q38 0 55.5 22.5t17.5 48.5q0 31 -19 48.5t-62 17.5h-38v35l77 86l44 42v2l-62 -4h-71l-40 -83h-31q-6 13 -11 34t-8.5 43.5t-6 43t-2.5 31.5h334v-45l-102 -101l-37 -31v-1l31 4q24 0 46 -7.5t39.5 -22t28 -36.5t10.5 -51q0 -65 -49.5 -100.5t-150.5 -35.5
q-20 0 -43 3.5t-45 10t-41 15t-32 17.5l34 106h27q5 -5 11 -15l13 -21.5t13.5 -23.5l11.5 -22q9 -3 23.5 -6.5t34.5 -3.5zM899 0h-244v30q15 8 34 16.5t39 12.5v54h-231v37l274 277h69v-254h85v-60h-85v-54q30 -6 59 -29v-30zM728 276l8 43h-3l-33 -43l-84 -87l-36 -23l54 7
h94v103zM794 715l48 -42l-585 -686l-47 43z" />
    <glyph glyph-name="questiondown" unicode="&#xbf;" horiz-adv-x="486" 
d="M351 3h34l12 -32.5l14 -41t12 -44.5t7 -42q-38 -23 -86.5 -37t-123.5 -14q-45 0 -80.5 12.5t-61 34t-39 51.5t-13.5 65q0 45 17 77t42 56.5t54.5 45t55 44t42.5 52.5t17 71h33q14 -46 10.5 -80t-16.5 -60.5t-31.5 -49l-36 -45t-30 -48.5t-12.5 -60q0 -20 4.5 -38
t14.5 -32t26.5 -22.5t40.5 -8.5q44 0 61 14zM344 433q0 -37 -23.5 -58.5t-61.5 -21.5t-62 21.5t-24 58.5q0 36 24 57.5t62 21.5t61.5 -21.5t23.5 -57.5z" />
    <glyph glyph-name="Agrave" unicode="&#xc0;" horiz-adv-x="729" 
d="M247 0h-247v38q16 10 34.5 17.5t36.5 11.5l258 645h74l251 -645q20 -4 40 -11.5t35 -17.5v-38h-313v38q19 9 41 17t42 12l-58 159h-222l-59 -159q46 -6 87 -29v-38zM243 291h177l-65 191l-19 86h-2l-22 -88zM416 764l-34 -19l-236 96v20q3 9 21.5 16.5t42 13t46 8
t33.5 -0.5z" />
    <glyph glyph-name="Aacute" unicode="&#xc1;" horiz-adv-x="729" 
d="M247 0h-247v38q16 10 34.5 17.5t36.5 11.5l258 645h74l251 -645q20 -4 40 -11.5t35 -17.5v-38h-313v38q19 9 41 17t42 12l-58 159h-222l-59 -159q46 -6 87 -29v-38zM243 291h177l-65 191l-19 86h-2l-22 -88zM452 898q16 1 36.5 -2t40 -8.5t35 -12.5t21.5 -14v-20
l-247 -96l-28 24z" />
    <glyph glyph-name="Acircumflex" unicode="&#xc2;" horiz-adv-x="729" 
d="M247 0h-247v38q16 10 34.5 17.5t36.5 11.5l258 645h74l251 -645q20 -4 40 -11.5t35 -17.5v-38h-313v38q19 9 41 17t42 12l-58 159h-222l-59 -159q46 -6 87 -29v-38zM243 291h177l-65 191l-19 86h-2l-22 -88zM240 743l-28 28l127 117q10 5 31 5t31 -5l125 -114l-28 -30
l-132 56z" />
    <glyph glyph-name="Atilde" unicode="&#xc3;" horiz-adv-x="729" 
d="M247 0h-247v38q16 10 34.5 17.5t36.5 11.5l258 645h74l251 -645q20 -4 40 -11.5t35 -17.5v-38h-313v38q19 9 41 17t42 12l-58 159h-222l-59 -159q46 -6 87 -29v-38zM243 291h177l-65 191l-19 86h-2l-22 -88zM540 817q-32 -32 -60 -48.5t-64 -16.5q-19 0 -35.5 5.5
t-32.5 11.5l-31 11.5t-31 5.5q-14 0 -30.5 -5.5t-32.5 -19.5l-28 47q76 68 135 68q18 0 34.5 -5t31.5 -11t30 -11t31 -5q13 0 29 4.5t32 15.5z" />
    <glyph glyph-name="Adieresis" unicode="&#xc4;" horiz-adv-x="729" 
d="M247 0h-247v38q16 10 34.5 17.5t36.5 11.5l258 645h74l251 -645q20 -4 40 -11.5t35 -17.5v-38h-313v38q19 9 41 17t42 12l-58 159h-222l-59 -159q46 -6 87 -29v-38zM243 291h177l-65 191l-19 86h-2l-22 -88zM163 793q0 32 23 48t58 16t58 -16t23 -48q0 -28 -23 -43.5
t-58 -15.5t-58 15.5t-23 43.5zM408 793q0 32 23.5 48t58.5 16t58 -16t23 -48q0 -28 -23 -43.5t-58 -15.5t-58.5 15.5t-23.5 43.5z" />
    <glyph glyph-name="Aring" unicode="&#xc5;" horiz-adv-x="729" 
d="M243 291h177l-65 191l-19 86h-2l-22 -88zM321 788q0 -17 15 -25.5t30 -8.5q23 0 36 8.5t13 24.5q0 23 -13.5 32t-32.5 9q-21 0 -34.5 -9t-13.5 -31zM238 788q0 41 36 65.5t97 24.5q26 0 49 -5.5t40.5 -16.5t27.5 -27t10 -38q0 -39 -36 -63q-24 -16 -57 -22l249 -639
q20 -4 40 -11.5t35 -17.5v-38h-313v38q19 9 41 17t42 12l-58 159h-222l-59 -159q46 -6 87 -29v-38h-247v38q16 10 34.5 17.5t36.5 11.5l256 640q-34 5 -55 20q-34 23 -34 61z" />
    <glyph glyph-name="AE" unicode="&#xc6;" horiz-adv-x="959" 
d="M901 700q-2 -45 -7 -93t-13 -90h-42l-46 118h-187v-245h123l44 77h31q5 -49 5 -109t-5 -112h-31l-44 79h-123v-260h195l53 127h42q4 -19 7.5 -43t6.5 -49.5t4.5 -51.5t1.5 -48h-537v38q16 8 36 16t41 13l2 177h-185l-103 -177q41 -8 77 -29v-38h-242v38q16 10 34 17.5
t36 11.5l348 571l-30 10.5t-28 13.5v38h536zM310 309h148l3 285h-2l-36 -90z" />
    <glyph glyph-name="Ccedilla" unicode="&#xc7;" horiz-adv-x="652" 
d="M540 210h41q4 -16 7.5 -38.5t6 -48t3.5 -50.5t1 -45q-18 -12 -41.5 -19.5t-49.5 -12t-53.5 -6.5t-54.5 -2l-24 -58q60 -2 97.5 -23.5t37.5 -65.5q0 -33 -22.5 -57t-55 -39.5t-69 -22.5t-65.5 -7v46q35 5 57.5 20t21.5 43q-1 23 -17.5 36t-58.5 15l36 117q-69 7 -124 31.5
t-94 68.5t-60 108.5t-21 150.5q0 95 28.5 163.5t76.5 112.5t111.5 64.5t133.5 20.5q66 0 119.5 -9.5t87.5 -25.5q0 -16 -1.5 -41t-5 -52.5t-8 -54t-8.5 -44.5h-42l-55 151q-9 5 -29 8t-41 3q-41 0 -77 -16.5t-64 -52.5t-44 -92.5t-16 -135.5q0 -143 57 -220t155 -77
q28 0 47.5 4.5t26.5 12.5z" />
    <glyph glyph-name="Egrave" unicode="&#xc8;" horiz-adv-x="604" 
d="M546 700q-2 -45 -7 -93t-13 -90h-41l-46 118h-187v-245h122l44 77h32q5 -49 5 -109t-5 -112h-32l-44 79h-122v-260h195l53 127h41q4 -19 8 -43t6.5 -49.5t4 -51.5t1.5 -48h-541v38q17 9 38 17t44 12v566q-20 4 -42.5 11.5t-39.5 17.5v38h526zM370 764l-34 -19l-236 96v20
q3 9 21.5 16.5t42 13t46 8t33.5 -0.5z" />
    <glyph glyph-name="Eacute" unicode="&#xc9;" horiz-adv-x="604" 
d="M546 700q-2 -45 -7 -93t-13 -90h-41l-46 118h-187v-245h122l44 77h32q5 -49 5 -109t-5 -112h-32l-44 79h-122v-260h195l53 127h41q4 -19 8 -43t6.5 -49.5t4 -51.5t1.5 -48h-541v38q17 9 38 17t44 12v566q-20 4 -42.5 11.5t-39.5 17.5v38h526zM362 898q16 1 36.5 -2
t40 -8.5t35 -12.5t21.5 -14v-20l-247 -96l-28 24z" />
    <glyph glyph-name="Ecircumflex" unicode="&#xca;" horiz-adv-x="604" 
d="M546 700q-2 -45 -7 -93t-13 -90h-41l-46 118h-187v-245h122l44 77h32q5 -49 5 -109t-5 -112h-32l-44 79h-122v-260h195l53 127h41q4 -19 8 -43t6.5 -49.5t4 -51.5t1.5 -48h-541v38q17 9 38 17t44 12v566q-20 4 -42.5 11.5t-39.5 17.5v38h526zM182 743l-28 28l127 117
q10 5 31 5t31 -5l125 -114l-28 -30l-132 56z" />
    <glyph glyph-name="Edieresis" unicode="&#xcb;" horiz-adv-x="604" 
d="M546 700q-2 -45 -7 -93t-13 -90h-41l-46 118h-187v-245h122l44 77h32q5 -49 5 -109t-5 -112h-32l-44 79h-122v-260h195l53 127h41q4 -19 8 -43t6.5 -49.5t4 -51.5t1.5 -48h-541v38q17 9 38 17t44 12v566q-20 4 -42.5 11.5t-39.5 17.5v38h526zM93 793q0 32 23 48t58 16
t58 -16t23 -48q0 -28 -23 -43.5t-58 -15.5t-58 15.5t-23 43.5zM338 793q0 32 23.5 48t58.5 16t58 -16t23 -48q0 -28 -23 -43.5t-58 -15.5t-58.5 15.5t-23.5 43.5z" />
    <glyph glyph-name="Igrave" unicode="&#xcc;" horiz-adv-x="372" 
d="M342 0h-312v38q40 22 81 29v566q-20 3 -42 11t-39 18v38h312v-38q-18 -11 -39.5 -18.5t-41.5 -10.5v-566q20 -4 41.5 -11t39.5 -18v-38zM302 764l-34 -19l-236 96v20q3 9 21.5 16.5t42 13t46 8t33.5 -0.5z" />
    <glyph glyph-name="Iacute" unicode="&#xcd;" horiz-adv-x="372" 
d="M342 0h-312v38q40 22 81 29v566q-20 3 -42 11t-39 18v38h312v-38q-18 -11 -39.5 -18.5t-41.5 -10.5v-566q20 -4 41.5 -11t39.5 -18v-38zM219 898q16 1 36.5 -2t40 -8.5t35 -12.5t21.5 -14v-20l-247 -96l-28 24z" />
    <glyph glyph-name="Icircumflex" unicode="&#xce;" horiz-adv-x="372" 
d="M342 0h-312v38q40 22 81 29v566q-20 3 -42 11t-39 18v38h312v-38q-18 -11 -39.5 -18.5t-41.5 -10.5v-566q20 -4 41.5 -11t39.5 -18v-38zM58 743l-28 28l127 117q10 5 31 5t31 -5l125 -114l-28 -30l-132 56z" />
    <glyph glyph-name="Idieresis" unicode="&#xcf;" horiz-adv-x="372" 
d="M342 0h-312v38q40 22 81 29v566q-20 3 -42 11t-39 18v38h312v-38q-18 -11 -39.5 -18.5t-41.5 -10.5v-566q20 -4 41.5 -11t39.5 -18v-38zM-17 793q0 32 23 48t58 16t58 -16t23 -48q0 -28 -23 -43.5t-58 -15.5t-58 15.5t-23 43.5zM228 793q0 32 23.5 48t58.5 16t58 -16
t23 -48q0 -28 -23 -43.5t-58 -15.5t-58.5 15.5t-23.5 43.5z" />
    <glyph glyph-name="Eth" unicode="&#xd0;" horiz-adv-x="741" 
d="M22 389h85v244q-23 5 -44.5 12.5t-37.5 16.5v38h116q17 0 42 1t52 2.5l52.5 3t43.5 1.5q87 0 155.5 -23t116 -67t73 -109t25.5 -150q0 -83 -24 -151t-72 -116t-121.5 -74.5t-172.5 -26.5q-13 0 -35 1.5t-47 3l-50 3t-44 1.5h-110v38q17 10 38 17.5t44 11.5v262h-85v60z
M318 643q-18 0 -36 -1t-31 -3v-250h153v-60h-153v-269q4 -1 14 -1.5l20.5 -1l20.5 -1t15 -0.5q58 0 98.5 24t66.5 65t38 96t12 117q0 55 -12.5 106t-38.5 91t-67.5 64t-99.5 24z" />
    <glyph glyph-name="Ntilde" unicode="&#xd1;" horiz-adv-x="758" 
d="M490 700h248v-38q-19 -15 -42 -26.5t-43 -17.5v-630h-85l-353 510l-40 77h-3l9 -80v-417q20 -5 44.5 -16.5t41.5 -23.5v-38h-247v38q18 12 39.5 22.5t44.5 17.5v546q-20 8 -40 18t-36 21v37h216l287 -416l46 -86h4l-5 86v334q-24 8 -46.5 19.5t-39.5 24.5v38zM556 817
q-32 -32 -60 -48.5t-64 -16.5q-19 0 -35.5 5.5t-32.5 11.5l-31 11.5t-31 5.5q-14 0 -30.5 -5.5t-32.5 -19.5l-28 47q76 68 135 68q18 0 34.5 -5t31.5 -11t30 -11t31 -5q13 0 29 4.5t32 15.5z" />
    <glyph glyph-name="Ograve" unicode="&#xd2;" horiz-adv-x="754" 
d="M39 350q0 78 22 144.5t65 115t106 75.5t145 27t145 -27t105.5 -75.5t64.5 -115t22 -144.5t-22 -144.5t-64.5 -115t-105.5 -75.5t-145 -27t-145 27t-106 75.5t-65 115t-22 144.5zM209 350q0 -64 10 -118.5t31.5 -94t55 -62t80.5 -22.5q43 0 73 22.5t49 62t27.5 94
t8.5 118.5t-9.5 118.5t-30 94t-54 62t-81.5 22.5q-46 0 -77 -22.5t-49.5 -62t-26 -94t-7.5 -118.5zM463 764l-34 -19l-236 96v20q3 9 21.5 16.5t42 13t46 8t33.5 -0.5z" />
    <glyph glyph-name="Oacute" unicode="&#xd3;" horiz-adv-x="754" 
d="M39 350q0 78 22 144.5t65 115t106 75.5t145 27t145 -27t105.5 -75.5t64.5 -115t22 -144.5t-22 -144.5t-64.5 -115t-105.5 -75.5t-145 -27t-145 27t-106 75.5t-65 115t-22 144.5zM209 350q0 -64 10 -118.5t31.5 -94t55 -62t80.5 -22.5q43 0 73 22.5t49 62t27.5 94
t8.5 118.5t-9.5 118.5t-30 94t-54 62t-81.5 22.5q-46 0 -77 -22.5t-49.5 -62t-26 -94t-7.5 -118.5zM425 898q16 1 36.5 -2t40 -8.5t35 -12.5t21.5 -14v-20l-247 -96l-28 24z" />
    <glyph glyph-name="Ocircumflex" unicode="&#xd4;" horiz-adv-x="754" 
d="M39 350q0 78 22 144.5t65 115t106 75.5t145 27t145 -27t105.5 -75.5t64.5 -115t22 -144.5t-22 -144.5t-64.5 -115t-105.5 -75.5t-145 -27t-145 27t-106 75.5t-65 115t-22 144.5zM209 350q0 -64 10 -118.5t31.5 -94t55 -62t80.5 -22.5q43 0 73 22.5t49 62t27.5 94
t8.5 118.5t-9.5 118.5t-30 94t-54 62t-81.5 22.5q-46 0 -77 -22.5t-49.5 -62t-26 -94t-7.5 -118.5zM248 743l-28 28l127 117q10 5 31 5t31 -5l125 -114l-28 -30l-132 56z" />
    <glyph glyph-name="Otilde" unicode="&#xd5;" horiz-adv-x="754" 
d="M39 350q0 78 22 144.5t65 115t106 75.5t145 27t145 -27t105.5 -75.5t64.5 -115t22 -144.5t-22 -144.5t-64.5 -115t-105.5 -75.5t-145 -27t-145 27t-106 75.5t-65 115t-22 144.5zM209 350q0 -64 10 -118.5t31.5 -94t55 -62t80.5 -22.5q43 0 73 22.5t49 62t27.5 94
t8.5 118.5t-9.5 118.5t-30 94t-54 62t-81.5 22.5q-46 0 -77 -22.5t-49.5 -62t-26 -94t-7.5 -118.5zM550 817q-32 -32 -60 -48.5t-64 -16.5q-19 0 -35.5 5.5t-32.5 11.5l-31 11.5t-31 5.5q-14 0 -30.5 -5.5t-32.5 -19.5l-28 47q76 68 135 68q18 0 34.5 -5t31.5 -11t30 -11
t31 -5q13 0 29 4.5t32 15.5z" />
    <glyph glyph-name="Odieresis" unicode="&#xd6;" horiz-adv-x="754" 
d="M39 350q0 78 22 144.5t65 115t106 75.5t145 27t145 -27t105.5 -75.5t64.5 -115t22 -144.5t-22 -144.5t-64.5 -115t-105.5 -75.5t-145 -27t-145 27t-106 75.5t-65 115t-22 144.5zM209 350q0 -64 10 -118.5t31.5 -94t55 -62t80.5 -22.5q43 0 73 22.5t49 62t27.5 94
t8.5 118.5t-9.5 118.5t-30 94t-54 62t-81.5 22.5q-46 0 -77 -22.5t-49.5 -62t-26 -94t-7.5 -118.5zM173 793q0 32 23 48t58 16t58 -16t23 -48q0 -28 -23 -43.5t-58 -15.5t-58 15.5t-23 43.5zM418 793q0 32 23.5 48t58.5 16t58 -16t23 -48q0 -28 -23 -43.5t-58 -15.5
t-58.5 15.5t-23.5 43.5z" />
    <glyph glyph-name="multiply" unicode="&#xd7;" 
d="M94 213l130 131l-128 129l56 56l129 -128l131 130l56 -56l-130 -131l133 -133l-57 -57l-133 133l-131 -130z" />
    <glyph glyph-name="Oslash" unicode="&#xd8;" horiz-adv-x="754" 
d="M39 350q0 78 22 144.5t65 115t106 75.5t145 27q48 0 89 -10t76 -28l27 44l63 -39l-29 -46q55 -49 83 -121.5t28 -161.5q0 -78 -22 -144.5t-64.5 -115t-105.5 -75.5t-145 -27q-48 0 -88 9.5t-75 26.5l-26 -42l-61 39l26 42q-57 49 -85.5 122.5t-28.5 164.5zM209 350
q0 -45 7 -84.5t21 -71.5l249 394q-20 28 -49 43.5t-68 15.5q-46 0 -77 -22.5t-49.5 -62t-26 -94t-7.5 -118.5zM544 350q0 43 -6 81t-20 70l-248 -391q42 -57 116 -57q43 0 73 22.5t49 62t27.5 94t8.5 118.5z" />
    <glyph glyph-name="Ugrave" unicode="&#xd9;" horiz-adv-x="715" 
d="M7 700h308v-38q-33 -21 -76 -29v-385q0 -49 11 -82t32 -53.5t50.5 -29.5t66.5 -9q33 0 60.5 9.5t48 30.5t31.5 55t11 84v375q-23 5 -47.5 14t-40.5 20v38h248v-38q-18 -13 -40 -21t-43 -13v-376q0 -128 -67.5 -194.5t-190.5 -66.5q-134 0 -207 60t-73 192v390
q-20 3 -42 10.5t-40 18.5v38zM452 764l-34 -19l-236 96v20q3 9 21.5 16.5t42 13t46 8t33.5 -0.5z" />
    <glyph glyph-name="Uacute" unicode="&#xda;" horiz-adv-x="715" 
d="M7 700h308v-38q-33 -21 -76 -29v-385q0 -49 11 -82t32 -53.5t50.5 -29.5t66.5 -9q33 0 60.5 9.5t48 30.5t31.5 55t11 84v375q-23 5 -47.5 14t-40.5 20v38h248v-38q-18 -13 -40 -21t-43 -13v-376q0 -128 -67.5 -194.5t-190.5 -66.5q-134 0 -207 60t-73 192v390
q-20 3 -42 10.5t-40 18.5v38zM499 898q16 1 36.5 -2t40 -8.5t35 -12.5t21.5 -14v-20l-247 -96l-28 24z" />
    <glyph glyph-name="Ucircumflex" unicode="&#xdb;" horiz-adv-x="715" 
d="M7 700h308v-38q-33 -21 -76 -29v-385q0 -49 11 -82t32 -53.5t50.5 -29.5t66.5 -9q33 0 60.5 9.5t48 30.5t31.5 55t11 84v375q-23 5 -47.5 14t-40.5 20v38h248v-38q-18 -13 -40 -21t-43 -13v-376q0 -128 -67.5 -194.5t-190.5 -66.5q-134 0 -207 60t-73 192v390
q-20 3 -42 10.5t-40 18.5v38zM263 743l-28 28l127 117q10 5 31 5t31 -5l125 -114l-28 -30l-132 56z" />
    <glyph glyph-name="Udieresis" unicode="&#xdc;" horiz-adv-x="715" 
d="M7 700h308v-38q-33 -21 -76 -29v-385q0 -49 11 -82t32 -53.5t50.5 -29.5t66.5 -9q33 0 60.5 9.5t48 30.5t31.5 55t11 84v375q-23 5 -47.5 14t-40.5 20v38h248v-38q-18 -13 -40 -21t-43 -13v-376q0 -128 -67.5 -194.5t-190.5 -66.5q-134 0 -207 60t-73 192v390
q-20 3 -42 10.5t-40 18.5v38zM186 793q0 32 23 48t58 16t58 -16t23 -48q0 -28 -23 -43.5t-58 -15.5t-58 15.5t-23 43.5zM431 793q0 32 23.5 48t58.5 16t58 -16t23 -48q0 -28 -23 -43.5t-58 -15.5t-58.5 15.5t-23.5 43.5z" />
    <glyph glyph-name="Yacute" unicode="&#xdd;" horiz-adv-x="698" 
d="M453 700h245v-38q-15 -9 -33.5 -17.5t-37.5 -11.5l-194 -340v-226q20 -2 39.5 -10.5t36.5 -18.5v-38h-308v38q17 9 38 17t44 12v225l-202 341q-23 4 -43.5 12t-37.5 17v38h328v-38q-14 -8 -32 -16t-42 -13l143 -268l136 268q-23 5 -44 13t-36 16v38zM494 898
q16 1 36.5 -2t40 -8.5t35 -12.5t21.5 -14v-20l-247 -96l-28 24z" />
    <glyph glyph-name="Thorn" unicode="&#xde;" horiz-adv-x="636" 
d="M252 63q27 -3 53.5 -11.5t47.5 -18.5v-33h-333v33q19 11 40.5 18t41.5 11v576q-20 3 -42 11t-39 18v33h312v-33q-18 -11 -39.5 -18.5t-41.5 -10.5v-45q20 2 44 3.5t43 1.5q53 0 101.5 -10.5t86 -34.5t59.5 -63.5t22 -98.5q0 -56 -22.5 -97t-61 -68t-88.5 -40.5
t-104 -13.5h-16t-23.5 0.5l-24 1t-16.5 1.5v-112zM306 533q-20 0 -31.5 -1.5t-22.5 -4.5v-286q9 -3 27 -3.5t29 -0.5q27 0 51 8.5t43 26.5t30 46t11 68q0 75 -36.5 111t-100.5 36z" />
    <glyph glyph-name="germandbls" unicode="&#xdf;" horiz-adv-x="701" 
d="M458 584q0 51 -28 81t-71 30q-22 0 -43 -5t-37 -21.5t-26 -48t-10 -83.5v-537h-210v39q31 18 66 24v374h-76v39q35 22 76 33v35q0 62 25.5 102.5t64 64t84 32.5t86.5 9q115 0 173 -48.5t60 -128.5q-30 -5 -58 -13.5t-49.5 -23t-34.5 -35.5t-13 -51q0 -31 17.5 -54.5
t44.5 -44.5t57.5 -41.5t57.5 -45.5t44.5 -56t17.5 -72q0 -70 -52.5 -110t-153.5 -40q-48 0 -96.5 10t-85.5 28q2 30 10 53.5t19 40.5h34l69 -66q11 -6 22 -7.5t23 -1.5q32 0 54.5 17t22.5 47q0 29 -17.5 50.5t-44.5 41.5t-57.5 40t-57.5 45t-44.5 57t-17.5 77q0 60 43 101.5
t112 62.5z" />
    <glyph glyph-name="agrave" unicode="&#xe0;" horiz-adv-x="557" 
d="M470 145q0 -22 0.5 -38t2.5 -34l69 -10v-35q-12 -6 -32.5 -12t-43 -11.5t-44.5 -9t-39 -5.5h-34q-10 23 -12 46t-3 56h-5q-5 -20 -17 -38.5t-30.5 -33t-43.5 -23.5t-56 -9q-33 0 -61 10t-49 28t-33 43.5t-12 57.5q0 45 17 74t53.5 47.5t94 27.5t139.5 13q8 86 -7 126
t-65 40q-31 0 -57 -10l-47 -120h-44q-8 12 -15.5 27.5t-14 33t-11 35.5t-6.5 35q38 26 98 41t127 15q57 0 93 -12.5t56.5 -34t28.5 -50.5t8 -62q0 -60 -2.5 -108.5t-2.5 -99.5zM245 68q21 0 36 8t25.5 19t16 24t8.5 23v100q-47 -1 -77 -6t-47 -16.5t-23.5 -29t-6.5 -42.5
q0 -38 18 -59t50 -21zM354 589l-45 -22l-186 145v29q6 6 26 11.5t42.5 8.5t42.5 3.5t27 -1.5z" />
    <glyph glyph-name="aacute" unicode="&#xe1;" horiz-adv-x="557" 
d="M470 145q0 -22 0.5 -38t2.5 -34l69 -10v-35q-12 -6 -32.5 -12t-43 -11.5t-44.5 -9t-39 -5.5h-34q-10 23 -12 46t-3 56h-5q-5 -20 -17 -38.5t-30.5 -33t-43.5 -23.5t-56 -9q-33 0 -61 10t-49 28t-33 43.5t-12 57.5q0 45 17 74t53.5 47.5t94 27.5t139.5 13q8 86 -7 126
t-65 40q-31 0 -57 -10l-47 -120h-44q-8 12 -15.5 27.5t-14 33t-11 35.5t-6.5 35q38 26 98 41t127 15q57 0 93 -12.5t56.5 -34t28.5 -50.5t8 -62q0 -60 -2.5 -108.5t-2.5 -99.5zM245 68q21 0 36 8t25.5 19t16 24t8.5 23v100q-47 -1 -77 -6t-47 -16.5t-23.5 -29t-6.5 -42.5
q0 -38 18 -59t50 -21zM316 763q8 2 26.5 1.5t38.5 -3.5t36.5 -8.5t21.5 -11.5v-24l-191 -155l-40 22z" />
    <glyph glyph-name="acircumflex" unicode="&#xe2;" horiz-adv-x="557" 
d="M470 145q0 -22 0.5 -38t2.5 -34l69 -10v-35q-12 -6 -32.5 -12t-43 -11.5t-44.5 -9t-39 -5.5h-34q-10 23 -12 46t-3 56h-5q-5 -20 -17 -38.5t-30.5 -33t-43.5 -23.5t-56 -9q-33 0 -61 10t-49 28t-33 43.5t-12 57.5q0 45 17 74t53.5 47.5t94 27.5t139.5 13q8 86 -7 126
t-65 40q-31 0 -57 -10l-47 -120h-44q-8 12 -15.5 27.5t-14 33t-11 35.5t-6.5 35q38 26 98 41t127 15q57 0 93 -12.5t56.5 -34t28.5 -50.5t8 -62q0 -60 -2.5 -108.5t-2.5 -99.5zM245 68q21 0 36 8t25.5 19t16 24t8.5 23v100q-47 -1 -77 -6t-47 -16.5t-23.5 -29t-6.5 -42.5
q0 -38 18 -59t50 -21zM186 577l-42 25l110 186q6 5 24.5 5.5t27.5 -5.5l114 -185l-41 -26l-103 98z" />
    <glyph glyph-name="atilde" unicode="&#xe3;" horiz-adv-x="557" 
d="M470 145q0 -22 0.5 -38t2.5 -34l69 -10v-35q-12 -6 -32.5 -12t-43 -11.5t-44.5 -9t-39 -5.5h-34q-10 23 -12 46t-3 56h-5q-5 -20 -17 -38.5t-30.5 -33t-43.5 -23.5t-56 -9q-33 0 -61 10t-49 28t-33 43.5t-12 57.5q0 45 17 74t53.5 47.5t94 27.5t139.5 13q8 86 -7 126
t-65 40q-31 0 -57 -10l-47 -120h-44q-8 12 -15.5 27.5t-14 33t-11 35.5t-6.5 35q38 26 98 41t127 15q57 0 93 -12.5t56.5 -34t28.5 -50.5t8 -62q0 -60 -2.5 -108.5t-2.5 -99.5zM245 68q21 0 36 8t25.5 19t16 24t8.5 23v100q-47 -1 -77 -6t-47 -16.5t-23.5 -29t-6.5 -42.5
q0 -38 18 -59t50 -21zM429 667q-30 -34 -62 -49.5t-55 -15.5q-18 0 -34 5.5t-31 11.5l-29.5 11.5t-29.5 5.5q-13 0 -26.5 -4.5t-29.5 -15.5l-28 42q37 38 70.5 53t56.5 15q18 0 33.5 -5t29.5 -11t28.5 -11t29.5 -5q13 0 26 2.5t29 12.5z" />
    <glyph glyph-name="adieresis" unicode="&#xe4;" horiz-adv-x="557" 
d="M470 145q0 -22 0.5 -38t2.5 -34l69 -10v-35q-12 -6 -32.5 -12t-43 -11.5t-44.5 -9t-39 -5.5h-34q-10 23 -12 46t-3 56h-5q-5 -20 -17 -38.5t-30.5 -33t-43.5 -23.5t-56 -9q-33 0 -61 10t-49 28t-33 43.5t-12 57.5q0 45 17 74t53.5 47.5t94 27.5t139.5 13q8 86 -7 126
t-65 40q-31 0 -57 -10l-47 -120h-44q-8 12 -15.5 27.5t-14 33t-11 35.5t-6.5 35q38 26 98 41t127 15q57 0 93 -12.5t56.5 -34t28.5 -50.5t8 -62q0 -60 -2.5 -108.5t-2.5 -99.5zM245 68q21 0 36 8t25.5 19t16 24t8.5 23v100q-47 -1 -77 -6t-47 -16.5t-23.5 -29t-6.5 -42.5
q0 -38 18 -59t50 -21zM74 659q0 32 20 51t53 19q32 0 52.5 -19t20.5 -51q0 -30 -20.5 -49t-52.5 -19q-33 0 -53 19t-20 49zM313 659q0 32 20 51t52 19q33 0 53.5 -19t20.5 -51q0 -30 -20.5 -49t-53.5 -19q-32 0 -52 19t-20 49z" />
    <glyph glyph-name="aring" unicode="&#xe5;" horiz-adv-x="557" 
d="M470 145q0 -22 0.5 -38t2.5 -34l69 -10v-35q-12 -6 -32.5 -12t-43 -11.5t-44.5 -9t-39 -5.5h-34q-10 23 -12 46t-3 56h-5q-5 -20 -17 -38.5t-30.5 -33t-43.5 -23.5t-56 -9q-33 0 -61 10t-49 28t-33 43.5t-12 57.5q0 45 17 74t53.5 47.5t94 27.5t139.5 13q8 86 -7 126
t-65 40q-31 0 -57 -10l-47 -120h-44q-8 12 -15.5 27.5t-14 33t-11 35.5t-6.5 35q38 26 98 41t127 15q57 0 93 -12.5t56.5 -34t28.5 -50.5t8 -62q0 -60 -2.5 -108.5t-2.5 -99.5zM245 68q21 0 36 8t25.5 19t16 24t8.5 23v100q-47 -1 -77 -6t-47 -16.5t-23.5 -29t-6.5 -42.5
q0 -38 18 -59t50 -21zM154 679q0 41 30.5 71t87.5 30q53 0 82.5 -27t29.5 -71q0 -42 -31 -70t-82 -28q-58 0 -87.5 26.5t-29.5 68.5zM229 681q0 -23 11 -35t28 -12q41 0 41 44q0 27 -11.5 39.5t-28.5 12.5q-40 0 -40 -49z" />
    <glyph glyph-name="ae" unicode="&#xe6;" horiz-adv-x="823" 
d="M424 465q17 18 50 32.5t96 14.5q51 0 95.5 -14t74 -46t41 -84t-1.5 -127h-307q1 -79 41 -126t116 -47q34 0 69 10t55 26l19 -20q-8 -17 -25.5 -34.5t-43 -31t-59 -22t-72.5 -8.5q-66 0 -123 24.5t-92 81.5q-7 -21 -23.5 -40.5t-40 -34t-52 -23t-59.5 -8.5q-33 0 -61 10
t-49 28t-33 43.5t-12 57.5q0 45 16.5 74t53 47.5t94 27.5t139.5 13q8 86 -6.5 126t-64.5 40q-31 0 -57 -10l-47 -120h-44q-8 12 -15.5 27.5t-14 33t-11 35.5t-6.5 35q38 26 98 41t127 15q61 0 91 -13t44 -34zM245 68q21 0 36 7.5t25 18.5t15.5 23.5t8.5 22.5v102
q-47 -1 -76.5 -6t-46.5 -16.5t-23.5 -29t-6.5 -42.5q0 -38 18 -59t50 -21zM566 455q-20 0 -35.5 -7t-27 -25.5t-18.5 -50t-10 -79.5h161q7 78 -9 120t-61 42z" />
    <glyph glyph-name="ccedilla" unicode="&#xe7;" horiz-adv-x="484" 
d="M456 81q-7 -20 -23.5 -36.5t-39.5 -29.5t-51.5 -20t-59.5 -7l-21 -56q60 -3 91.5 -21.5t32.5 -54.5q0 -29 -17 -50t-45 -35t-63 -21t-70 -7v39q70 11 70 57q-1 23 -19.5 33t-53.5 14l38 107q-101 15 -147.5 83.5t-46.5 173.5q0 127 69.5 194.5t197.5 67.5q49 0 90 -10.5
t68 -24.5q-2 -17 -5.5 -37.5t-8 -41t-10.5 -40t-12 -32.5h-49l-42 119q-7 5 -15 7.5t-24 2.5q-26 0 -45 -9.5t-32.5 -32.5t-20 -61t-6.5 -94q0 -41 9 -75.5t27.5 -60t46.5 -40t66 -14.5q35 0 61 10t44 24z" />
    <glyph glyph-name="egrave" unicode="&#xe8;" horiz-adv-x="537" 
d="M486 84q-8 -17 -25.5 -34.5t-43 -31t-59 -22t-72.5 -8.5q-62 0 -110 18.5t-80 53t-48.5 82.5t-16.5 108q0 128 67 195t186 67q51 0 95.5 -14t74 -46t41 -84t-1.5 -127h-307q1 -79 40.5 -126t116.5 -47q33 0 68.5 10t55.5 26zM280 455q-20 0 -35.5 -7t-27 -25.5t-18.5 -50
t-10 -79.5h161q7 78 -9 120t-61 42zM356 589l-45 -22l-186 145v29q6 6 26 11.5t42.5 8.5t42.5 3.5t27 -1.5z" />
    <glyph glyph-name="eacute" unicode="&#xe9;" horiz-adv-x="537" 
d="M486 84q-8 -17 -25.5 -34.5t-43 -31t-59 -22t-72.5 -8.5q-62 0 -110 18.5t-80 53t-48.5 82.5t-16.5 108q0 128 67 195t186 67q51 0 95.5 -14t74 -46t41 -84t-1.5 -127h-307q1 -79 40.5 -126t116.5 -47q33 0 68.5 10t55.5 26zM280 455q-20 0 -35.5 -7t-27 -25.5t-18.5 -50
t-10 -79.5h161q7 78 -9 120t-61 42zM308 763q8 2 26.5 1.5t38.5 -3.5t36.5 -8.5t21.5 -11.5v-24l-191 -155l-40 22z" />
    <glyph glyph-name="ecircumflex" unicode="&#xea;" horiz-adv-x="537" 
d="M486 84q-8 -17 -25.5 -34.5t-43 -31t-59 -22t-72.5 -8.5q-62 0 -110 18.5t-80 53t-48.5 82.5t-16.5 108q0 128 67 195t186 67q51 0 95.5 -14t74 -46t41 -84t-1.5 -127h-307q1 -79 40.5 -126t116.5 -47q33 0 68.5 10t55.5 26zM280 455q-20 0 -35.5 -7t-27 -25.5t-18.5 -50
t-10 -79.5h161q7 78 -9 120t-61 42zM183 577l-42 25l110 186q6 5 24.5 5.5t27.5 -5.5l114 -185l-41 -26l-103 98z" />
    <glyph glyph-name="edieresis" unicode="&#xeb;" horiz-adv-x="537" 
d="M486 84q-8 -17 -25.5 -34.5t-43 -31t-59 -22t-72.5 -8.5q-62 0 -110 18.5t-80 53t-48.5 82.5t-16.5 108q0 128 67 195t186 67q51 0 95.5 -14t74 -46t41 -84t-1.5 -127h-307q1 -79 40.5 -126t116.5 -47q33 0 68.5 10t55.5 26zM280 455q-20 0 -35.5 -7t-27 -25.5t-18.5 -50
t-10 -79.5h161q7 78 -9 120t-61 42zM83 659q0 32 20 51t53 19q32 0 52.5 -19t20.5 -51q0 -30 -20.5 -49t-52.5 -19q-33 0 -53 19t-20 49zM322 659q0 32 20 51t52 19q33 0 53.5 -19t20.5 -51q0 -30 -20.5 -49t-53.5 -19q-32 0 -52 19t-20 49z" />
    <glyph glyph-name="igrave" unicode="&#xec;" horiz-adv-x="332" 
d="M307 0h-276v39q15 8 31 13.5t35 10.5v366l-66 8v39q15 6 37.5 12t47.5 10.5t49 8t42 5.5h34v-449q20 -5 36 -10.5t30 -13.5v-39zM233 589l-45 -22l-186 145v29q6 6 26 11.5t42.5 8.5t42.5 3.5t27 -1.5z" />
    <glyph glyph-name="iacute" unicode="&#xed;" horiz-adv-x="332" 
d="M307 0h-276v39q15 8 31 13.5t35 10.5v366l-66 8v39q15 6 37.5 12t47.5 10.5t49 8t42 5.5h34v-449q20 -5 36 -10.5t30 -13.5v-39zM189 763q8 2 26.5 1.5t38.5 -3.5t36.5 -8.5t21.5 -11.5v-24l-191 -155l-40 22z" />
    <glyph glyph-name="icircumflex" unicode="&#xee;" horiz-adv-x="332" 
d="M307 0h-276v39q15 8 31 13.5t35 10.5v366l-66 8v39q15 6 37.5 12t47.5 10.5t49 8t42 5.5h34v-449q20 -5 36 -10.5t30 -13.5v-39zM68 577l-42 25l110 186q6 5 24.5 5.5t27.5 -5.5l114 -185l-41 -26l-103 98z" />
    <glyph glyph-name="idieresis" unicode="&#xef;" horiz-adv-x="332" 
d="M307 0h-276v39q15 8 31 13.5t35 10.5v366l-66 8v39q15 6 37.5 12t47.5 10.5t49 8t42 5.5h34v-449q20 -5 36 -10.5t30 -13.5v-39zM-24 659q0 32 20 51t53 19q32 0 52.5 -19t20.5 -51q0 -30 -20.5 -49t-52.5 -19q-33 0 -53 19t-20 49zM215 659q0 32 20 51t52 19
q33 0 53.5 -19t20.5 -51q0 -30 -20.5 -49t-53.5 -19q-32 0 -52 19t-20 49z" />
    <glyph glyph-name="eth" unicode="&#xf0;" horiz-adv-x="577" 
d="M175 610l96 39q-25 24 -54 43.5t-61 31.5v26h97q55 -17 111 -62l98 40l27 -56l-74 -31q28 -31 52 -69t42 -82.5t28.5 -95t10.5 -105.5q0 -65 -16.5 -120.5t-49.5 -95.5t-82.5 -62.5t-114.5 -22.5q-61 0 -109.5 18.5t-82 52.5t-51.5 80.5t-18 102.5q0 67 19.5 118t52 84.5
t73.5 50.5t84 17q51 0 80.5 -17t51.5 -41q-11 36 -28.5 73.5t-42.5 72.5l-111 -46zM179 242q0 -41 6.5 -76t20.5 -61t35 -41t51 -15q55 0 78 57.5t23 167.5q0 53 -3 83t-8 43q-29 37 -93 37q-25 0 -45 -10t-34.5 -33t-22.5 -60.5t-8 -91.5z" />
    <glyph glyph-name="ntilde" unicode="&#xf1;" horiz-adv-x="644" 
d="M632 0h-265v39q13 7 25.5 12.5t29.5 11.5v235q0 63 -18 98.5t-64 35.5q-38 0 -65.5 -24.5t-41.5 -66.5v-278q16 -4 28.5 -9.5t26.5 -14.5v-39h-265v39q25 13 66 24v366l-66 8v39q13 6 34 11.5t45.5 10.5t50 8.5t46.5 5.5h34v-103h1q21 42 63 72.5t102 30.5q39 0 70 -9.5
t52.5 -33.5t33 -64.5t11.5 -102.5v-239q40 -7 66 -24v-39zM487 667q-30 -34 -62 -49.5t-55 -15.5q-18 0 -34 5.5t-31 11.5l-29.5 11.5t-29.5 5.5q-13 0 -26.5 -4.5t-29.5 -15.5l-28 42q37 38 70.5 53t56.5 15q18 0 33.5 -5t29.5 -11t28.5 -11t29.5 -5q13 0 26 2.5t29 12.5z
" />
    <glyph glyph-name="ograve" unicode="&#xf2;" horiz-adv-x="594" 
d="M31 250q0 61 18.5 109.5t53 82.5t83.5 52t111 18q70 0 120.5 -19.5t83 -54t47.5 -83t15 -105.5q0 -61 -18 -109.5t-52.5 -82.5t-84 -52t-111.5 -18q-68 0 -118 19.5t-83 54t-49 83t-16 105.5zM186 250q0 -45 5.5 -82.5t19.5 -63.5t38 -40.5t62 -14.5q22 0 40 10.5t31 34
t19.5 62t6.5 94.5q0 46 -5.5 83t-19 63t-36.5 40.5t-58 14.5q-26 0 -45 -10.5t-32 -34t-19.5 -62t-6.5 -94.5zM375 589l-45 -22l-186 145v29q6 6 26 11.5t42.5 8.5t42.5 3.5t27 -1.5z" />
    <glyph glyph-name="oacute" unicode="&#xf3;" horiz-adv-x="594" 
d="M31 250q0 61 18.5 109.5t53 82.5t83.5 52t111 18q70 0 120.5 -19.5t83 -54t47.5 -83t15 -105.5q0 -61 -18 -109.5t-52.5 -82.5t-84 -52t-111.5 -18q-68 0 -118 19.5t-83 54t-49 83t-16 105.5zM186 250q0 -45 5.5 -82.5t19.5 -63.5t38 -40.5t62 -14.5q22 0 40 10.5t31 34
t19.5 62t6.5 94.5q0 46 -5.5 83t-19 63t-36.5 40.5t-58 14.5q-26 0 -45 -10.5t-32 -34t-19.5 -62t-6.5 -94.5zM337 763q8 2 26.5 1.5t38.5 -3.5t36.5 -8.5t21.5 -11.5v-24l-191 -155l-40 22z" />
    <glyph glyph-name="ocircumflex" unicode="&#xf4;" horiz-adv-x="594" 
d="M31 250q0 61 18.5 109.5t53 82.5t83.5 52t111 18q70 0 120.5 -19.5t83 -54t47.5 -83t15 -105.5q0 -61 -18 -109.5t-52.5 -82.5t-84 -52t-111.5 -18q-68 0 -118 19.5t-83 54t-49 83t-16 105.5zM186 250q0 -45 5.5 -82.5t19.5 -63.5t38 -40.5t62 -14.5q22 0 40 10.5t31 34
t19.5 62t6.5 94.5q0 46 -5.5 83t-19 63t-36.5 40.5t-58 14.5q-26 0 -45 -10.5t-32 -34t-19.5 -62t-6.5 -94.5zM200 577l-42 25l110 186q6 5 24.5 5.5t27.5 -5.5l114 -185l-41 -26l-103 98z" />
    <glyph glyph-name="otilde" unicode="&#xf5;" horiz-adv-x="594" 
d="M31 250q0 61 18.5 109.5t53 82.5t83.5 52t111 18q70 0 120.5 -19.5t83 -54t47.5 -83t15 -105.5q0 -61 -18 -109.5t-52.5 -82.5t-84 -52t-111.5 -18q-68 0 -118 19.5t-83 54t-49 83t-16 105.5zM186 250q0 -45 5.5 -82.5t19.5 -63.5t38 -40.5t62 -14.5q22 0 40 10.5t31 34
t19.5 62t6.5 94.5q0 46 -5.5 83t-19 63t-36.5 40.5t-58 14.5q-26 0 -45 -10.5t-32 -34t-19.5 -62t-6.5 -94.5zM459 667q-30 -34 -62 -49.5t-55 -15.5q-18 0 -34 5.5t-31 11.5l-29.5 11.5t-29.5 5.5q-13 0 -26.5 -4.5t-29.5 -15.5l-28 42q37 38 70.5 53t56.5 15q18 0 33.5 -5
t29.5 -11t28.5 -11t29.5 -5q13 0 26 2.5t29 12.5z" />
    <glyph glyph-name="odieresis" unicode="&#xf6;" horiz-adv-x="594" 
d="M31 250q0 61 18.5 109.5t53 82.5t83.5 52t111 18q70 0 120.5 -19.5t83 -54t47.5 -83t15 -105.5q0 -61 -18 -109.5t-52.5 -82.5t-84 -52t-111.5 -18q-68 0 -118 19.5t-83 54t-49 83t-16 105.5zM186 250q0 -45 5.5 -82.5t19.5 -63.5t38 -40.5t62 -14.5q22 0 40 10.5t31 34
t19.5 62t6.5 94.5q0 46 -5.5 83t-19 63t-36.5 40.5t-58 14.5q-26 0 -45 -10.5t-32 -34t-19.5 -62t-6.5 -94.5zM105 659q0 32 20 51t53 19q32 0 52.5 -19t20.5 -51q0 -30 -20.5 -49t-52.5 -19q-33 0 -53 19t-20 49zM344 659q0 32 20 51t52 19q33 0 53.5 -19t20.5 -51
q0 -30 -20.5 -49t-53.5 -19q-32 0 -52 19t-20 49z" />
    <glyph glyph-name="divide" unicode="&#xf7;" 
d="M57 386h450v-80h-450v80zM197 536q0 36 23 58t61 22t62 -22t24 -58t-24 -57.5t-62 -21.5t-61 21.5t-23 57.5zM197 155q0 36 23 58t61 22t62 -22t24 -58t-24 -57.5t-62 -21.5t-61 21.5t-23 57.5z" />
    <glyph glyph-name="oslash" unicode="&#xf8;" horiz-adv-x="594" 
d="M114 44q-43 35 -63 87.5t-20 118.5q0 61 18.5 109.5t53 82.5t83.5 52t111 18q39 0 71.5 -6.5t59.5 -18.5l44 63l54 -38l-42 -59q41 -35 60 -87t19 -116q0 -61 -18 -109.5t-52.5 -82.5t-84 -52t-111.5 -18q-72 0 -126 23l-48 -69l-53 39zM186 250q0 -26 3 -48.5t11 -40.5
l174 251q-14 20 -34.5 31.5t-50.5 11.5q-53 0 -78 -46.5t-25 -158.5zM408 250q0 47 -13 82l-172 -249q30 -38 91 -38q47 0 70.5 46.5t23.5 158.5z" />
    <glyph glyph-name="ugrave" unicode="&#xf9;" horiz-adv-x="622" 
d="M71 198q0 63 3 117t3 114l-66 8v39q16 6 39.5 12t48.5 10.5t48.5 8t39.5 5.5h34q0 -75 -3 -147.5t-3 -142.5q0 -82 16.5 -118t61.5 -36q31 0 57.5 23.5t43.5 75.5v262l-65 8v39q15 6 37.5 12t47 10.5t48.5 8t42 5.5h34v-441l66 -8v-35q-14 -6 -35 -12t-44 -11.5t-45.5 -9
t-40.5 -5.5h-34l-7 119h-4q-5 -21 -18 -42.5t-33.5 -39t-48.5 -28.5t-62 -11q-38 0 -67.5 9.5t-50.5 33.5t-32 64.5t-11 102.5zM388 589l-45 -22l-186 145v29q6 6 26 11.5t42.5 8.5t42.5 3.5t27 -1.5z" />
    <glyph glyph-name="uacute" unicode="&#xfa;" horiz-adv-x="622" 
d="M71 198q0 63 3 117t3 114l-66 8v39q16 6 39.5 12t48.5 10.5t48.5 8t39.5 5.5h34q0 -75 -3 -147.5t-3 -142.5q0 -82 16.5 -118t61.5 -36q31 0 57.5 23.5t43.5 75.5v262l-65 8v39q15 6 37.5 12t47 10.5t48.5 8t42 5.5h34v-441l66 -8v-35q-14 -6 -35 -12t-44 -11.5t-45.5 -9
t-40.5 -5.5h-34l-7 119h-4q-5 -21 -18 -42.5t-33.5 -39t-48.5 -28.5t-62 -11q-38 0 -67.5 9.5t-50.5 33.5t-32 64.5t-11 102.5zM335 763q8 2 26.5 1.5t38.5 -3.5t36.5 -8.5t21.5 -11.5v-24l-191 -155l-40 22z" />
    <glyph glyph-name="ucircumflex" unicode="&#xfb;" horiz-adv-x="622" 
d="M71 198q0 63 3 117t3 114l-66 8v39q16 6 39.5 12t48.5 10.5t48.5 8t39.5 5.5h34q0 -75 -3 -147.5t-3 -142.5q0 -82 16.5 -118t61.5 -36q31 0 57.5 23.5t43.5 75.5v262l-65 8v39q15 6 37.5 12t47 10.5t48.5 8t42 5.5h34v-441l66 -8v-35q-14 -6 -35 -12t-44 -11.5t-45.5 -9
t-40.5 -5.5h-34l-7 119h-4q-5 -21 -18 -42.5t-33.5 -39t-48.5 -28.5t-62 -11q-38 0 -67.5 9.5t-50.5 33.5t-32 64.5t-11 102.5zM211 577l-42 25l110 186q6 5 24.5 5.5t27.5 -5.5l114 -185l-41 -26l-103 98z" />
    <glyph glyph-name="udieresis" unicode="&#xfc;" horiz-adv-x="622" 
d="M71 198q0 63 3 117t3 114l-66 8v39q16 6 39.5 12t48.5 10.5t48.5 8t39.5 5.5h34q0 -75 -3 -147.5t-3 -142.5q0 -82 16.5 -118t61.5 -36q31 0 57.5 23.5t43.5 75.5v262l-65 8v39q15 6 37.5 12t47 10.5t48.5 8t42 5.5h34v-441l66 -8v-35q-14 -6 -35 -12t-44 -11.5t-45.5 -9
t-40.5 -5.5h-34l-7 119h-4q-5 -21 -18 -42.5t-33.5 -39t-48.5 -28.5t-62 -11q-38 0 -67.5 9.5t-50.5 33.5t-32 64.5t-11 102.5zM113 659q0 32 20 51t53 19q32 0 52.5 -19t20.5 -51q0 -30 -20.5 -49t-52.5 -19q-33 0 -53 19t-20 49zM352 659q0 32 20 51t52 19q33 0 53.5 -19
t20.5 -51q0 -30 -20.5 -49t-53.5 -19q-32 0 -52 19t-20 49z" />
    <glyph glyph-name="yacute" unicode="&#xfd;" horiz-adv-x="528" 
d="M38 437q-15 4 -27.5 10t-25.5 14v39h263v-38q-21 -14 -57 -25l101 -251l17 -64h2l16 65l78 250q-30 6 -55 24v39h193v-39q-21 -14 -57 -24l-163 -437q-24 -64 -48 -104.5t-48 -64.5t-48 -33.5t-48 -12.5q-10 9 -18 22.5t-14 29t-10 31.5t-5 30l13 24h122q9 14 15.5 30
t15.5 48zM311 763q8 2 26.5 1.5t38.5 -3.5t36.5 -8.5t21.5 -11.5v-24l-191 -155l-40 22z" />
    <glyph glyph-name="thorn" unicode="&#xfe;" horiz-adv-x="609" 
d="M86 669l-76 8v39q13 6 36 12t49.5 10.5t53 8t47.5 5.5h34v-352h1q17 48 53.5 80t101.5 32q44 0 79.5 -14.5t60 -45t38 -78t13.5 -113.5q0 -63 -17.5 -114t-50 -86t-79 -54t-105.5 -19q-34 0 -53.5 4.5t-41.5 15.5v-145q16 -2 32 -7.5t34 -16.5v-39h-276v39q34 16 66 24
v806zM328 432q-34 0 -60.5 -24t-37.5 -74v-266q16 -12 34 -17.5t47 -5.5q57 0 84 55t27 161q0 82 -20.5 126.5t-73.5 44.5z" />
    <glyph glyph-name="ydieresis" unicode="&#xff;" horiz-adv-x="528" 
d="M38 437q-15 4 -27.5 10t-25.5 14v39h263v-38q-21 -14 -57 -25l101 -251l17 -64h2l16 65l78 250q-30 6 -55 24v39h193v-39q-21 -14 -57 -24l-163 -437q-24 -64 -48 -104.5t-48 -64.5t-48 -33.5t-48 -12.5q-10 9 -18 22.5t-14 29t-10 31.5t-5 30l13 24h122q9 14 15.5 30
t15.5 48zM87 659q0 32 20 51t53 19q32 0 52.5 -19t20.5 -51q0 -30 -20.5 -49t-52.5 -19q-33 0 -53 19t-20 49zM326 659q0 32 20 51t52 19q33 0 53.5 -19t20.5 -51q0 -30 -20.5 -49t-53.5 -19q-32 0 -52 19t-20 49z" />
    <glyph glyph-name="Amacron" unicode="&#x100;" horiz-adv-x="729" 
d="M247 0h-247v38q16 10 34.5 17.5t36.5 11.5l258 645h74l251 -645q20 -4 40 -11.5t35 -17.5v-38h-313v38q19 9 41 17t42 12l-58 159h-222l-59 -159q46 -6 87 -29v-38zM243 291h177l-65 191l-19 86h-2l-22 -88zM206 779v70h324v-70h-324z" />
    <glyph glyph-name="amacron" unicode="&#x101;" horiz-adv-x="557" 
d="M470 145q0 -22 0.5 -38t2.5 -34l69 -10v-35q-12 -6 -32.5 -12t-43 -11.5t-44.5 -9t-39 -5.5h-34q-10 23 -12 46t-3 56h-5q-5 -20 -17 -38.5t-30.5 -33t-43.5 -23.5t-56 -9q-33 0 -61 10t-49 28t-33 43.5t-12 57.5q0 45 17 74t53.5 47.5t94 27.5t139.5 13q8 86 -7 126
t-65 40q-31 0 -57 -10l-47 -120h-44q-8 12 -15.5 27.5t-14 33t-11 35.5t-6.5 35q38 26 98 41t127 15q57 0 93 -12.5t56.5 -34t28.5 -50.5t8 -62q0 -60 -2.5 -108.5t-2.5 -99.5zM245 68q21 0 36 8t25.5 19t16 24t8.5 23v100q-47 -1 -77 -6t-47 -16.5t-23.5 -29t-6.5 -42.5
q0 -38 18 -59t50 -21zM127 619v70h294v-70h-294z" />
    <glyph glyph-name="Abreve" unicode="&#x102;" horiz-adv-x="729" 
d="M247 0h-247v38q16 10 34.5 17.5t36.5 11.5l258 645h74l251 -645q20 -4 40 -11.5t35 -17.5v-38h-313v38q19 9 41 17t42 12l-58 159h-222l-59 -159q46 -6 87 -29v-38zM243 291h177l-65 191l-19 86h-2l-22 -88zM495 897q7 1 20.5 -6t20.5 -17q-9 -22 -24 -42.5t-36 -36.5
t-48 -26t-58 -10q-67 0 -110 31.5t-62 85.5q7 12 21.5 19t29.5 5q7 -11 21.5 -20t31.5 -15t35.5 -9.5t33.5 -3.5q16 0 34 2t34.5 7.5t31 14t24.5 21.5z" />
    <glyph glyph-name="abreve" unicode="&#x103;" horiz-adv-x="557" 
d="M470 145q0 -22 0.5 -38t2.5 -34l69 -10v-35q-12 -6 -32.5 -12t-43 -11.5t-44.5 -9t-39 -5.5h-34q-10 23 -12 46t-3 56h-5q-5 -20 -17 -38.5t-30.5 -33t-43.5 -23.5t-56 -9q-33 0 -61 10t-49 28t-33 43.5t-12 57.5q0 45 17 74t53.5 47.5t94 27.5t139.5 13q8 86 -7 126
t-65 40q-31 0 -57 -10l-47 -120h-44q-8 12 -15.5 27.5t-14 33t-11 35.5t-6.5 35q38 26 98 41t127 15q57 0 93 -12.5t56.5 -34t28.5 -50.5t8 -62q0 -60 -2.5 -108.5t-2.5 -99.5zM245 68q21 0 36 8t25.5 19t16 24t8.5 23v100q-47 -1 -77 -6t-47 -16.5t-23.5 -29t-6.5 -42.5
q0 -38 18 -59t50 -21zM426 724q-9 -27 -23 -52.5t-33.5 -45t-43.5 -31t-52 -11.5q-29 0 -54 11t-45 30.5t-34.5 45.5t-22.5 55l37 22q20 -26 52 -43t68 -18q75 -2 118 57z" />
    <glyph glyph-name="Aogonek" unicode="&#x104;" horiz-adv-x="729" 
d="M247 0h-247v38q16 10 34.5 17.5t36.5 11.5l258 645h74l251 -645q20 -4 40 -11.5t35 -17.5v-38h-37q-39 -28 -60.5 -65.5t-21.5 -69.5q0 -26 15.5 -40t38.5 -14q12 0 23 1t23 4v-43q-14 -11 -41.5 -19.5t-59.5 -8.5q-61 0 -93.5 28.5t-32.5 69.5q0 27 10.5 49.5t29 41.5
t44.5 35t57 31h-208v38q19 9 41 17t42 12l-58 159h-222l-59 -159q46 -6 87 -29v-38zM243 291h177l-65 191l-19 86h-2l-22 -88z" />
    <glyph glyph-name="aogonek" unicode="&#x105;" horiz-adv-x="557" 
d="M470 145q0 -22 0.5 -38t2.5 -34l69 -10v-35q-11 -7 -30 -12q-43 -24 -68 -61t-25 -74q0 -19 12.5 -34.5t35.5 -15.5t50 9v-46q-7 -4 -18.5 -7.5t-24 -6.5t-25 -4.5t-21.5 -1.5q-69 0 -101 27t-32 65q0 41 26 71.5t76 54.5l-22 -2h-26q-10 23 -12 46t-3 56h-5
q-5 -20 -17 -38.5t-30.5 -33t-43.5 -23.5t-56 -9q-33 0 -61 10t-49 28t-33 43.5t-12 57.5q0 45 17 74t53.5 47.5t94 27.5t139.5 13q8 86 -7 126t-65 40q-31 0 -57 -10l-47 -120h-44q-8 12 -15.5 27.5t-14 33t-11 35.5t-6.5 35q38 26 98 41t127 15q57 0 93 -12.5t56.5 -34
t28.5 -50.5t8 -62q0 -60 -2.5 -108.5t-2.5 -99.5zM245 68q21 0 36 8t25.5 19t16 24t8.5 23v100q-47 -1 -77 -6t-47 -16.5t-23.5 -29t-6.5 -42.5q0 -38 18 -59t50 -21z" />
    <glyph glyph-name="Cacute" unicode="&#x106;" horiz-adv-x="652" 
d="M540 210h41q4 -16 7.5 -38.5t6 -48t3.5 -50.5t1 -45q-35 -22 -87.5 -31t-107.5 -9q-83 0 -150.5 20.5t-115 65t-73.5 113t-26 164.5q0 95 28.5 163.5t76.5 112.5t111.5 64.5t133.5 20.5q66 0 119.5 -9.5t87.5 -25.5q0 -16 -1.5 -41t-5 -52.5t-8 -54t-8.5 -44.5h-42
l-55 151q-9 5 -29 8t-41 3q-41 0 -77 -16.5t-64 -52.5t-44 -92.5t-16 -135.5q0 -143 57 -220t155 -77q28 0 47.5 4.5t26.5 12.5zM426 898q16 1 36.5 -2t40 -8.5t35 -12.5t21.5 -14v-20l-247 -96l-28 24z" />
    <glyph glyph-name="cacute" unicode="&#x107;" horiz-adv-x="484" 
d="M456 81q-7 -20 -23 -36.5t-38.5 -29.5t-51 -20t-59.5 -7q-66 0 -113.5 18.5t-78.5 53t-46 83t-15 107.5q0 127 69.5 194.5t197.5 67.5q49 0 90 -10.5t68 -24.5q-2 -17 -5.5 -37.5t-8 -41t-10.5 -40t-12 -32.5h-49l-42 119q-7 5 -15 7.5t-24 2.5q-26 0 -45 -9.5
t-32.5 -32.5t-20 -61t-6.5 -94q0 -41 9 -75.5t27.5 -60t46.5 -40t66 -14.5q35 0 61 10t44 24zM306 763q8 2 26.5 1.5t38.5 -3.5t36.5 -8.5t21.5 -11.5v-24l-191 -155l-40 22z" />
    <glyph glyph-name="Ccircumflex" unicode="&#x108;" horiz-adv-x="652" 
d="M540 210h41q4 -16 7.5 -38.5t6 -48t3.5 -50.5t1 -45q-35 -22 -87.5 -31t-107.5 -9q-83 0 -150.5 20.5t-115 65t-73.5 113t-26 164.5q0 95 28.5 163.5t76.5 112.5t111.5 64.5t133.5 20.5q66 0 119.5 -9.5t87.5 -25.5q0 -16 -1.5 -41t-5 -52.5t-8 -54t-8.5 -44.5h-42
l-55 151q-9 5 -29 8t-41 3q-41 0 -77 -16.5t-64 -52.5t-44 -92.5t-16 -135.5q0 -143 57 -220t155 -77q28 0 47.5 4.5t26.5 12.5zM264 743l-28 28l127 117q10 5 31 5t31 -5l125 -114l-28 -30l-132 56z" />
    <glyph glyph-name="ccircumflex" unicode="&#x109;" horiz-adv-x="484" 
d="M456 81q-7 -20 -23 -36.5t-38.5 -29.5t-51 -20t-59.5 -7q-66 0 -113.5 18.5t-78.5 53t-46 83t-15 107.5q0 127 69.5 194.5t197.5 67.5q49 0 90 -10.5t68 -24.5q-2 -17 -5.5 -37.5t-8 -41t-10.5 -40t-12 -32.5h-49l-42 119q-7 5 -15 7.5t-24 2.5q-26 0 -45 -9.5
t-32.5 -32.5t-20 -61t-6.5 -94q0 -41 9 -75.5t27.5 -60t46.5 -40t66 -14.5q35 0 61 10t44 24zM175 577l-42 25l110 186q6 5 24.5 5.5t27.5 -5.5l114 -185l-41 -26l-103 98z" />
    <glyph glyph-name="Ccaron" unicode="&#x10c;" horiz-adv-x="652" 
d="M540 210h41q4 -16 7.5 -38.5t6 -48t3.5 -50.5t1 -45q-35 -22 -87.5 -31t-107.5 -9q-83 0 -150.5 20.5t-115 65t-73.5 113t-26 164.5q0 95 28.5 163.5t76.5 112.5t111.5 64.5t133.5 20.5q66 0 119.5 -9.5t87.5 -25.5q0 -16 -1.5 -41t-5 -52.5t-8 -54t-8.5 -44.5h-42
l-55 151q-9 5 -29 8t-41 3q-41 0 -77 -16.5t-64 -52.5t-44 -92.5t-16 -135.5q0 -143 57 -220t155 -77q28 0 47.5 4.5t26.5 12.5zM521 902q8 0 19.5 -10.5t14.5 -20.5l-127 -112q-4 -3 -12 -4.5t-17.5 -1.5t-18 1.5t-14.5 4.5l-125 109q3 11 13.5 22.5t20.5 11.5l126 -55z
" />
    <glyph glyph-name="ccaron" unicode="&#x10d;" horiz-adv-x="484" 
d="M456 81q-7 -20 -23 -36.5t-38.5 -29.5t-51 -20t-59.5 -7q-66 0 -113.5 18.5t-78.5 53t-46 83t-15 107.5q0 127 69.5 194.5t197.5 67.5q49 0 90 -10.5t68 -24.5q-2 -17 -5.5 -37.5t-8 -41t-10.5 -40t-12 -32.5h-49l-42 119q-7 5 -15 7.5t-24 2.5q-26 0 -45 -9.5
t-32.5 -32.5t-20 -61t-6.5 -94q0 -41 9 -75.5t27.5 -60t46.5 -40t66 -14.5q35 0 61 10t44 24zM377 792q10 0 25 -9.5t17 -15.5l-128 -181q-8 -5 -25 -5t-27 5l-126 180q1 3 7 7.5t13.5 8.5t15 7t12.5 3l111 -93z" />
    <glyph glyph-name="Dcaron" unicode="&#x10e;" horiz-adv-x="736" 
d="M20 0v38q17 10 38 17.5t44 11.5v566q-23 5 -44.5 12.5t-37.5 16.5v38h116q17 0 42 1t52 2.5l52.5 3t43.5 1.5q87 0 155.5 -23t116 -67t73 -109t25.5 -150q0 -83 -24 -151t-72 -116t-121.5 -74.5t-172.5 -26.5q-13 0 -35 1.5t-47 3l-50 3t-44 1.5h-110zM313 643
q-18 0 -36 -1t-31 -3v-579q4 -1 14 -1.5l20.5 -1l20.5 -1t15 -0.5q58 0 98.5 24t66.5 65t38 96t12 117q0 55 -12.5 106t-38.5 91t-67.5 64t-99.5 24zM457 902q8 0 19.5 -10.5t14.5 -20.5l-127 -112q-4 -3 -12 -4.5t-17.5 -1.5t-18 1.5t-14.5 4.5l-125 109q3 11 13.5 22.5
t20.5 11.5l126 -55z" />
    <glyph glyph-name="dcaron" unicode="&#x10f;" horiz-adv-x="599" 
d="M372 99q-5 -22 -18 -42t-31 -35.5t-41 -24.5t-49 -9q-99 0 -150.5 62.5t-51.5 191.5q0 66 18 115.5t50.5 83.5t78.5 51t102 17q18 0 30.5 -1t23 -2.5t20 -5t21.5 -7.5v176l-76 8v39q14 6 38.5 11t51.5 9.5l53 8.5t43 7h34v-681l66 -8v-35q-14 -7 -36 -13t-46 -11
t-46.5 -8.5t-37.5 -5.5h-34l-9 109h-4zM281 68q35 0 59 22t35 75v269q-13 8 -32.5 13t-48.5 5q-58 0 -83 -52.5t-25 -152.5q0 -81 22 -130t73 -49zM556 534q10 22 18.5 48t13.5 52t8 51t3 45l21 25q7 1 22.5 -1.5t33 -7t33.5 -10.5t24 -13q-5 -28 -20.5 -59.5t-37 -61
t-45.5 -53t-45 -35.5z" />
    <glyph glyph-name="Dcroat" unicode="&#x110;" horiz-adv-x="741" 
d="M22 389h85v244q-23 5 -44.5 12.5t-37.5 16.5v38h116q17 0 42 1t52 2.5l52.5 3t43.5 1.5q87 0 155.5 -23t116 -67t73 -109t25.5 -150q0 -83 -24 -151t-72 -116t-121.5 -74.5t-172.5 -26.5q-13 0 -35 1.5t-47 3l-50 3t-44 1.5h-110v38q17 10 38 17.5t44 11.5v262h-85v60z
M318 643q-18 0 -36 -1t-31 -3v-250h153v-60h-153v-269q4 -1 14 -1.5l20.5 -1l20.5 -1t15 -0.5q58 0 98.5 24t66.5 65t38 96t12 117q0 55 -12.5 106t-38.5 91t-67.5 64t-99.5 24z" />
    <glyph glyph-name="dcroat" unicode="&#x111;" horiz-adv-x="599" 
d="M231 620h144v49l-76 8v39q14 6 38.5 11t51.5 9.5l53 8.5t43 7h34v-132h79v-61h-79v-488l66 -8v-35q-14 -7 -36 -13t-46 -11t-46.5 -8.5t-37.5 -5.5h-34l-9 109h-4q-5 -22 -18 -42t-31 -35.5t-41 -24.5t-49 -9q-99 0 -150.5 62.5t-51.5 191.5q0 66 18 115.5t50.5 83.5
t78.5 51t102 17q18 0 30.5 -1t23 -2.5t20 -5t21.5 -7.5v66h-144v61zM281 68q35 0 59 22t35 75v269q-13 8 -32.5 13t-48.5 5q-58 0 -83 -52.5t-25 -152.5q0 -81 22 -130t73 -49z" />
    <glyph glyph-name="Emacron" unicode="&#x112;" horiz-adv-x="604" 
d="M546 700q-2 -45 -7 -93t-13 -90h-41l-46 118h-187v-245h122l44 77h32q5 -49 5 -109t-5 -112h-32l-44 79h-122v-260h195l53 127h41q4 -19 8 -43t6.5 -49.5t4 -51.5t1.5 -48h-541v38q17 9 38 17t44 12v566q-20 4 -42.5 11.5t-39.5 17.5v38h526zM147 779v70h324v-70h-324z
" />
    <glyph glyph-name="emacron" unicode="&#x113;" horiz-adv-x="537" 
d="M486 84q-8 -17 -25.5 -34.5t-43 -31t-59 -22t-72.5 -8.5q-62 0 -110 18.5t-80 53t-48.5 82.5t-16.5 108q0 128 67 195t186 67q51 0 95.5 -14t74 -46t41 -84t-1.5 -127h-307q1 -79 40.5 -126t116.5 -47q33 0 68.5 10t55.5 26zM280 455q-20 0 -35.5 -7t-27 -25.5t-18.5 -50
t-10 -79.5h161q7 78 -9 120t-61 42zM129 619v70h294v-70h-294z" />
    <glyph glyph-name="Edotaccent" unicode="&#x116;" horiz-adv-x="604" 
d="M546 700q-2 -45 -7 -93t-13 -90h-41l-46 118h-187v-245h122l44 77h32q5 -49 5 -109t-5 -112h-32l-44 79h-122v-260h195l53 127h41q4 -19 8 -43t6.5 -49.5t4 -51.5t1.5 -48h-541v38q17 9 38 17t44 12v566q-20 4 -42.5 11.5t-39.5 17.5v38h526zM218 819q0 32 23 49t68 17
t67 -17t22 -49q0 -31 -22 -48t-67 -17t-68 17t-23 48z" />
    <glyph glyph-name="edotaccent" unicode="&#x117;" horiz-adv-x="537" 
d="M486 84q-8 -17 -25.5 -34.5t-43 -31t-59 -22t-72.5 -8.5q-62 0 -110 18.5t-80 53t-48.5 82.5t-16.5 108q0 128 67 195t186 67q51 0 95.5 -14t74 -46t41 -84t-1.5 -127h-307q1 -79 40.5 -126t116.5 -47q33 0 68.5 10t55.5 26zM280 455q-20 0 -35.5 -7t-27 -25.5t-18.5 -50
t-10 -79.5h161q7 78 -9 120t-61 42zM184 664q0 35 24 55t62 20t62 -20t24 -55q0 -34 -24 -54t-62 -20t-62 20t-24 54z" />
    <glyph glyph-name="Eogonek" unicode="&#x118;" horiz-adv-x="604" 
d="M546 700q-2 -45 -7 -93t-13 -90h-41l-46 118h-187v-245h122l44 77h32q5 -49 5 -109t-5 -112h-32l-44 79h-122v-260h195l53 127h41q4 -13 7.5 -38.5t6 -54.5t4 -56t2.5 -43h-38q-39 -28 -60.5 -65.5t-21.5 -69.5q0 -26 16 -40t38 -14q12 0 23 1t23 4v-43
q-14 -11 -41 -19.5t-59 -8.5q-61 0 -94 28.5t-33 69.5q0 55 40 91.5t102 65.5h-436v38q17 9 38 17t44 12v566q-20 4 -42.5 11.5t-39.5 17.5v38h526z" />
    <glyph glyph-name="eogonek" unicode="&#x119;" horiz-adv-x="537" 
d="M486 84q-10 -20 -32 -40t-54 -34q-39 -23 -61 -58.5t-22 -70.5q0 -19 12 -34.5t36 -15.5q23 0 50 9v-46q-7 -4 -18.5 -7.5t-24 -6.5t-25 -4.5t-21.5 -1.5q-69 0 -101 27t-32 65q0 39 24 69t69 53q-62 0 -109.5 18.5t-80 52.5t-49 82.5t-16.5 108.5q0 128 67 195t186 67
q51 0 95.5 -14t74 -46t41 -84t-1.5 -127h-307q1 -79 40.5 -126t116.5 -47q33 0 68.5 10t55.5 26zM280 455q-20 0 -35.5 -7t-27 -25.5t-18.5 -50t-10 -79.5h161q7 78 -9 120t-61 42z" />
    <glyph glyph-name="Ecaron" unicode="&#x11a;" horiz-adv-x="604" 
d="M546 700q-2 -45 -7 -93t-13 -90h-41l-46 118h-187v-245h122l44 77h32q5 -49 5 -109t-5 -112h-32l-44 79h-122v-260h195l53 127h41q4 -19 8 -43t6.5 -49.5t4 -51.5t1.5 -48h-541v38q17 9 38 17t44 12v566q-20 4 -42.5 11.5t-39.5 17.5v38h526zM432 902q8 0 19.5 -10.5
t14.5 -20.5l-127 -112q-4 -3 -12 -4.5t-17.5 -1.5t-18 1.5t-14.5 4.5l-125 109q3 11 13.5 22.5t20.5 11.5l126 -55z" />
    <glyph glyph-name="ecaron" unicode="&#x11b;" horiz-adv-x="537" 
d="M486 84q-8 -17 -25.5 -34.5t-43 -31t-59 -22t-72.5 -8.5q-62 0 -110 18.5t-80 53t-48.5 82.5t-16.5 108q0 128 67 195t186 67q51 0 95.5 -14t74 -46t41 -84t-1.5 -127h-307q1 -79 40.5 -126t116.5 -47q33 0 68.5 10t55.5 26zM280 455q-20 0 -35.5 -7t-27 -25.5t-18.5 -50
t-10 -79.5h161q7 78 -9 120t-61 42zM385 792q10 0 25 -9.5t17 -15.5l-128 -181q-8 -5 -25 -5t-27 5l-126 180q1 3 7 7.5t13.5 8.5t15 7t12.5 3l111 -93z" />
    <glyph glyph-name="Gcircumflex" unicode="&#x11c;" horiz-adv-x="709" 
d="M636 44q-20 -10 -49 -20t-61 -18t-64 -13t-57 -5q-86 0 -153.5 22.5t-115 68t-72.5 113.5t-25 158q0 98 30.5 166.5t81 112t114.5 63.5t131 20q66 0 124 -9t92 -26q0 -15 -1.5 -38.5t-4.5 -50.5t-7.5 -54t-10.5 -49h-41l-56 152q-11 5 -33 7.5t-44 2.5q-41 0 -79 -16
t-67 -51.5t-46 -92t-17 -137.5q0 -66 15.5 -120.5t43.5 -93.5t67 -61t86 -22q15 0 31 2.5t30 6.5t24.5 9t14.5 9v188q-26 2 -49 10t-43 19v38h273v-38q-9 -9 -24 -16.5t-38 -12.5v-224zM278 743l-28 28l127 117q10 5 31 5t31 -5l125 -114l-28 -30l-132 56z" />
    <glyph glyph-name="gcircumflex" unicode="&#x11d;" horiz-adv-x="564" 
d="M264 512q65 0 108 -13.5t65 -33.5q47 51 108 71q7 -5 14 -14.5t12 -20.5t8 -22t3 -18l-13 -24h-105q11 -14 20.5 -36.5t9.5 -53.5q0 -33 -14 -62t-42.5 -51.5t-72 -35.5t-101.5 -13q-17 0 -30.5 0.5t-23.5 2.5q-4 -6 -8.5 -14.5t-4.5 -16.5q0 -17 24 -27t61 -18l79.5 -18
t79.5 -26.5t62 -43t26 -68.5q1 -40 -20 -71t-57.5 -52.5t-86 -33t-105.5 -11.5q-66 0 -112.5 10.5t-75.5 28.5t-42.5 41t-13.5 48q0 28 11 48t31 35t46.5 25t58.5 18q-15 4 -29 10t-25 14.5t-18 20t-7 26.5q0 13 8 25.5t21 23t28 19t30 14.5q-63 14 -100 54.5t-37 103.5
q0 75 62 117t168 42zM390 -76q0 27 -16.5 43.5t-42.5 27t-58.5 18t-64.5 17.5q-26 -20 -37 -40t-11 -48q0 -46 31.5 -71.5t88.5 -25.5q56 0 83 23.5t27 55.5zM178 348q0 -52 17.5 -79t68.5 -27q49 0 67.5 27.5t18.5 78.5q0 54 -19 80.5t-67 26.5q-50 0 -68 -26t-18 -81z
M167 577l-42 25l110 186q6 5 24.5 5.5t27.5 -5.5l114 -185l-41 -26l-103 98z" />
    <glyph glyph-name="Gbreve" unicode="&#x11e;" horiz-adv-x="709" 
d="M636 44q-20 -10 -49 -20t-61 -18t-64 -13t-57 -5q-86 0 -153.5 22.5t-115 68t-72.5 113.5t-25 158q0 98 30.5 166.5t81 112t114.5 63.5t131 20q66 0 124 -9t92 -26q0 -15 -1.5 -38.5t-4.5 -50.5t-7.5 -54t-10.5 -49h-41l-56 152q-11 5 -33 7.5t-44 2.5q-41 0 -79 -16
t-67 -51.5t-46 -92t-17 -137.5q0 -66 15.5 -120.5t43.5 -93.5t67 -61t86 -22q15 0 31 2.5t30 6.5t24.5 9t14.5 9v188q-26 2 -49 10t-43 19v38h273v-38q-9 -9 -24 -16.5t-38 -12.5v-224zM536 897q7 1 20.5 -6t20.5 -17q-9 -22 -24 -42.5t-36 -36.5t-48 -26t-58 -10
q-67 0 -110 31.5t-62 85.5q7 12 21.5 19t29.5 5q7 -11 21.5 -20t31.5 -15t35.5 -9.5t33.5 -3.5q16 0 34 2t34.5 7.5t31 14t24.5 21.5z" />
    <glyph glyph-name="gbreve" unicode="&#x11f;" horiz-adv-x="564" 
d="M264 512q65 0 108 -13.5t65 -33.5q47 51 108 71q7 -5 14 -14.5t12 -20.5t8 -22t3 -18l-13 -24h-105q11 -14 20.5 -36.5t9.5 -53.5q0 -33 -14 -62t-42.5 -51.5t-72 -35.5t-101.5 -13q-17 0 -30.5 0.5t-23.5 2.5q-4 -6 -8.5 -14.5t-4.5 -16.5q0 -17 24 -27t61 -18l79.5 -18
t79.5 -26.5t62 -43t26 -68.5q1 -40 -20 -71t-57.5 -52.5t-86 -33t-105.5 -11.5q-66 0 -112.5 10.5t-75.5 28.5t-42.5 41t-13.5 48q0 28 11 48t31 35t46.5 25t58.5 18q-15 4 -29 10t-25 14.5t-18 20t-7 26.5q0 13 8 25.5t21 23t28 19t30 14.5q-63 14 -100 54.5t-37 103.5
q0 75 62 117t168 42zM390 -76q0 27 -16.5 43.5t-42.5 27t-58.5 18t-64.5 17.5q-26 -20 -37 -40t-11 -48q0 -46 31.5 -71.5t88.5 -25.5q56 0 83 23.5t27 55.5zM178 348q0 -52 17.5 -79t68.5 -27q49 0 67.5 27.5t18.5 78.5q0 54 -19 80.5t-67 26.5q-50 0 -68 -26t-18 -81z
M419 724q-9 -27 -23 -52.5t-33.5 -45t-43.5 -31t-52 -11.5q-29 0 -54 11t-45 30.5t-34.5 45.5t-22.5 55l37 22q20 -26 52 -43t68 -18q75 -2 118 57z" />
    <glyph glyph-name="Gcommaaccent" unicode="&#x122;" horiz-adv-x="709" 
d="M636 44q-20 -10 -49 -20t-61 -18t-64 -13t-57 -5q-86 0 -153.5 22.5t-115 68t-72.5 113.5t-25 158q0 98 30.5 166.5t81 112t114.5 63.5t131 20q66 0 124 -9t92 -26q0 -15 -1.5 -38.5t-4.5 -50.5t-7.5 -54t-10.5 -49h-41l-56 152q-11 5 -33 7.5t-44 2.5q-41 0 -79 -16
t-67 -51.5t-46 -92t-17 -137.5q0 -66 15.5 -120.5t43.5 -93.5t67 -61t86 -22q15 0 31 2.5t30 6.5t24.5 9t14.5 9v188q-26 2 -49 10t-43 19v38h273v-38q-9 -9 -24 -16.5t-38 -12.5v-224zM315 -241q23 6 40.5 21.5t16.5 37.5q-14 14 -34 23t-42 15q-6 16 -2 33t14 31.5t24 24
t29 11.5q21 -1 41.5 -7.5t36.5 -19t26 -31.5t10 -44t-11 -48.5t-30.5 -42.5t-46.5 -32t-59 -16z" />
    <glyph glyph-name="gcommaaccent" unicode="&#x123;" horiz-adv-x="564" 
d="M264 512q65 0 108 -13.5t65 -33.5q47 51 108 71q7 -5 14 -14.5t12 -20.5t8 -22t3 -18l-13 -24h-105q11 -14 20.5 -36.5t9.5 -53.5q0 -33 -14 -62t-42.5 -51.5t-72 -35.5t-101.5 -13q-17 0 -30.5 0.5t-23.5 2.5q-4 -6 -8.5 -14.5t-4.5 -16.5q0 -17 24 -27t61 -18l79.5 -18
t79.5 -26.5t62 -43t26 -68.5q1 -40 -20 -71t-57.5 -52.5t-86 -33t-105.5 -11.5q-66 0 -112.5 10.5t-75.5 28.5t-42.5 41t-13.5 48q0 28 11 48t31 35t46.5 25t58.5 18q-15 4 -29 10t-25 14.5t-18 20t-7 26.5q0 13 8 25.5t21 23t28 19t30 14.5q-63 14 -100 54.5t-37 103.5
q0 75 62 117t168 42zM390 -76q0 27 -16.5 43.5t-42.5 27t-58.5 18t-64.5 17.5q-26 -20 -37 -40t-11 -48q0 -46 31.5 -71.5t88.5 -25.5q56 0 83 23.5t27 55.5zM178 348q0 -52 17.5 -79t68.5 -27q49 0 67.5 27.5t18.5 78.5q0 54 -19 80.5t-67 26.5q-50 0 -68 -26t-18 -81z
M345.005 763.985q-29.998 -7.99902 -42.9971 -25.998q-13 -17.999 -13 -34.998q12 -13.999 30.998 -22.499q18.999 -8.49902 38.998 -15.499q5 -15.999 1 -32.998t-12.999 -30.998q-9 -13.999 -21.499 -23.498q-12.499 -9.5 -26.498 -11.5q-38.998 1 -69.4961 25.999
q-30.498 24.998 -30.498 75.9951q0 23.999 9 47.4971q8.99902 23.499 25.998 42.9971q16.999 19.499 41.9971 32.998q24.999 13.499 57.9971 17.499z" />
    <glyph glyph-name="Hcircumflex" unicode="&#x124;" horiz-adv-x="769" 
d="M323 0h-303v38q17 9 39.5 17t42.5 12v566q-24 4 -46 12t-36 17v38h303v-38q-15 -10 -33.5 -18t-37.5 -11v-242h265v242q-22 4 -39.5 12t-31.5 17v38h303v-38q-17 -11 -39 -18t-43 -11v-566q23 -4 44.5 -12t37.5 -17v-38h-303v38q15 9 33 17t38 12v259h-265v-259
q20 -4 37 -11t34 -18v-38zM255 743l-28 28l127 117q10 5 31 5t31 -5l125 -114l-28 -30l-132 56z" />
    <glyph glyph-name="hcircumflex" unicode="&#x125;" horiz-adv-x="640" 
d="M628 0h-265v39q12 7 25 13t30 11v202q0 86 -16.5 126.5t-64.5 40.5q-40 0 -68 -27.5t-40 -63.5v-278q16 -4 28.5 -9t26.5 -15v-39h-265v39q31 16 66 24v606l-76 8v39q15 6 38.5 12t49.5 10.5t52 8t46 5.5h34v-353h1q10 23 27 43.5t38.5 36t46.5 24.5t53 9q40 0 71.5 -9.5
t52.5 -33.5t32 -64.5t11 -102.5v-239q17 -4 34 -9t32 -15v-39zM14 753l-28 28l127 117q10 5 31 5t31 -5l125 -114l-28 -30l-132 56z" />
    <glyph glyph-name="Hbar" unicode="&#x126;" horiz-adv-x="769" 
d="M26 561h76v72q-24 4 -46 12t-36 17v38h303v-38q-15 -10 -33.5 -18t-37.5 -11v-72h265v72q-22 4 -39.5 12t-31.5 17v38h303v-38q-17 -11 -39 -18t-43 -11v-72h76v-63h-76v-431q23 -4 44.5 -12t37.5 -17v-38h-303v38q15 9 33 17t38 12v259h-265v-259q20 -4 37 -11t34 -18
v-38h-303v38q17 9 39.5 17t42.5 12v431h-76v63zM517 391v107h-265v-107h265z" />
    <glyph glyph-name="hbar" unicode="&#x127;" horiz-adv-x="640" 
d="M7 620h78v49l-76 8v39q15 6 38.5 12t49.5 10.5t52 8t46 5.5h34v-132h155v-61h-155v-160h1q10 23 27 43.5t38.5 36t46.5 24.5t53 9q40 0 71.5 -9.5t52.5 -33.5t32 -64.5t11 -102.5v-239q17 -4 34 -9t32 -15v-39h-265v39q12 7 25 13t30 11v202q0 86 -16.5 126.5t-64.5 40.5
q-40 0 -68 -27.5t-40 -63.5v-278q16 -4 28.5 -9t26.5 -15v-39h-265v39q31 16 66 24v496h-78v61z" />
    <glyph glyph-name="Imacron" unicode="&#x12a;" horiz-adv-x="372" 
d="M342 0h-312v38q40 22 81 29v566q-20 3 -42 11t-39 18v38h312v-38q-18 -11 -39.5 -18.5t-41.5 -10.5v-566q20 -4 41.5 -11t39.5 -18v-38zM25 779v70h324v-70h-324z" />
    <glyph glyph-name="imacron" unicode="&#x12b;" horiz-adv-x="332" 
d="M307 0h-276v39q15 8 31 13.5t35 10.5v366l-66 8v39q15 6 37.5 12t47.5 10.5t49 8t42 5.5h34v-449q20 -5 36 -10.5t30 -13.5v-39zM19 619v70h294v-70h-294z" />
    <glyph glyph-name="Iogonek" unicode="&#x12e;" horiz-adv-x="372" 
d="M342 0h-36q-39 -28 -60.5 -65.5t-21.5 -69.5q0 -26 15.5 -40t38.5 -14q12 0 23 1t23 4v-43q-14 -11 -41.5 -19.5t-59.5 -8.5q-61 0 -93.5 28.5t-32.5 69.5q0 27 10.5 49.5t29 41.5t44.5 35t57 31h-208v38q40 22 81 29v566q-20 3 -42 11t-39 18v38h312v-38
q-18 -11 -39.5 -18.5t-41.5 -10.5v-566q20 -4 41.5 -11t39.5 -18v-38z" />
    <glyph glyph-name="iogonek" unicode="&#x12f;" horiz-adv-x="357" 
d="M317 0h-35q-32 -24 -50 -56t-18 -63q0 -19 12 -34.5t36 -15.5q23 0 50 9v-46q-7 -4 -18.5 -7.5t-24 -6.5t-25 -4.5t-21.5 -1.5q-69 0 -101 27t-32 65q0 45 30.5 77t88.5 57h-168v39q15 8 31 13.5t35 10.5v366l-66 8v39q15 6 37.5 12t47.5 10.5t49 8t42 5.5h34v-449
q20 -5 36 -10.5t30 -13.5v-39zM93 663q0 34 23 53.5t60 19.5t60.5 -19.5t23.5 -53.5t-23.5 -53.5t-60.5 -19.5t-60 19.5t-23 53.5z" />
    <glyph glyph-name="Idotaccent" unicode="&#x130;" horiz-adv-x="372" 
d="M342 0h-312v38q40 22 81 29v566q-20 3 -42 11t-39 18v38h312v-38q-18 -11 -39.5 -18.5t-41.5 -10.5v-566q20 -4 41.5 -11t39.5 -18v-38zM96 819q0 32 23 49t68 17t67 -17t22 -49q0 -31 -22 -48t-67 -17t-68 17t-23 48z" />
    <glyph glyph-name="dotlessi" unicode="&#x131;" horiz-adv-x="332" 
d="M307 0h-276v39q15 8 31 13.5t35 10.5v366l-66 8v39q15 6 37.5 12t47.5 10.5t49 8t42 5.5h34v-449q20 -5 36 -10.5t30 -13.5v-39z" />
    <glyph glyph-name="Jcircumflex" unicode="&#x134;" horiz-adv-x="365" 
d="M27 700h308v-38q-16 -10 -36 -18t-40 -11v-512q0 -82 -24.5 -134.5t-58 -83t-68.5 -44.5t-57 -19l-19 26q15 12 29 30.5t24.5 47.5t17 70.5t6.5 100.5v518q-22 5 -43.5 11.5t-38.5 17.5v38zM55 743l-28 28l127 117q10 5 31 5t31 -5l125 -114l-28 -30l-132 56z" />
    <glyph glyph-name="jcircumflex" unicode="&#x135;" horiz-adv-x="320" 
d="M97 429l-66 8v39q15 7 37 13t47 10.5t49.5 7.5t42.5 5h34v-469q0 -47 -11.5 -84t-30 -64t-41 -46t-44 -31.5t-39.5 -19.5t-28 -10l-20 30q12 6 24 19.5t22.5 37.5t17 60.5t6.5 88.5v405zM71 577l-42 25l110 186q6 5 24.5 5.5t27.5 -5.5l114 -185l-41 -26l-103 98z" />
    <glyph glyph-name="Kcommaaccent" unicode="&#x136;" horiz-adv-x="710" 
d="M399 700h268v-38q-17 -11 -39 -18.5t-40 -10.5l-190 -241l54 -72.5l66 -84l72 -88l72 -84.5l48 -29v-34h-174l-40 28q-24 30 -50.5 66.5l-52.5 76l-51 79.5l-47 78h-43v-261q22 -4 40 -12t31 -17v-38h-303v38q20 10 41 17.5t41 11.5v566q-23 3 -44.5 11t-37.5 18v38h303
v-38q-13 -8 -31.5 -16t-39.5 -13v-254l59 14l161 240q-20 4 -39.5 12.5t-33.5 16.5v38zM277 -241q23 6 40.5 21.5t16.5 37.5q-14 14 -34 23t-42 15q-6 16 -2 33t14 31.5t24 24t29 11.5q21 -1 41.5 -7.5t36.5 -19t26 -31.5t10 -44t-11 -48.5t-30.5 -42.5t-46.5 -32t-59 -16z
" />
    <glyph glyph-name="kcommaaccent" unicode="&#x137;" horiz-adv-x="583" 
d="M322 500h234v-39q-19 -8 -35.5 -14t-36.5 -10q-15 -20 -32.5 -39.5l-35 -37.5l-33.5 -34.5l-29 -29.5l35 -48l43 -59.5l48.5 -64t51.5 -61.5l51 -24v-39h-169l-27 24q-23 31 -40.5 58t-31.5 52l-27 48.5l-26 46.5l-33 10v-176q17 -3 31 -9t30 -15v-39h-271v39
q33 16 66 24v606l-76 8v39q14 6 38 12t51 10.5t53 8t44 5.5h34v-469h26q33 35 61.5 77l50.5 77q-13 4 -23.5 10t-21.5 14v39zM219 -240q30 8 43 26t13 35q-12 14 -31 22.5t-39 15.5q-5 16 -1 33t13 31t21.5 23.5t26.5 11.5q39 -1 69.5 -26t30.5 -76q0 -24 -9 -47.5t-26 -43
t-42 -33t-58 -17.5z" />
    <glyph glyph-name="Lacute" unicode="&#x139;" horiz-adv-x="583" 
d="M20 700h328v-38q-21 -11 -46.5 -18.5t-49.5 -10.5v-568h193l67 179h41q4 -23 7.5 -54t5.5 -65t3 -67t0 -58h-549v38q23 12 43.5 19t38.5 10v566q-49 8 -82 29v38zM292 898q16 1 36.5 -2t40 -8.5t35 -12.5t21.5 -14v-20l-247 -96l-28 24z" />
    <glyph glyph-name="lacute" unicode="&#x13a;" horiz-adv-x="332" 
d="M307 0h-276v39q33 16 66 24v606l-76 8v39q13 6 36 12t49.5 10.5t53 8t47.5 5.5h34v-689q33 -8 66 -24v-39zM216 908q16 1 36.5 -2t40 -8.5t35 -12.5t21.5 -14v-20l-247 -96l-28 24z" />
    <glyph glyph-name="Lcommaaccent" unicode="&#x13b;" horiz-adv-x="583" 
d="M20 700h328v-38q-21 -11 -46.5 -18.5t-49.5 -10.5v-568h193l67 179h41q4 -23 7.5 -54t5.5 -65t3 -67t0 -58h-549v38q23 12 43.5 19t38.5 10v566q-49 8 -82 29v38zM222 -241q23 6 40.5 21.5t16.5 37.5q-14 14 -34 23t-42 15q-6 16 -2 33t14 31.5t24 24t29 11.5
q21 -1 41.5 -7.5t36.5 -19t26 -31.5t10 -44t-11 -48.5t-30.5 -42.5t-46.5 -32t-59 -16z" />
    <glyph glyph-name="lcommaaccent" unicode="&#x13c;" horiz-adv-x="332" 
d="M307 0h-276v39q33 16 66 24v606l-76 8v39q13 6 36 12t49.5 10.5t53 8t47.5 5.5h34v-689q33 -8 66 -24v-39zM104 -240q30 8 43 26t13 35q-12 14 -31 22.5t-39 15.5q-5 16 -1 33t13 31t21.5 23.5t26.5 11.5q39 -1 69.5 -26t30.5 -76q0 -24 -9 -47.5t-26 -43t-42 -33
t-58 -17.5z" />
    <glyph glyph-name="Lcaron" unicode="&#x13d;" horiz-adv-x="607" 
d="M20 700h328v-38q-21 -11 -46.5 -18.5t-49.5 -10.5v-568h193l67 179h41q4 -23 7.5 -54t5.5 -65t3 -67t0 -58h-549v38q23 12 43.5 19t38.5 10v566q-49 8 -82 29v38zM378 491q10 22 18.5 49t14 54.5t8 52.5t2.5 45l21 25q13 0 32.5 -3.5t38.5 -9.5t34.5 -14t22.5 -15
q-3 -26 -20 -57.5t-41 -60.5t-51 -52.5t-51 -33.5z" />
    <glyph glyph-name="lcaron" unicode="&#x13e;" horiz-adv-x="332" 
d="M307 0h-276v39q33 16 66 24v606l-76 8v39q13 6 36 12t49.5 10.5t53 8t47.5 5.5h34v-689q33 -8 66 -24v-39zM277 534q10 22 18.5 48t13.5 52t8 51t3 45l21 25q7 1 22.5 -1.5t33 -7t33.5 -10.5t24 -13q-5 -28 -20.5 -59.5t-37 -61t-45.5 -53t-45 -35.5z" />
    <glyph glyph-name="Lslash" unicode="&#x141;" horiz-adv-x="583" 
d="M20 700h328v-38q-21 -11 -46.5 -18.5t-49.5 -10.5v-214l115 71v-79l-115 -71v-275h193l67 179h41q4 -23 7.5 -54t5.5 -65t3 -67t0 -58h-549v38q23 12 43.5 19t38.5 10v181l-82 -50v79l82 50v306q-49 8 -82 29v38z" />
    <glyph glyph-name="lslash" unicode="&#x142;" horiz-adv-x="352" 
d="M23 295l84 51v323l-76 8v39q13 6 36 12t49.5 10.5t53 8t47.5 5.5h34v-319l80 49v-79l-80 -49v-291q33 -8 66 -24v-39h-276v39q33 16 66 24v204l-84 -51v79z" />
    <glyph glyph-name="Nacute" unicode="&#x143;" horiz-adv-x="758" 
d="M490 700h248v-38q-19 -15 -42 -26.5t-43 -17.5v-630h-85l-353 510l-40 77h-3l9 -80v-417q20 -5 44.5 -16.5t41.5 -23.5v-38h-247v38q18 12 39.5 22.5t44.5 17.5v546q-20 8 -40 18t-36 21v37h216l287 -416l46 -86h4l-5 86v334q-24 8 -46.5 19.5t-39.5 24.5v38zM457 898
q16 1 36.5 -2t40 -8.5t35 -12.5t21.5 -14v-20l-247 -96l-28 24z" />
    <glyph glyph-name="nacute" unicode="&#x144;" horiz-adv-x="644" 
d="M632 0h-265v39q13 7 25.5 12.5t29.5 11.5v235q0 63 -18 98.5t-64 35.5q-38 0 -65.5 -24.5t-41.5 -66.5v-278q16 -4 28.5 -9.5t26.5 -14.5v-39h-265v39q25 13 66 24v366l-66 8v39q13 6 34 11.5t45.5 10.5t50 8.5t46.5 5.5h34v-103h1q21 42 63 72.5t102 30.5q39 0 70 -9.5
t52.5 -33.5t33 -64.5t11.5 -102.5v-239q40 -7 66 -24v-39zM375 763q8 2 26.5 1.5t38.5 -3.5t36.5 -8.5t21.5 -11.5v-24l-191 -155l-40 22z" />
    <glyph glyph-name="Ncommaaccent" unicode="&#x145;" horiz-adv-x="758" 
d="M490 700h248v-38q-19 -15 -42 -26.5t-43 -17.5v-630h-85l-353 510l-40 77h-3l9 -80v-417q20 -5 44.5 -16.5t41.5 -23.5v-38h-247v38q18 12 39.5 22.5t44.5 17.5v546q-20 8 -40 18t-36 21v37h216l287 -416l46 -86h4l-5 86v334q-24 8 -46.5 19.5t-39.5 24.5v38zM306 -241
q23 6 40.5 21.5t16.5 37.5q-14 14 -34 23t-42 15q-6 16 -2 33t14 31.5t24 24t29 11.5q21 -1 41.5 -7.5t36.5 -19t26 -31.5t10 -44t-11 -48.5t-30.5 -42.5t-46.5 -32t-59 -16z" />
    <glyph glyph-name="ncommaaccent" unicode="&#x146;" horiz-adv-x="644" 
d="M632 0h-265v39q13 7 25.5 12.5t29.5 11.5v235q0 63 -18 98.5t-64 35.5q-38 0 -65.5 -24.5t-41.5 -66.5v-278q16 -4 28.5 -9.5t26.5 -14.5v-39h-265v39q25 13 66 24v366l-66 8v39q13 6 34 11.5t45.5 10.5t50 8.5t46.5 5.5h34v-103h1q21 42 63 72.5t102 30.5q39 0 70 -9.5
t52.5 -33.5t33 -64.5t11.5 -102.5v-239q40 -7 66 -24v-39zM259 -240q30 8 43 26t13 35q-12 14 -31 22.5t-39 15.5q-5 16 -1 33t13 31t21.5 23.5t26.5 11.5q39 -1 69.5 -26t30.5 -76q0 -24 -9 -47.5t-26 -43t-42 -33t-58 -17.5z" />
    <glyph glyph-name="Ncaron" unicode="&#x147;" horiz-adv-x="758" 
d="M490 700h248v-38q-19 -15 -42 -26.5t-43 -17.5v-630h-85l-353 510l-40 77h-3l9 -80v-417q20 -5 44.5 -16.5t41.5 -23.5v-38h-247v38q18 12 39.5 22.5t44.5 17.5v546q-20 8 -40 18t-36 21v37h216l287 -416l46 -86h4l-5 86v334q-24 8 -46.5 19.5t-39.5 24.5v38zM507 902
q8 0 19.5 -10.5t14.5 -20.5l-127 -112q-4 -3 -12 -4.5t-17.5 -1.5t-18 1.5t-14.5 4.5l-125 109q3 11 13.5 22.5t20.5 11.5l126 -55z" />
    <glyph glyph-name="ncaron" unicode="&#x148;" horiz-adv-x="644" 
d="M632 0h-265v39q13 7 25.5 12.5t29.5 11.5v235q0 63 -18 98.5t-64 35.5q-38 0 -65.5 -24.5t-41.5 -66.5v-278q16 -4 28.5 -9.5t26.5 -14.5v-39h-265v39q25 13 66 24v366l-66 8v39q13 6 34 11.5t45.5 10.5t50 8.5t46.5 5.5h34v-103h1q21 42 63 72.5t102 30.5q39 0 70 -9.5
t52.5 -33.5t33 -64.5t11.5 -102.5v-239q40 -7 66 -24v-39zM432 792q10 0 25 -9.5t17 -15.5l-128 -181q-8 -5 -25 -5t-27 5l-126 180q1 3 7 7.5t13.5 8.5t15 7t12.5 3l111 -93z" />
    <glyph glyph-name="Omacron" unicode="&#x14c;" horiz-adv-x="754" 
d="M39 350q0 78 22 144.5t65 115t106 75.5t145 27t145 -27t105.5 -75.5t64.5 -115t22 -144.5t-22 -144.5t-64.5 -115t-105.5 -75.5t-145 -27t-145 27t-106 75.5t-65 115t-22 144.5zM209 350q0 -64 10 -118.5t31.5 -94t55 -62t80.5 -22.5q43 0 73 22.5t49 62t27.5 94
t8.5 118.5t-9.5 118.5t-30 94t-54 62t-81.5 22.5q-46 0 -77 -22.5t-49.5 -62t-26 -94t-7.5 -118.5zM215 779v70h324v-70h-324z" />
    <glyph glyph-name="omacron" unicode="&#x14d;" horiz-adv-x="594" 
d="M31 250q0 61 18.5 109.5t53 82.5t83.5 52t111 18q70 0 120.5 -19.5t83 -54t47.5 -83t15 -105.5q0 -61 -18 -109.5t-52.5 -82.5t-84 -52t-111.5 -18q-68 0 -118 19.5t-83 54t-49 83t-16 105.5zM186 250q0 -45 5.5 -82.5t19.5 -63.5t38 -40.5t62 -14.5q22 0 40 10.5t31 34
t19.5 62t6.5 94.5q0 46 -5.5 83t-19 63t-36.5 40.5t-58 14.5q-26 0 -45 -10.5t-32 -34t-19.5 -62t-6.5 -94.5zM150 619v70h294v-70h-294z" />
    <glyph glyph-name="Ohungarumlaut" unicode="&#x150;" horiz-adv-x="754" 
d="M39 350q0 78 22 144.5t65 115t106 75.5t145 27t145 -27t105.5 -75.5t64.5 -115t22 -144.5t-22 -144.5t-64.5 -115t-105.5 -75.5t-145 -27t-145 27t-106 75.5t-65 115t-22 144.5zM209 350q0 -64 10 -118.5t31.5 -94t55 -62t80.5 -22.5q43 0 73 22.5t49 62t27.5 94
t8.5 118.5t-9.5 118.5t-30 94t-54 62t-81.5 22.5q-46 0 -77 -22.5t-49.5 -62t-26 -94t-7.5 -118.5zM310 888q6 1 21.5 -1.5t32.5 -6.5t31 -9.5t17 -10.5v-14l-135 -97l-37 23zM506 888q7 1 22.5 -1.5t33 -7t32 -10.5t19.5 -12l-1 -10l-182 -100l-39 23z" />
    <glyph glyph-name="ohungarumlaut" unicode="&#x151;" horiz-adv-x="594" 
d="M31 250q0 61 18.5 109.5t53 82.5t83.5 52t111 18q70 0 120.5 -19.5t83 -54t47.5 -83t15 -105.5q0 -61 -18 -109.5t-52.5 -82.5t-84 -52t-111.5 -18q-68 0 -118 19.5t-83 54t-49 83t-16 105.5zM186 250q0 -45 5.5 -82.5t19.5 -63.5t38 -40.5t62 -14.5q22 0 40 10.5t31 34
t19.5 62t6.5 94.5q0 46 -5.5 83t-19 63t-36.5 40.5t-58 14.5q-26 0 -45 -10.5t-32 -34t-19.5 -62t-6.5 -94.5zM240 768q6 2 23 1t35.5 -4t34 -7.5t18.5 -10.5v-24l-138 -138l-41 20zM436 768q7 2 23 1t34 -5t33.5 -10t21.5 -14v-22l-208 -133l-37 22z" />
    <glyph glyph-name="OE" unicode="&#x152;" horiz-adv-x="983" 
d="M482 0q-23 -5 -52.5 -8.5t-54.5 -3.5q-82 0 -145 27t-105.5 75.5t-64 115t-21.5 144.5t21.5 144.5t64 115t105.5 75.5t145 27q21 0 51.5 -3.5t54.5 -8.5h444q-2 -45 -7 -93t-13 -90h-41l-46 118h-187v-245h122l44 77h32q5 -49 5 -109t-5 -112h-32l-44 79h-122v-260h195
l53 127h41q4 -19 8 -43t6.5 -49.5t4 -51.5t1.5 -48h-458zM386 53q24 0 49.5 6.5t45.5 17.5v540q-23 13 -52 21.5t-60 8.5q-46 0 -77 -22.5t-49.5 -62t-26 -94t-7.5 -118.5t10 -118.5t31.5 -94t55 -62t80.5 -22.5z" />
    <glyph glyph-name="oe" unicode="&#x153;" horiz-adv-x="913" 
d="M186 250q0 -45 5.5 -83t20 -65t39 -42t63.5 -15q47 0 70.5 46.5t23.5 158.5q0 46 -5.5 83.5t-19 64.5t-36.5 42t-58 15q-53 0 -78 -46.5t-25 -158.5zM484 61q-35 -39 -82.5 -56t-104.5 -17q-68 0 -118 19.5t-83 54t-49 83t-16 105.5q0 61 18.5 109.5t53 82.5t83.5 52
t111 18t111 -19t75 -54q31 37 76 55t101 18q51 0 95.5 -14t74 -46t41 -84t-1.5 -127h-307q1 -79 41 -126t116 -47q34 0 69 10t55 26l19 -20q-8 -17 -25.5 -34.5t-43 -31t-59 -22t-72.5 -8.5q-29 0 -56 5.5t-50.5 15t-42 23t-29.5 29.5zM656 455q-20 0 -35.5 -7t-27 -25.5
t-18.5 -50t-10 -79.5h161q7 78 -9 120t-61 42z" />
    <glyph glyph-name="Racute" unicode="&#x154;" horiz-adv-x="697" 
d="M252 67q23 -5 41 -13l35 -16v-38h-308v38q22 12 42 18.5t40 10.5v566q-50 11 -82 29v38h106q20 0 45.5 1t53.5 2.5l57 3t56 1.5q55 0 101.5 -12.5t80 -37.5t52 -62.5t18.5 -87.5q0 -72 -35 -118t-96 -69l85 -128.5t95 -126.5l48 -32v-34h-167l-43 33q-46 55 -81.5 127.5
t-62.5 142.5h-81v-236zM302 643q-31 0 -50 -6v-279h59q51 0 87 36.5t36 108.5q0 37 -10 63.5t-28 43.5t-42 25t-52 8zM382 898q16 1 36.5 -2t40 -8.5t35 -12.5t21.5 -14v-20l-247 -96l-28 24z" />
    <glyph glyph-name="racute" unicode="&#x155;" horiz-adv-x="431" 
d="M290 385q-12 -6 -28 -20t-29 -46v-256q20 -2 40 -7.5t40 -16.5v-39h-290v39q18 10 34 15t32 9v366l-66 8v39q16 7 39.5 13t48.5 10.5t48.5 7.5l39.5 5h34v-133h4q8 22 23.5 46t36.5 44t46 32t52 11q11 -14 19 -39.5t13 -48.5v-39h-137zM280 763q8 2 26.5 1.5t38.5 -3.5
t36.5 -8.5t21.5 -11.5v-24l-191 -155l-40 22z" />
    <glyph glyph-name="Rcommaaccent" unicode="&#x156;" horiz-adv-x="697" 
d="M252 67q23 -5 41 -13l35 -16v-38h-308v38q22 12 42 18.5t40 10.5v566q-50 11 -82 29v38h106q20 0 45.5 1t53.5 2.5l57 3t56 1.5q55 0 101.5 -12.5t80 -37.5t52 -62.5t18.5 -87.5q0 -72 -35 -118t-96 -69l85 -128.5t95 -126.5l48 -32v-34h-167l-43 33q-46 55 -81.5 127.5
t-62.5 142.5h-81v-236zM302 643q-31 0 -50 -6v-279h59q51 0 87 36.5t36 108.5q0 37 -10 63.5t-28 43.5t-42 25t-52 8zM262 -241q23 6 40.5 21.5t16.5 37.5q-14 14 -34 23t-42 15q-6 16 -2 33t14 31.5t24 24t29 11.5q21 -1 41.5 -7.5t36.5 -19t26 -31.5t10 -44t-11 -48.5
t-30.5 -42.5t-46.5 -32t-59 -16z" />
    <glyph glyph-name="rcommaaccent" unicode="&#x157;" horiz-adv-x="431" 
d="M290 385q-12 -6 -28 -20t-29 -46v-256q20 -2 40 -7.5t40 -16.5v-39h-290v39q18 10 34 15t32 9v366l-66 8v39q16 7 39.5 13t48.5 10.5t48.5 7.5l39.5 5h34v-133h4q8 22 23.5 46t36.5 44t46 32t52 11q11 -14 19 -39.5t13 -48.5v-39h-137zM124 -240q30 8 43 26t13 35
q-12 14 -31 22.5t-39 15.5q-5 16 -1 33t13 31t21.5 23.5t26.5 11.5q39 -1 69.5 -26t30.5 -76q0 -24 -9 -47.5t-26 -43t-42 -33t-58 -17.5z" />
    <glyph glyph-name="Rcaron" unicode="&#x158;" horiz-adv-x="697" 
d="M252 67q23 -5 41 -13l35 -16v-38h-308v38q22 12 42 18.5t40 10.5v566q-50 11 -82 29v38h106q20 0 45.5 1t53.5 2.5l57 3t56 1.5q55 0 101.5 -12.5t80 -37.5t52 -62.5t18.5 -87.5q0 -72 -35 -118t-96 -69l85 -128.5t95 -126.5l48 -32v-34h-167l-43 33q-46 55 -81.5 127.5
t-62.5 142.5h-81v-236zM302 643q-31 0 -50 -6v-279h59q51 0 87 36.5t36 108.5q0 37 -10 63.5t-28 43.5t-42 25t-52 8zM427 902q8 0 19.5 -10.5t14.5 -20.5l-127 -112q-4 -3 -12 -4.5t-17.5 -1.5t-18 1.5t-14.5 4.5l-125 109q3 11 13.5 22.5t20.5 11.5l126 -55z" />
    <glyph glyph-name="rcaron" unicode="&#x159;" horiz-adv-x="431" 
d="M290 385q-12 -6 -28 -20t-29 -46v-256q20 -2 40 -7.5t40 -16.5v-39h-290v39q18 10 34 15t32 9v366l-66 8v39q16 7 39.5 13t48.5 10.5t48.5 7.5l39.5 5h34v-133h4q8 22 23.5 46t36.5 44t46 32t52 11q11 -14 19 -39.5t13 -48.5v-39h-137zM344 792q10 0 25 -9.5t17 -15.5
l-128 -181q-8 -5 -25 -5t-27 5l-126 180q1 3 7 7.5t13.5 8.5t15 7t12.5 3l111 -93z" />
    <glyph glyph-name="Sacute" unicode="&#x15a;" horiz-adv-x="558" 
d="M157 83q11 -11 31 -20.5t53 -9.5q55 0 91.5 28.5t36.5 79.5q0 37 -23.5 62t-59.5 46t-77 41.5t-77 48.5t-59.5 66.5t-23.5 95.5q0 49 18 85t49.5 59.5t74.5 35t93 11.5q61 0 113.5 -8.5t94.5 -26.5q-1 -20 -3.5 -46t-6.5 -51.5t-8.5 -48t-8.5 -37.5h-41l-46 137
q-12 6 -35.5 11t-48.5 5q-42 0 -71 -22t-29 -64q0 -38 24 -64.5t60 -48.5t78.5 -43.5t78.5 -49.5t60 -65.5t24 -92.5q0 -100 -67.5 -154.5t-198.5 -54.5q-32 0 -64.5 4t-61.5 11t-51.5 15t-33.5 17q1 23 5 49.5t8.5 53t9.5 50.5t10 42h41zM375 898q16 1 36.5 -2t40 -8.5
t35 -12.5t21.5 -14v-20l-247 -96l-28 24z" />
    <glyph glyph-name="sacute" unicode="&#x15b;" horiz-adv-x="452" 
d="M288 109q0 26 -18.5 45t-46 35t-60 32t-60 37.5t-46 50.5t-18.5 71q0 30 14 54.5t38 41.5t57.5 26.5t72.5 9.5q54 0 100.5 -8.5t81.5 -23.5q-4 -32 -16 -68.5t-23 -66.5h-34l-42 102q-12 5 -25 6.5t-29 1.5q-30 0 -45.5 -17.5t-15.5 -39.5q0 -25 18.5 -43.5t46 -34.5
t60 -32t60 -36.5t46 -48.5t18.5 -67q0 -69 -56 -108.5t-150 -39.5q-48 0 -99 10t-88 28q2 36 17 73t32 66h34l49 -109q11 -8 24.5 -9.5t25.5 -1.5q29 0 53 17t24 47zM271 763q8 2 26.5 1.5t38.5 -3.5t36.5 -8.5t21.5 -11.5v-24l-191 -155l-40 22z" />
    <glyph glyph-name="Scircumflex" unicode="&#x15c;" horiz-adv-x="558" 
d="M157 83q11 -11 31 -20.5t53 -9.5q55 0 91.5 28.5t36.5 79.5q0 37 -23.5 62t-59.5 46t-77 41.5t-77 48.5t-59.5 66.5t-23.5 95.5q0 49 18 85t49.5 59.5t74.5 35t93 11.5q61 0 113.5 -8.5t94.5 -26.5q-1 -20 -3.5 -46t-6.5 -51.5t-8.5 -48t-8.5 -37.5h-41l-46 137
q-12 6 -35.5 11t-48.5 5q-42 0 -71 -22t-29 -64q0 -38 24 -64.5t60 -48.5t78.5 -43.5t78.5 -49.5t60 -65.5t24 -92.5q0 -100 -67.5 -154.5t-198.5 -54.5q-32 0 -64.5 4t-61.5 11t-51.5 15t-33.5 17q1 23 5 49.5t8.5 53t9.5 50.5t10 42h41zM169 743l-28 28l127 117q10 5 31 5
t31 -5l125 -114l-28 -30l-132 56z" />
    <glyph glyph-name="scircumflex" unicode="&#x15d;" horiz-adv-x="452" 
d="M288 109q0 26 -18.5 45t-46 35t-60 32t-60 37.5t-46 50.5t-18.5 71q0 30 14 54.5t38 41.5t57.5 26.5t72.5 9.5q54 0 100.5 -8.5t81.5 -23.5q-4 -32 -16 -68.5t-23 -66.5h-34l-42 102q-12 5 -25 6.5t-29 1.5q-30 0 -45.5 -17.5t-15.5 -39.5q0 -25 18.5 -43.5t46 -34.5
t60 -32t60 -36.5t46 -48.5t18.5 -67q0 -69 -56 -108.5t-150 -39.5q-48 0 -99 10t-88 28q2 36 17 73t32 66h34l49 -109q11 -8 24.5 -9.5t25.5 -1.5q29 0 53 17t24 47zM136 577l-42 25l110 186q6 5 24.5 5.5t27.5 -5.5l114 -185l-41 -26l-103 98z" />
    <glyph glyph-name="Scedilla" unicode="&#x15e;" horiz-adv-x="558" 
d="M157 83q11 -11 31 -20.5t53 -9.5q55 0 91.5 28.5t36.5 79.5q0 37 -23.5 62t-59.5 46t-77 41.5t-77 48.5t-59.5 66.5t-23.5 95.5q0 49 18 85t49.5 59.5t74.5 35t93 11.5q61 0 113.5 -8.5t94.5 -26.5q-1 -20 -3.5 -46t-6.5 -51.5t-8.5 -48t-8.5 -37.5h-41l-46 137
q-12 6 -35.5 11t-48.5 5q-42 0 -71 -22t-29 -64q0 -38 24 -64.5t60 -48.5t78.5 -43.5t78.5 -49.5t60 -65.5t24 -92.5q0 -93 -58.5 -146t-171.5 -61l-25 -60q60 -2 97.5 -23.5t37.5 -65.5q0 -33 -22.5 -57t-55 -39.5t-69 -22.5t-65.5 -7v46q35 5 57.5 20t21.5 43
q-1 23 -17.5 36t-58.5 15l36 114q-29 1 -58 5.5t-53.5 11t-43.5 14t-29 15.5q1 23 5 49.5t8.5 53t9.5 50.5t10 42h41z" />
    <glyph glyph-name="Scedilla" unicode="&#xf6c1;" horiz-adv-x="558" 
d="M157 83q11 -11 31 -20.5t53 -9.5q55 0 91.5 28.5t36.5 79.5q0 37 -23.5 62t-59.5 46t-77 41.5t-77 48.5t-59.5 66.5t-23.5 95.5q0 49 18 85t49.5 59.5t74.5 35t93 11.5q61 0 113.5 -8.5t94.5 -26.5q-1 -20 -3.5 -46t-6.5 -51.5t-8.5 -48t-8.5 -37.5h-41l-46 137
q-12 6 -35.5 11t-48.5 5q-42 0 -71 -22t-29 -64q0 -38 24 -64.5t60 -48.5t78.5 -43.5t78.5 -49.5t60 -65.5t24 -92.5q0 -93 -58.5 -146t-171.5 -61l-25 -60q60 -2 97.5 -23.5t37.5 -65.5q0 -33 -22.5 -57t-55 -39.5t-69 -22.5t-65.5 -7v46q35 5 57.5 20t21.5 43
q-1 23 -17.5 36t-58.5 15l36 114q-29 1 -58 5.5t-53.5 11t-43.5 14t-29 15.5q1 23 5 49.5t8.5 53t9.5 50.5t10 42h41z" />
    <glyph glyph-name="scedilla" unicode="&#x15f;" horiz-adv-x="462" 
d="M298 109q0 29 -19 48t-48 34t-62.5 30t-62.5 35.5t-48 49.5t-19 74q0 60 51.5 96t135.5 36q54 0 103 -8.5t84 -23.5q-4 -32 -16 -68.5t-23 -66.5h-34l-42 102q-12 5 -27.5 6.5t-31.5 1.5q-34 0 -50 -17.5t-16 -39.5q0 -27 19 -45t48 -33.5t62.5 -30t62.5 -34.5t48 -48
t19 -69q0 -68 -52 -107.5t-147 -42.5l-21 -56q60 -3 91.5 -21.5t32.5 -54.5q0 -29 -17 -50t-45 -35t-63 -21t-70 -7v39q70 11 70 57q-1 23 -19.5 33t-53.5 14l37 104q-40 5 -78.5 13.5t-67.5 22.5q2 36 17 73t32 66h34l49 -109q11 -8 27 -9.5t28 -1.5q32 0 57 17t25 47z" />
    <glyph glyph-name="scedilla" unicode="&#xf6c2;" horiz-adv-x="462" 
d="M298 109q0 29 -19 48t-48 34t-62.5 30t-62.5 35.5t-48 49.5t-19 74q0 60 51.5 96t135.5 36q54 0 103 -8.5t84 -23.5q-4 -32 -16 -68.5t-23 -66.5h-34l-42 102q-12 5 -27.5 6.5t-31.5 1.5q-34 0 -50 -17.5t-16 -39.5q0 -27 19 -45t48 -33.5t62.5 -30t62.5 -34.5t48 -48
t19 -69q0 -68 -52 -107.5t-147 -42.5l-21 -56q60 -3 91.5 -21.5t32.5 -54.5q0 -29 -17 -50t-45 -35t-63 -21t-70 -7v39q70 11 70 57q-1 23 -19.5 33t-53.5 14l37 104q-40 5 -78.5 13.5t-67.5 22.5q2 36 17 73t32 66h34l49 -109q11 -8 27 -9.5t28 -1.5q32 0 57 17t25 47z" />
    <glyph glyph-name="Scaron" unicode="&#x160;" horiz-adv-x="558" 
d="M157 83q11 -11 31 -20.5t53 -9.5q55 0 91.5 28.5t36.5 79.5q0 37 -23.5 62t-59.5 46t-77 41.5t-77 48.5t-59.5 66.5t-23.5 95.5q0 49 18 85t49.5 59.5t74.5 35t93 11.5q61 0 113.5 -8.5t94.5 -26.5q-1 -20 -3.5 -46t-6.5 -51.5t-8.5 -48t-8.5 -37.5h-41l-46 137
q-12 6 -35.5 11t-48.5 5q-42 0 -71 -22t-29 -64q0 -38 24 -64.5t60 -48.5t78.5 -43.5t78.5 -49.5t60 -65.5t24 -92.5q0 -100 -67.5 -154.5t-198.5 -54.5q-32 0 -64.5 4t-61.5 11t-51.5 15t-33.5 17q1 23 5 49.5t8.5 53t9.5 50.5t10 42h41zM424 902q8 0 19.5 -10.5
t14.5 -20.5l-127 -112q-4 -3 -12 -4.5t-17.5 -1.5t-18 1.5t-14.5 4.5l-125 109q3 11 13.5 22.5t20.5 11.5l126 -55z" />
    <glyph glyph-name="scaron" unicode="&#x161;" horiz-adv-x="452" 
d="M288 109q0 26 -18.5 45t-46 35t-60 32t-60 37.5t-46 50.5t-18.5 71q0 30 14 54.5t38 41.5t57.5 26.5t72.5 9.5q54 0 100.5 -8.5t81.5 -23.5q-4 -32 -16 -68.5t-23 -66.5h-34l-42 102q-12 5 -25 6.5t-29 1.5q-30 0 -45.5 -17.5t-15.5 -39.5q0 -25 18.5 -43.5t46 -34.5
t60 -32t60 -36.5t46 -48.5t18.5 -67q0 -69 -56 -108.5t-150 -39.5q-48 0 -99 10t-88 28q2 36 17 73t32 66h34l49 -109q11 -8 24.5 -9.5t25.5 -1.5q29 0 53 17t24 47zM338 792q10 0 25 -9.5t17 -15.5l-128 -181q-8 -5 -25 -5t-27 5l-126 180q1 3 7 7.5t13.5 8.5t15 7t12.5 3
l111 -93z" />
    <glyph glyph-name="Tcedilla" unicode="&#x162;" horiz-adv-x="667" 
d="M505 0h-143l-29 -70q60 -2 97.5 -23.5t37.5 -65.5q0 -33 -22.5 -57t-55 -39.5t-69 -22.5t-65.5 -7v46q35 5 57.5 20t21.5 43q-1 23 -17.5 36t-58.5 15l39 125h-137v38q20 8 45.5 16.5t51.5 12.5v568h-116l-64 -171h-41q-4 20 -8 51t-7 64t-5 65.5t-2 55.5h637
q0 -24 -2 -56t-5 -65t-7 -63.5t-8 -51.5h-42l-64 171h-116v-568q26 -5 51.5 -12t45.5 -17v-38z" />
    <glyph glyph-name="tcedilla" unicode="&#x163;" horiz-adv-x="399" 
d="M8 476q38 24 80 34v81q6 6 21 12t32.5 11.5t34.5 9t28 3.5h28v-127h132v-63h-132v-259q0 -62 15.5 -86t51.5 -24q19 0 41 2.5t41 9.5l7 -33q-16 -15 -51.5 -32.5t-80.5 -22.5q-8 -1 -14.5 -2t-14.5 -1l-21 -57q60 -3 91.5 -21.5t32.5 -54.5q0 -29 -17 -50t-45 -35
t-63 -21t-70 -7v39q70 11 70 57q-1 23 -19.5 33t-53.5 14l38 108q-82 19 -82 138v305h-80v39z" />
    <glyph glyph-name="Tcaron" unicode="&#x164;" horiz-adv-x="667" 
d="M505 0h-344v38q20 8 45.5 16.5t51.5 12.5v568h-116l-64 -171h-41q-4 20 -8 51t-7 64t-5 65.5t-2 55.5h637q0 -24 -2 -56t-5 -65t-7 -63.5t-8 -51.5h-42l-64 171h-116v-568q26 -5 51.5 -12t45.5 -17v-38zM460 902q8 0 19.5 -10.5t14.5 -20.5l-127 -112q-4 -3 -12 -4.5
t-17.5 -1.5t-18 1.5t-14.5 4.5l-125 109q3 11 13.5 22.5t20.5 11.5l126 -55z" />
    <glyph glyph-name="tcaron" unicode="&#x165;" horiz-adv-x="389" 
d="M8 476q38 24 80 34v81q6 6 20.5 11.5t31 10l32.5 8.5t26 6h34v-127h132v-63h-132v-259q0 -62 15.5 -86t51.5 -24q18 0 40.5 2.5t41.5 9.5l7 -33q-9 -9 -26.5 -19t-40 -19t-49 -15t-55.5 -6q-65 0 -97 34t-32 110v305h-80v39zM265 549q10 22 18.5 48t13.5 52t8 51t3 45
l21 25q7 1 22.5 -1.5t33 -7t33.5 -10.5t24 -13q-5 -28 -20.5 -59.5t-37 -61t-45.5 -53t-45 -35.5z" />
    <glyph glyph-name="Umacron" unicode="&#x16a;" horiz-adv-x="715" 
d="M7 700h308v-38q-33 -21 -76 -29v-385q0 -49 11 -82t32 -53.5t50.5 -29.5t66.5 -9q33 0 60.5 9.5t48 30.5t31.5 55t11 84v375q-23 5 -47.5 14t-40.5 20v38h248v-38q-18 -13 -40 -21t-43 -13v-376q0 -128 -67.5 -194.5t-190.5 -66.5q-134 0 -207 60t-73 192v390
q-20 3 -42 10.5t-40 18.5v38zM229 779v70h324v-70h-324z" />
    <glyph glyph-name="umacron" unicode="&#x16b;" horiz-adv-x="622" 
d="M71 198q0 63 3 117t3 114l-66 8v39q16 6 39.5 12t48.5 10.5t48.5 8t39.5 5.5h34q0 -75 -3 -147.5t-3 -142.5q0 -82 16.5 -118t61.5 -36q31 0 57.5 23.5t43.5 75.5v262l-65 8v39q15 6 37.5 12t47 10.5t48.5 8t42 5.5h34v-441l66 -8v-35q-14 -6 -35 -12t-44 -11.5t-45.5 -9
t-40.5 -5.5h-34l-7 119h-4q-5 -21 -18 -42.5t-33.5 -39t-48.5 -28.5t-62 -11q-38 0 -67.5 9.5t-50.5 33.5t-32 64.5t-11 102.5zM161 619v70h294v-70h-294z" />
    <glyph glyph-name="Ubreve" unicode="&#x16c;" horiz-adv-x="715" 
d="M7 700h308v-38q-33 -21 -76 -29v-385q0 -49 11 -82t32 -53.5t50.5 -29.5t66.5 -9q33 0 60.5 9.5t48 30.5t31.5 55t11 84v375q-23 5 -47.5 14t-40.5 20v38h248v-38q-18 -13 -40 -21t-43 -13v-376q0 -128 -67.5 -194.5t-190.5 -66.5q-134 0 -207 60t-73 192v390
q-20 3 -42 10.5t-40 18.5v38zM515 897q7 1 20.5 -6t20.5 -17q-9 -22 -24 -42.5t-36 -36.5t-48 -26t-58 -10q-67 0 -110 31.5t-62 85.5q7 12 21.5 19t29.5 5q7 -11 21.5 -20t31.5 -15t35.5 -9.5t33.5 -3.5q16 0 34 2t34.5 7.5t31 14t24.5 21.5z" />
    <glyph glyph-name="ubreve" unicode="&#x16d;" horiz-adv-x="622" 
d="M71 198q0 63 3 117t3 114l-66 8v39q16 6 39.5 12t48.5 10.5t48.5 8t39.5 5.5h34q0 -75 -3 -147.5t-3 -142.5q0 -82 16.5 -118t61.5 -36q31 0 57.5 23.5t43.5 75.5v262l-65 8v39q15 6 37.5 12t47 10.5t48.5 8t42 5.5h34v-441l66 -8v-35q-14 -6 -35 -12t-44 -11.5t-45.5 -9
t-40.5 -5.5h-34l-7 119h-4q-5 -21 -18 -42.5t-33.5 -39t-48.5 -28.5t-62 -11q-38 0 -67.5 9.5t-50.5 33.5t-32 64.5t-11 102.5zM458 724q-9 -27 -23 -52.5t-33.5 -45t-43.5 -31t-52 -11.5q-29 0 -54 11t-45 30.5t-34.5 45.5t-22.5 55l37 22q20 -26 52 -43t68 -18
q75 -2 118 57z" />
    <glyph glyph-name="Uring" unicode="&#x16e;" horiz-adv-x="715" 
d="M7 700h308v-38q-33 -21 -76 -29v-385q0 -49 11 -82t32 -53.5t50.5 -29.5t66.5 -9q33 0 60.5 9.5t48 30.5t31.5 55t11 84v375q-23 5 -47.5 14t-40.5 20v38h248v-38q-18 -13 -40 -21t-43 -13v-376q0 -128 -67.5 -194.5t-190.5 -66.5q-134 0 -207 60t-73 192v390
q-20 3 -42 10.5t-40 18.5v38zM262 788q0 41 36 65.5t97 24.5q26 0 49 -5.5t40.5 -16.5t27.5 -27t10 -38q0 -39 -35.5 -63t-92.5 -24q-64 0 -98 23t-34 61zM345 788q0 -17 15 -25.5t30 -8.5q23 0 36 8.5t13 24.5q0 23 -13.5 32t-32.5 9q-21 0 -34.5 -9t-13.5 -31z" />
    <glyph glyph-name="uring" unicode="&#x16f;" horiz-adv-x="622" 
d="M71 198q0 63 3 117t3 114l-66 8v39q16 6 39.5 12t48.5 10.5t48.5 8t39.5 5.5h34q0 -75 -3 -147.5t-3 -142.5q0 -82 16.5 -118t61.5 -36q31 0 57.5 23.5t43.5 75.5v262l-65 8v39q15 6 37.5 12t47 10.5t48.5 8t42 5.5h34v-441l66 -8v-35q-14 -6 -35 -12t-44 -11.5t-45.5 -9
t-40.5 -5.5h-34l-7 119h-4q-5 -21 -18 -42.5t-33.5 -39t-48.5 -28.5t-62 -11q-38 0 -67.5 9.5t-50.5 33.5t-32 64.5t-11 102.5zM195 679q0 41 30.5 71t87.5 30q53 0 82.5 -27t29.5 -71q0 -42 -31 -70t-82 -28q-58 0 -87.5 26.5t-29.5 68.5zM270 681q0 -23 11 -35t28 -12
q41 0 41 44q0 27 -11.5 39.5t-28.5 12.5q-40 0 -40 -49z" />
    <glyph glyph-name="Uhungarumlaut" unicode="&#x170;" horiz-adv-x="715" 
d="M7 700h308v-38q-33 -21 -76 -29v-385q0 -49 11 -82t32 -53.5t50.5 -29.5t66.5 -9q33 0 60.5 9.5t48 30.5t31.5 55t11 84v375q-23 5 -47.5 14t-40.5 20v38h248v-38q-18 -13 -40 -21t-43 -13v-376q0 -128 -67.5 -194.5t-190.5 -66.5q-134 0 -207 60t-73 192v390
q-20 3 -42 10.5t-40 18.5v38zM334 888q6 1 21.5 -1.5t32.5 -6.5t31 -9.5t17 -10.5v-14l-135 -97l-37 23zM530 888q7 1 22.5 -1.5t33 -7t32 -10.5t19.5 -12l-1 -10l-182 -100l-39 23z" />
    <glyph glyph-name="uhungarumlaut" unicode="&#x171;" horiz-adv-x="622" 
d="M71 198q0 63 3 117t3 114l-66 8v39q16 6 39.5 12t48.5 10.5t48.5 8t39.5 5.5h34q0 -75 -3 -147.5t-3 -142.5q0 -82 16.5 -118t61.5 -36q31 0 57.5 23.5t43.5 75.5v262l-65 8v39q15 6 37.5 12t47 10.5t48.5 8t42 5.5h34v-441l66 -8v-35q-14 -6 -35 -12t-44 -11.5t-45.5 -9
t-40.5 -5.5h-34l-7 119h-4q-5 -21 -18 -42.5t-33.5 -39t-48.5 -28.5t-62 -11q-38 0 -67.5 9.5t-50.5 33.5t-32 64.5t-11 102.5zM233 768q6 2 23 1t35.5 -4t34 -7.5t18.5 -10.5v-24l-138 -138l-41 20zM429 768q7 2 23 1t34 -5t33.5 -10t21.5 -14v-22l-208 -133l-37 22z" />
    <glyph glyph-name="Uogonek" unicode="&#x172;" horiz-adv-x="715" 
d="M7 700h308v-38q-33 -21 -76 -29v-385q0 -49 11 -82t32 -53.5t50.5 -29.5t66.5 -9q33 0 60.5 9.5t48 30.5t31.5 55t11 84v375q-23 5 -47.5 14t-40.5 20v38h248v-38q-18 -13 -40 -21t-43 -13v-376q0 -93 -35.5 -153t-102.5 -87q-24 -13 -43 -30.5t-31.5 -37.5t-19.5 -40.5
t-7 -38.5q0 -26 16 -40t38 -14q12 0 23 1t23 4v-43q-14 -11 -41 -19.5t-59 -8.5q-61 0 -94 28.5t-33 69.5q0 51 34.5 85.5t89.5 62.5h-16q-134 0 -207 60t-73 192v390q-20 3 -42 10.5t-40 18.5v38z" />
    <glyph glyph-name="uogonek" unicode="&#x173;" horiz-adv-x="622" 
d="M71 198q0 63 3 117t3 114l-66 8v39q16 6 40 12.5t50.5 11.5t51 8.5t40.5 3.5h28q0 -75 -3 -147.5t-3 -142.5q0 -82 16.5 -118t61.5 -36q31 0 57.5 23.5t43.5 75.5v262l-65 8v39q15 6 37.5 12t47 10.5t48.5 8t42 5.5h34v-441l66 -8v-35q-10 -5 -21 -8.5t-25 -8.5
q-39 -23 -62 -59t-23 -71q0 -19 12.5 -34.5t35.5 -15.5t50 9v-46q-7 -4 -18.5 -7.5t-24 -6.5t-25 -4.5t-21.5 -1.5q-69 0 -101 27t-32 65q0 41 26 71.5t76 53.5l-21 -1h-25l-7 119h-4q-4 -19 -15.5 -39t-29 -36.5t-41.5 -28.5t-52 -15q-11 -1 -21.5 -1.5t-21.5 0.5
q-33 2 -59.5 13t-44.5 35t-28 63.5t-10 97.5z" />
    <glyph glyph-name="Ydieresis" unicode="&#x178;" horiz-adv-x="698" 
d="M453 700h245v-38q-15 -9 -33.5 -17.5t-37.5 -11.5l-194 -340v-226q20 -2 39.5 -10.5t36.5 -18.5v-38h-308v38q17 9 38 17t44 12v225l-202 341q-23 4 -43.5 12t-37.5 17v38h328v-38q-14 -8 -32 -16t-42 -13l143 -268l136 268q-23 5 -44 13t-36 16v38zM183 793q0 32 23 48
t58 16t58 -16t23 -48q0 -28 -23 -43.5t-58 -15.5t-58 15.5t-23 43.5zM428 793q0 32 23.5 48t58.5 16t58 -16t23 -48q0 -28 -23 -43.5t-58 -15.5t-58.5 15.5t-23.5 43.5z" />
    <glyph glyph-name="Zacute" unicode="&#x179;" horiz-adv-x="634" 
d="M537 211h42q4 -21 7.5 -47.5t6.5 -55t4.5 -56.5t1.5 -52h-564v65l388 570h-248l-59 -143h-42q-5 22 -9 50t-7 56.5t-4 55t-1 46.5h534v-65l-386 -570h274zM405 898q16 1 36.5 -2t40 -8.5t35 -12.5t21.5 -14v-20l-247 -96l-28 24z" />
    <glyph glyph-name="zacute" unicode="&#x17a;" horiz-adv-x="516" 
d="M453 185q11 -41 19 -91t6 -94h-446v39l285 404h-166l-44 -118h-34q-11 43 -18 91t-7 84h430v-39l-286 -404h173l54 128h34zM295 763q8 2 26.5 1.5t38.5 -3.5t36.5 -8.5t21.5 -11.5v-24l-191 -155l-40 22z" />
    <glyph glyph-name="Zdotaccent" unicode="&#x17b;" horiz-adv-x="634" 
d="M537 211h42q4 -21 7.5 -47.5t6.5 -55t4.5 -56.5t1.5 -52h-564v65l388 570h-248l-59 -143h-42q-5 22 -9 50t-7 56.5t-4 55t-1 46.5h534v-65l-386 -570h274zM228 819q0 32 23 49t68 17t67 -17t22 -49q0 -31 -22 -48t-67 -17t-68 17t-23 48z" />
    <glyph glyph-name="zdotaccent" unicode="&#x17c;" horiz-adv-x="516" 
d="M453 185q11 -41 19 -91t6 -94h-446v39l285 404h-166l-44 -118h-34q-11 43 -18 91t-7 84h430v-39l-286 -404h173l54 128h34zM174 664q0 35 24 55t62 20t62 -20t24 -55q0 -34 -24 -54t-62 -20t-62 20t-24 54z" />
    <glyph glyph-name="Zcaron" unicode="&#x17d;" horiz-adv-x="634" 
d="M537 211h42q4 -21 7.5 -47.5t6.5 -55t4.5 -56.5t1.5 -52h-564v65l388 570h-248l-59 -143h-42q-5 22 -9 50t-7 56.5t-4 55t-1 46.5h534v-65l-386 -570h274zM445 902q8 0 19.5 -10.5t14.5 -20.5l-127 -112q-4 -3 -12 -4.5t-17.5 -1.5t-18 1.5t-14.5 4.5l-125 109
q3 11 13.5 22.5t20.5 11.5l126 -55z" />
    <glyph glyph-name="zcaron" unicode="&#x17e;" horiz-adv-x="516" 
d="M453 185q11 -41 19 -91t6 -94h-446v39l285 404h-166l-44 -118h-34q-11 43 -18 91t-7 84h430v-39l-286 -404h173l54 128h34zM372 792q10 0 25 -9.5t17 -15.5l-128 -181q-8 -5 -25 -5t-27 5l-126 180q1 3 7 7.5t13.5 8.5t15 7t12.5 3l111 -93z" />
    <glyph glyph-name="longs" unicode="&#x17f;" horiz-adv-x="372" 
d="M321 752q41 0 73.5 -7.5t49.5 -14.5q-3 -33 -13 -68t-18 -58h-34l-44 95q-26 0 -43.5 -5.5t-28 -21.5t-15.5 -45.5t-5 -76.5v-487q52 -6 96 -24v-39h-306v39q31 18 66 24v374h-76v39q35 22 76 33v35q0 62 17.5 102.5t47.5 64t70.5 32.5t86.5 9z" />
    <glyph glyph-name="florin" unicode="&#x192;" 
d="M185 437h-70v39q20 11 42.5 19.5t42.5 13.5l7 35q13 62 35.5 102.5t52.5 64t67.5 32.5t81.5 9q32 0 65 -5.5t54 -16.5q2 -14 -1.5 -30.5t-11 -31.5t-18 -27t-22.5 -18l-71 76q-14 -3 -27.5 -9t-25.5 -21.5t-23 -43.5t-21 -75l-10 -50h111q2 -11 -0.5 -30.5t-12.5 -32.5
h-111l-56 -394q-11 -71 -42 -118t-68.5 -75.5t-75 -42.5t-61.5 -19l-11 32q12 6 30 20t36 38t33.5 60t23.5 86z" />
    <glyph glyph-name="uni01F4" unicode="&#x1f4;" horiz-adv-x="709" 
d="M636 44q-20 -10 -49 -20t-61 -18t-64 -13t-57 -5q-86 0 -153.5 22.5t-115 68t-72.5 113.5t-25 158q0 98 30.5 166.5t81 112t114.5 63.5t131 20q66 0 124 -9t92 -26q0 -15 -1.5 -38.5t-4.5 -50.5t-7.5 -54t-10.5 -49h-41l-56 152q-11 5 -33 7.5t-44 2.5q-41 0 -79 -16
t-67 -51.5t-46 -92t-17 -137.5q0 -66 15.5 -120.5t43.5 -93.5t67 -61t86 -22q15 0 31 2.5t30 6.5t24.5 9t14.5 9v188q-26 2 -49 10t-43 19v38h273v-38q-9 -9 -24 -16.5t-38 -12.5v-224zM450 898q16 1 36.5 -2t40 -8.5t35 -12.5t21.5 -14v-20l-247 -96l-28 24z" />
    <glyph glyph-name="uni01F5" unicode="&#x1f5;" horiz-adv-x="564" 
d="M264 512q65 0 108 -13.5t65 -33.5q47 51 108 71q7 -5 14 -14.5t12 -20.5t8 -22t3 -18l-13 -24h-105q11 -14 20.5 -36.5t9.5 -53.5q0 -33 -14 -62t-42.5 -51.5t-72 -35.5t-101.5 -13q-17 0 -30.5 0.5t-23.5 2.5q-4 -6 -8.5 -14.5t-4.5 -16.5q0 -17 24 -27t61 -18l79.5 -18
t79.5 -26.5t62 -43t26 -68.5q1 -40 -20 -71t-57.5 -52.5t-86 -33t-105.5 -11.5q-66 0 -112.5 10.5t-75.5 28.5t-42.5 41t-13.5 48q0 28 11 48t31 35t46.5 25t58.5 18q-15 4 -29 10t-25 14.5t-18 20t-7 26.5q0 13 8 25.5t21 23t28 19t30 14.5q-63 14 -100 54.5t-37 103.5
q0 75 62 117t168 42zM390 -76q0 27 -16.5 43.5t-42.5 27t-58.5 18t-64.5 17.5q-26 -20 -37 -40t-11 -48q0 -46 31.5 -71.5t88.5 -25.5q56 0 83 23.5t27 55.5zM178 348q0 -52 17.5 -79t68.5 -27q49 0 67.5 27.5t18.5 78.5q0 54 -19 80.5t-67 26.5q-50 0 -68 -26t-18 -81z
M325 763q8 2 26.5 1.5t38.5 -3.5t36.5 -8.5t21.5 -11.5v-24l-191 -155l-40 22z" />
    <glyph glyph-name="Scommaaccent" unicode="&#x218;" horiz-adv-x="558" 
d="M157 83q11 -11 31 -20.5t53 -9.5q55 0 91.5 28.5t36.5 79.5q0 37 -23.5 62t-59.5 46t-77 41.5t-77 48.5t-59.5 66.5t-23.5 95.5q0 49 18 85t49.5 59.5t74.5 35t93 11.5q61 0 113.5 -8.5t94.5 -26.5q-1 -20 -3.5 -46t-6.5 -51.5t-8.5 -48t-8.5 -37.5h-41l-46 137
q-12 6 -35.5 11t-48.5 5q-42 0 -71 -22t-29 -64q0 -38 24 -64.5t60 -48.5t78.5 -43.5t78.5 -49.5t60 -65.5t24 -92.5q0 -100 -67.5 -154.5t-198.5 -54.5q-32 0 -64.5 4t-61.5 11t-51.5 15t-33.5 17q1 23 5 49.5t8.5 53t9.5 50.5t10 42h41zM211 -241q23 6 40.5 21.5
t16.5 37.5q-14 14 -34 23t-42 15q-6 16 -2 33t14 31.5t24 24t29 11.5q21 -1 41.5 -7.5t36.5 -19t26 -31.5t10 -44t-11 -48.5t-30.5 -42.5t-46.5 -32t-59 -16z" />
    <glyph glyph-name="scommaaccent" unicode="&#x219;" horiz-adv-x="452" 
d="M288 109q0 26 -18.5 45t-46 35t-60 32t-60 37.5t-46 50.5t-18.5 71q0 30 14 54.5t38 41.5t57.5 26.5t72.5 9.5q54 0 100.5 -8.5t81.5 -23.5q-4 -32 -16 -68.5t-23 -66.5h-34l-42 102q-12 5 -25 6.5t-29 1.5q-30 0 -45.5 -17.5t-15.5 -39.5q0 -25 18.5 -43.5t46 -34.5
t60 -32t60 -36.5t46 -48.5t18.5 -67q0 -69 -56 -108.5t-150 -39.5q-48 0 -99 10t-88 28q2 36 17 73t32 66h34l49 -109q11 -8 24.5 -9.5t25.5 -1.5q29 0 53 17t24 47zM150 -240q30 8 43 26t13 35q-12 14 -31 22.5t-39 15.5q-5 16 -1 33t13 31t21.5 23.5t26.5 11.5
q39 -1 69.5 -26t30.5 -76q0 -24 -9 -47.5t-26 -43t-42 -33t-58 -17.5z" />
    <glyph glyph-name="Tcommaaccent" unicode="&#x21a;" horiz-adv-x="667" 
d="M505 0h-344v38q20 8 45.5 16.5t51.5 12.5v568h-116l-64 -171h-41q-4 20 -8 51t-7 64t-5 65.5t-2 55.5h637q0 -24 -2 -56t-5 -65t-7 -63.5t-8 -51.5h-42l-64 171h-116v-568q26 -5 51.5 -12t45.5 -17v-38zM270 -241q23 6 40.5 21.5t16.5 37.5q-14 14 -34 23t-42 15
q-6 16 -2 33t14 31.5t24 24t29 11.5q21 -1 41.5 -7.5t36.5 -19t26 -31.5t10 -44t-11 -48.5t-30.5 -42.5t-46.5 -32t-59 -16z" />
    <glyph glyph-name="tcommaaccent" unicode="&#x21b;" horiz-adv-x="399" 
d="M8 476q38 24 80 34v81q6 6 20.5 11.5t31 10l32.5 8.5t26 6h34v-127h132v-63h-132v-259q0 -62 15.5 -86t51.5 -24q18 0 40.5 2.5t41.5 9.5l7 -33q-9 -9 -26.5 -19t-40 -19t-49 -15t-55.5 -6q-65 0 -97 34t-32 110v305h-80v39zM149 -240q30 8 43 26t13 35q-12 14 -31 22.5
t-39 15.5q-5 16 -1 33t13 31t21.5 23.5t26.5 11.5q39 -1 69.5 -26t30.5 -76q0 -24 -9 -47.5t-26 -43t-42 -33t-58 -17.5z" />
    <glyph glyph-name="uni0237" unicode="&#x237;" horiz-adv-x="320" 
d="M97 429l-66 8v39q15 7 37 13t47 10.5t49.5 7.5t42.5 5h34v-469q0 -47 -11.5 -84t-30 -64t-41 -46t-44 -31.5t-39.5 -19.5t-28 -10l-20 30q12 6 24 19.5t22.5 37.5t17 60.5t6.5 88.5v405z" />
    <glyph glyph-name="afii57929" unicode="&#x2bc;" horiz-adv-x="300" 
d="M61 460q39 10 61 35t20 52q-13 16 -32.5 25.5t-41.5 16.5q-5 18 -1.5 36.5t13.5 34t23.5 26.5t27.5 13q20 -1 40 -8.5t35.5 -21t25 -34t9.5 -48.5q0 -27 -12 -55t-33.5 -52t-51.5 -41.5t-65 -24.5z" />
    <glyph glyph-name="circumflex" unicode="&#x2c6;" horiz-adv-x="396" 
d="M102 577l-42 25l110 186q6 5 24.5 5.5t27.5 -5.5l114 -185l-41 -26l-103 98z" />
    <glyph glyph-name="caron" unicode="&#x2c7;" horiz-adv-x="426" 
d="M324 792q10 0 25 -9.5t17 -15.5l-128 -181q-8 -5 -25 -5t-27 5l-126 180q1 3 7 7.5t13.5 8.5t15 7t12.5 3l111 -93z" />
    <glyph glyph-name="breve" unicode="&#x2d8;" horiz-adv-x="428" 
d="M368 724q-9 -27 -23 -52.5t-33.5 -45t-43.5 -31t-52 -11.5q-29 0 -54 11t-45 30.5t-34.5 45.5t-22.5 55l37 22q20 -26 52 -43t68 -18q75 -2 118 57z" />
    <glyph glyph-name="dotaccent" unicode="&#x2d9;" horiz-adv-x="292" 
d="M60 664q0 35 24 55t62 20t62 -20t24 -55q0 -34 -24 -54t-62 -20t-62 20t-24 54z" />
    <glyph glyph-name="ring" unicode="&#x2da;" horiz-adv-x="350" 
d="M60 679q0 41 30.5 71t87.5 30q53 0 82.5 -27t29.5 -71q0 -42 -31 -70t-82 -28q-58 0 -87.5 26.5t-29.5 68.5zM135 681q0 -23 11 -35t28 -12q41 0 41 44q0 27 -11.5 39.5t-28.5 12.5q-40 0 -40 -49z" />
    <glyph glyph-name="ogonek" unicode="&#x2db;" horiz-adv-x="345" 
d="M285 20q-46 -23 -73.5 -62t-27.5 -77q0 -19 12 -34.5t36 -15.5q23 0 50 9v-46q-7 -4 -18.5 -7.5t-24 -6.5t-25 -4.5t-21.5 -1.5q-69 0 -101 27t-32 65q0 54 45 91t129 63h51z" />
    <glyph glyph-name="tilde" unicode="&#x2dc;" horiz-adv-x="445" 
d="M385 667q-30 -34 -62 -49.5t-55 -15.5q-18 0 -34 5.5t-31 11.5l-29.5 11.5t-29.5 5.5q-13 0 -26.5 -4.5t-29.5 -15.5l-28 42q37 38 70.5 53t56.5 15q18 0 33.5 -5t29.5 -11t28.5 -11t29.5 -5q13 0 26 2.5t29 12.5z" />
    <glyph glyph-name="hungarumlaut" unicode="&#x2dd;" horiz-adv-x="496" 
d="M128 768q6 2 23 1t35.5 -4t34 -7.5t18.5 -10.5v-24l-138 -138l-41 20zM324 768q7 2 23 1t34 -5t33.5 -10t21.5 -14v-22l-208 -133l-37 22z" />
    <glyph glyph-name="acutecomb" unicode="&#x301;" horiz-adv-x="2" 
d="M-188 763q8 2 26.5 1.5t38.5 -3.5t36.5 -8.5t21.5 -11.5v-24l-191 -155l-40 22z" />
    <glyph glyph-name="uni0394" unicode="&#x394;" horiz-adv-x="662" 
d="M20 0v45l293 655h42l287 -655v-45h-622zM300 507l-191 -432h368z" />
    <glyph glyph-name="uni0394" unicode="&#x2206;" horiz-adv-x="662" 
d="M20 0v45l293 655h42l287 -655v-45h-622zM300 507l-191 -432h368z" />
    <glyph glyph-name="uni03A9" unicode="&#x3a9;" horiz-adv-x="797" 
d="M30 0q0 18 1.5 48t4.5 63t6.5 65t7.5 54h34l44 -118h168q-44 16 -86 42t-75 62t-53 83t-20 106q0 72 25 129t70.5 96.5t109 60.5t139.5 21q78 0 139.5 -20.5t104 -59t65.5 -94.5t23 -128q0 -62 -21.5 -111.5t-55 -86t-74 -61.5t-77.5 -39h158l45 118h34q4 -23 8 -55.5
t6.5 -65.5t4 -62.5t1.5 -46.5h-318v119q21 10 43 35t40 61t29.5 81.5t11.5 97.5q0 117 -42.5 185t-124.5 68q-49 0 -83 -17.5t-55.5 -49t-31 -76t-9.5 -99.5q0 -54 13 -101t32.5 -84.5t42.5 -63.5t43 -37v-119h-328z" />
    <glyph glyph-name="uni03A9" unicode="&#x2126;" horiz-adv-x="797" 
d="M30 0q0 18 1.5 48t4.5 63t6.5 65t7.5 54h34l44 -118h168q-44 16 -86 42t-75 62t-53 83t-20 106q0 72 25 129t70.5 96.5t109 60.5t139.5 21q78 0 139.5 -20.5t104 -59t65.5 -94.5t23 -128q0 -62 -21.5 -111.5t-55 -86t-74 -61.5t-77.5 -39h158l45 118h34q4 -23 8 -55.5
t6.5 -65.5t4 -62.5t1.5 -46.5h-318v119q21 10 43 35t40 61t29.5 81.5t11.5 97.5q0 117 -42.5 185t-124.5 68q-49 0 -83 -17.5t-55.5 -49t-31 -76t-9.5 -99.5q0 -54 13 -101t32.5 -84.5t42.5 -63.5t43 -37v-119h-328z" />
    <glyph glyph-name="pi" unicode="&#x3c0;" horiz-adv-x="678" 
d="M601 64v-35q-14 -6 -35 -12.5t-45.5 -11.5t-51 -9t-50.5 -5h-34v419h-146v-123q0 -95 -10.5 -168t-29.5 -119q-9 -5 -30 -5.5t-42.5 0t-37.5 2.5t-16 3l-6 9q22 31 41.5 79.5t34 104t22.5 112.5t8 105h-17q-28 0 -49.5 -14.5t-44.5 -44.5l-22 8q6 36 15.5 63.5t26.5 46.5
t43.5 28.5t66.5 8.5q11 0 43.5 -1t75 -2t90.5 -2t89 -1q32 0 53 0.5t34.5 3.5t23 8t19.5 14l18 -9q-2 -50 -25 -78.5t-66 -28.5h-12v-338z" />
    <glyph glyph-name="afii10023" unicode="&#x401;" horiz-adv-x="604" 
d="M546 700q-2 -45 -7 -93t-13 -90h-41l-46 118h-187v-245h122l44 77h32q5 -49 5 -109t-5 -112h-32l-44 79h-122v-260h195l53 127h41q4 -19 8 -43t6.5 -49.5t4 -51.5t1.5 -48h-541v38q17 9 38 17t44 12v566q-20 4 -42.5 11.5t-39.5 17.5v38h526zM95 793q0 32 23 48t58 16
t58 -16t23 -48q0 -28 -23 -43.5t-58 -15.5t-58 15.5t-23 43.5zM340 793q0 32 23.5 48t58.5 16t58 -16t23 -48q0 -28 -23 -43.5t-58 -15.5t-58.5 15.5t-23.5 43.5z" />
    <glyph glyph-name="afii10051" unicode="&#x402;" horiz-adv-x="803" 
d="M776 234q0 -72 -17 -118.5t-49.5 -73.5t-79 -37t-105.5 -8l-6 45q28 6 48 16.5t33 29t19.5 47.5t6.5 73q0 35 -4.5 63t-16 48t-32 31t-53.5 11t-62.5 -9.5t-54.5 -24.5v-260q17 -5 32 -13t28 -16v-38h-307v38q20 8 45.5 16.5t51.5 12.5v568h-116l-64 -171h-41
q-4 20 -8 51t-7 64t-5 65.5t-2 55.5h637q0 -24 -2 -51.5t-5 -55t-7 -53t-8 -46.5h-42l-64 141h-116v-248q28 16 75 30t103 14q40 0 75.5 -8.5t62 -30.5t42 -60t15.5 -98z" />
    <glyph glyph-name="afii10052" unicode="&#x403;" horiz-adv-x="543" 
d="M252 67q25 -4 49.5 -12t46.5 -17v-38h-328v38q44 22 82 29v566q-20 4 -41.5 11t-40.5 18v38h512q0 -24 -1 -55t-3 -64t-6 -64.5t-8 -56.5h-41l-63 175h-158v-568zM366 898q16 1 36.5 -2t40 -8.5t35 -12.5t21.5 -14v-20l-247 -96l-28 24z" />
    <glyph glyph-name="afii10053" unicode="&#x404;" horiz-adv-x="645" 
d="M540 210h41q4 -16 7.5 -38.5t6 -48t3.5 -50.5t1 -45q-35 -22 -87.5 -31t-107.5 -9q-83 0 -150.5 20.5t-115 65t-73.5 113t-26 164.5q0 95 28.5 163.5t76.5 112.5t111.5 64.5t133.5 20.5q66 0 119.5 -9.5t87.5 -25.5q0 -16 -1.5 -41t-5 -52.5t-8 -54t-8.5 -44.5h-42
l-55 151q-9 5 -29 8t-41 3q-39 0 -74 -15t-62 -47.5t-44 -83t-20 -120.5l269 16q9 -24 9.5 -54t-4.5 -50q-62 9 -135 13.5t-139 6.5q7 -125 62.5 -192.5t148.5 -67.5q28 0 47.5 4.5t26.5 12.5z" />
    <glyph glyph-name="afii10054" unicode="&#x405;" horiz-adv-x="558" 
d="M157 83q11 -11 31 -20.5t53 -9.5q55 0 91.5 28.5t36.5 79.5q0 37 -23.5 62t-59.5 46t-77 41.5t-77 48.5t-59.5 66.5t-23.5 95.5q0 49 18 85t49.5 59.5t74.5 35t93 11.5q61 0 113.5 -8.5t94.5 -26.5q-1 -20 -3.5 -46t-6.5 -51.5t-8.5 -48t-8.5 -37.5h-41l-46 137
q-12 6 -35.5 11t-48.5 5q-42 0 -71 -22t-29 -64q0 -38 24 -64.5t60 -48.5t78.5 -43.5t78.5 -49.5t60 -65.5t24 -92.5q0 -100 -67.5 -154.5t-198.5 -54.5q-32 0 -64.5 4t-61.5 11t-51.5 15t-33.5 17q1 23 5 49.5t8.5 53t9.5 50.5t10 42h41z" />
    <glyph glyph-name="afii10055" unicode="&#x406;" horiz-adv-x="372" 
d="M342 0h-312v38q40 22 81 29v566q-20 3 -42 11t-39 18v38h312v-38q-18 -11 -39.5 -18.5t-41.5 -10.5v-566q20 -4 41.5 -11t39.5 -18v-38z" />
    <glyph glyph-name="afii10056" unicode="&#x407;" horiz-adv-x="372" 
d="M12 793q0 32 19.5 48t54.5 16t54.5 -16t19.5 -48q0 -28 -19.5 -43.5t-54.5 -15.5t-54.5 15.5t-19.5 43.5zM211 793q0 32 20 48t55 16q73 0 73 -64q0 -28 -19 -43.5t-54 -15.5t-55 15.5t-20 43.5zM342 0h-312v38q40 22 81 29v566q-20 3 -42 11t-39 18v38h312v-38
q-18 -11 -39.5 -18.5t-41.5 -10.5v-566q20 -4 41.5 -11t39.5 -18v-38z" />
    <glyph glyph-name="afii10057" unicode="&#x408;" horiz-adv-x="365" 
d="M27 700h308v-38q-16 -10 -36 -18t-40 -11v-512q0 -82 -24.5 -134.5t-58 -83t-68.5 -44.5t-57 -19l-19 26q15 12 29 30.5t24.5 47.5t17 70.5t6.5 100.5v518q-22 5 -43.5 11.5t-38.5 17.5v38z" />
    <glyph glyph-name="afii10058" unicode="&#x409;" horiz-adv-x="969" 
d="M373 0v38q18 10 37 17.5t39 11.5v568h-163q-3 -152 -14 -253.5t-27 -167.5t-35.5 -104.5t-40.5 -66.5q-19 -26 -48 -40.5t-56 -14.5q-13 5 -25 20.5t-22 35.5t-16.5 42t-7.5 41l27 38l119 -29q13 28 25.5 67.5t22.5 97.5t16 137t6 185q-31 5 -58.5 16t-47.5 23v38h583
v-38q-19 -10 -41.5 -17.5t-46.5 -11.5v-214q18 3 43 5t45 2q52 0 98.5 -10t81 -34t55 -64t20.5 -100q0 -56 -22 -97.5t-60 -69t-89 -41t-109 -13.5q-5 0 -20.5 0.5t-36 1l-41.5 1t-36 0.5h-155zM651 361q-33 0 -52 -6v-289q8 -2 26 -3t27 -1q57 0 91 37t34 119
q0 143 -126 143z" />
    <glyph glyph-name="afii10059" unicode="&#x40a;" horiz-adv-x="1037" 
d="M446 0v38q17 11 33.5 18t37.5 11v272h-265v-272q20 -4 37 -11t34 -18v-38h-303v38q17 9 39.5 17t42.5 12v566q-24 4 -46 12t-36 17v38h303v-38q-15 -10 -33.5 -18t-37.5 -11v-229h265v229q-20 4 -35.5 10.5t-35.5 18.5v38h309v-38q-19 -10 -41.5 -17.5t-46.5 -11.5v-230
q18 3 43 5t45 2q52 0 98.5 -9.5t81 -33t55 -62t20.5 -96.5q0 -56 -22 -96t-60 -65.5t-89 -38t-109 -12.5q-5 0 -20.5 0.5t-36 1l-41.5 1t-36 0.5h-150zM719 345q-33 0 -52 -6v-273q8 -2 26 -3t27 -1q56 0 90.5 33.5t34.5 113.5q0 70 -31.5 103t-94.5 33z" />
    <glyph glyph-name="afii10060" unicode="&#x40b;" horiz-adv-x="843" 
d="M403 635v-250q28 17 72.5 31t100.5 14q40 0 75 -8.5t60.5 -29.5t40 -57.5t14.5 -92.5v-175q19 -3 38 -11t34 -18v-38h-222v207q0 35 -3.5 63t-14 48t-30.5 31t-53 11t-60 -9.5t-52 -25.5v-258q17 -5 33 -13t29 -16v-38h-309v38q20 8 45.5 16.5t51.5 12.5v568h-116
l-64 -171h-41q-4 20 -8 51t-7 64t-5 65.5t-2 55.5h637q-1 -49 -7.5 -105t-14.5 -99h-42l-64 139h-116z" />
    <glyph glyph-name="afii10061" unicode="&#x40c;" horiz-adv-x="710" 
d="M399 700h268v-38q-17 -11 -39 -18.5t-40 -10.5l-190 -241l54 -72.5l66 -84l72 -88l72 -84.5l48 -29v-34h-174l-40 28q-24 30 -50.5 66.5l-52.5 76l-51 79.5l-47 78h-43v-261q22 -4 40 -12t31 -17v-38h-303v38q20 10 41 17.5t41 11.5v566q-23 3 -44.5 11t-37.5 18v38h303
v-38q-13 -8 -31.5 -16t-39.5 -13v-254l59 14l161 240q-20 4 -39.5 12.5t-33.5 16.5v38zM409 898q16 1 36.5 -2t40 -8.5t35 -12.5t21.5 -14v-20l-247 -96l-28 24z" />
    <glyph glyph-name="afii10062" unicode="&#x40e;" horiz-adv-x="684" 
d="M519 633q-24 5 -42 12.5t-35 16.5v38h242v-38q-11 -8 -29.5 -15.5t-41.5 -13.5l-191 -432q-48 -110 -100 -163.5t-111 -42.5q-8 8 -16.5 24.5t-16 35t-12.5 36t-6 29.5l28 40l119 -37q8 9 15 22t13 29l-266 459q-19 5 -36.5 12.5t-32.5 16.5v38h312v-38q-30 -18 -76 -29
l141 -271l21 -64h2l20 66zM372 741q-46 0 -83.5 8.5t-64.5 25t-41.5 41.5t-14.5 57q18 13 47.5 17t54.5 5l34 -18v-78q14 -7 32.5 -9.5t36.5 -2.5q14 0 34.5 2t34.5 7v81l34 18q18 2 47 -3.5t51 -18.5q0 -64 -54 -98t-148 -34z" />
    <glyph glyph-name="afii10145" unicode="&#x40f;" horiz-adv-x="758" 
d="M320 662q-16 -10 -32 -17.5t-36 -11.5v-568h254v568q-26 5 -42 13t-26 16v38h300v-38q-22 -13 -42 -20t-40 -9v-566q21 -4 42 -10.5t40 -18.5v-38h-285q-7 -48 -22.5 -101l-29.5 -99h-44q-17 50 -30.5 101t-21.5 99h-285v38q19 11 40.5 18t41.5 11v566q-27 4 -47 12
t-35 17v38h300v-38z" />
    <glyph glyph-name="afii10017" unicode="&#x410;" horiz-adv-x="729" 
d="M247 0h-247v38q16 10 34.5 17.5t36.5 11.5l258 645h74l251 -645q20 -4 40 -11.5t35 -17.5v-38h-313v38q19 9 41 17t42 12l-58 159h-222l-59 -159q46 -6 87 -29v-38zM243 291h177l-65 191l-19 86h-2l-22 -88z" />
    <glyph glyph-name="afii10018" unicode="&#x411;" horiz-adv-x="641" 
d="M102 633q-47 8 -82 29v38h537q0 -23 -2 -51t-5 -56t-7 -54t-8 -47h-41l-62 143h-180v-228l22 2.5t26.5 2.5t27 1.5t23.5 0.5q51 0 97 -11t80.5 -35.5t55 -63.5t20.5 -94q0 -53 -21.5 -93t-59 -66.5t-89 -40t-111.5 -13.5q-5 0 -25 0.5t-45 1l-50 1t-40 0.5h-143v38
q19 11 39.5 18.5t42.5 10.5v566zM308 349q-16 0 -31 -1.5t-25 -4.5v-277q4 -1 12.5 -2t17.5 -1.5t17.5 -0.5h13.5q59 0 92.5 38t33.5 107q0 66 -31 104t-100 38z" />
    <glyph glyph-name="afii10019" unicode="&#x412;" horiz-adv-x="649" 
d="M20 0v38q19 11 40.5 19t41.5 10v566q-20 4 -42 11.5t-40 17.5v38h161q38 0 72 3t78 3q48 0 93 -7t80 -25t56 -50.5t21 -83.5q0 -32 -11.5 -59.5t-32 -48.5t-48 -35t-59.5 -20v-4q32 -4 64.5 -15t58.5 -32t42.5 -52.5t16.5 -74.5q0 -54 -24 -93t-64.5 -64t-92.5 -36.5
t-108 -11.5q-21 0 -46 1l-50 2l-48.5 2t-39.5 1h-119zM322 59q63 0 99 37.5t36 99.5q0 38 -12 62.5t-33 39t-50 20t-63 5.5h-53v-257q14 -3 29.5 -5t46.5 -2zM278 388q17 0 34 1.5t32 3.5q39 16 63 49.5t24 76.5q0 63 -33 92.5t-85 29.5q-22 0 -38 -1t-29 -3v-249h32z" />
    <glyph glyph-name="afii10020" unicode="&#x413;" horiz-adv-x="543" 
d="M252 67q25 -4 49.5 -12t46.5 -17v-38h-328v38q44 22 82 29v566q-20 4 -41.5 11t-40.5 18v38h512q0 -24 -1 -55t-3 -64t-6 -64.5t-8 -56.5h-41l-63 175h-158v-568z" />
    <glyph glyph-name="afii10021" unicode="&#x414;" horiz-adv-x="727" 
d="M716 65q0 -23 -2 -52.5t-5.5 -60.5t-8 -61t-10.5 -54h-39l-54 163h-478l-54 -163h-39q-6 25 -11 56t-8.5 62.5t-5 60.5t-1.5 49h87q28 42 51.5 104t40 135.5t25 155t8.5 163.5q-26 5 -54 15t-52 24v38h575v-38q-35 -19 -82 -29v-568h117zM449 65v570h-161
q-5 -116 -17 -208t-28.5 -162t-35.5 -119.5t-37 -80.5h279z" />
    <glyph glyph-name="afii10022" unicode="&#x415;" horiz-adv-x="604" 
d="M546 700q-2 -45 -7 -93t-13 -90h-41l-46 118h-187v-245h122l44 77h32q5 -49 5 -109t-5 -112h-32l-44 79h-122v-260h195l53 127h41q4 -19 8 -43t6.5 -49.5t4 -51.5t1.5 -48h-541v38q17 9 38 17t44 12v566q-20 4 -42.5 11.5t-39.5 17.5v38h526z" />
    <glyph glyph-name="afii10024" unicode="&#x416;" horiz-adv-x="1023" 
d="M441 633q-20 5 -36.5 13t-28.5 16v38h260v-38q-10 -7 -24.5 -14.5t-34.5 -14.5v-255l68 15l144 240q-20 5 -38.5 13t-34.5 16v38h265v-38q-15 -8 -33.5 -16t-38.5 -13l-180 -245l55.5 -75l61 -84.5l66 -87t70.5 -83.5l41 -24v-34h-169l-43 34q-29 34 -53 70t-45 73
t-40.5 75.5t-41.5 77.5h-54v-263q17 -5 33 -12.5t31 -16.5v-38h-270v38q14 9 31.5 16.5t38.5 12.5v272l-57 -15l-80.5 -152t-91.5 -138l-43 -34h-169v34l41 24q36 40 70 83l65 85l58 81l50 71l-179 255q-20 5 -37 13t-30 16v38h264v-38q-13 -8 -31 -16t-38 -13l144 -246h64
v246z" />
    <glyph glyph-name="afii10025" unicode="&#x417;" horiz-adv-x="580" 
d="M252 -12q-28 0 -58.5 3t-59.5 8t-54 12.5t-42 15.5q0 16 3.5 39t8.5 47.5t11.5 49t12.5 44.5h42l40 -142q11 -5 35.5 -8.5t45.5 -3.5q66 0 106 38t40 103q0 71 -35 100.5t-94 29.5l-77 -13q-5 18 -6 41t5 42h32q17 -1 39.5 0.5t38.5 3.5q38 16 58.5 46.5t20.5 77.5
q0 59 -30.5 92t-86.5 33q-24 0 -43.5 -5.5t-26.5 -13.5l-49 -127h-42q-4 15 -8 34.5t-7 42t-5.5 46t-2.5 45.5q19 13 44.5 21t52 13t52.5 7t47 2q48 0 95 -7t83.5 -26.5t59 -53t22.5 -85.5q0 -51 -33.5 -97.5t-101.5 -67.5v-4q31 -5 59.5 -18t50.5 -34t35 -51t13 -69
q0 -53 -21 -93t-59 -66t-91.5 -39t-119.5 -13z" />
    <glyph glyph-name="afii10026" unicode="&#x418;" horiz-adv-x="779" 
d="M321 0h-301v38q19 10 40 18t42 11v566q-20 5 -42 11.5t-40 17.5v38h301v-38q-15 -9 -34 -17t-41 -12v-380l-10 -78l49 82l252 352v24q-47 11 -79 29v38h301v-38q-17 -11 -38.5 -17.5t-43.5 -11.5v-566q23 -4 43.5 -11.5t38.5 -17.5v-38h-301v38q14 7 33.5 15.5t41.5 13.5
v379l10 79l-45 -79l-256 -357v-22q23 -5 43 -13t36 -16v-38z" />
    <glyph glyph-name="afii10027" unicode="&#x419;" horiz-adv-x="779" 
d="M321 0h-301v38q19 10 40 18t42 11v566q-20 5 -42 11.5t-40 17.5v38h301v-38q-15 -9 -34 -17t-41 -12v-380l-10 -78l49 82l252 352v24q-47 11 -79 29v38h301v-38q-17 -11 -38.5 -17.5t-43.5 -11.5v-566q23 -4 43.5 -11.5t38.5 -17.5v-38h-301v38q14 7 33.5 15.5t41.5 13.5
v379l10 79l-45 -79l-256 -357v-22q23 -5 43 -13t36 -16v-38zM394 741q-46 0 -83.5 8.5t-64.5 25t-41.5 41.5t-14.5 57q18 13 47.5 17t54.5 5l34 -18v-78q14 -7 32.5 -9.5t36.5 -2.5q14 0 34.5 2t34.5 7v81l34 18q18 2 47 -3.5t51 -18.5q0 -64 -54 -98t-148 -34z" />
    <glyph glyph-name="afii10028" unicode="&#x41a;" horiz-adv-x="710" 
d="M399 700h268v-38q-17 -11 -39 -18.5t-40 -10.5l-190 -241l54 -72.5l66 -84l72 -88l72 -84.5l48 -29v-34h-174l-40 28q-24 30 -50.5 66.5l-52.5 76l-51 79.5l-47 78h-43v-261q22 -4 40 -12t31 -17v-38h-303v38q20 10 41 17.5t41 11.5v566q-23 3 -44.5 11t-37.5 18v38h303
v-38q-13 -8 -31.5 -16t-39.5 -13v-254l59 14l161 240q-20 4 -39.5 12.5t-33.5 16.5v38z" />
    <glyph glyph-name="afii10029" unicode="&#x41b;" horiz-adv-x="701" 
d="M210 623q-31 5 -58.5 16t-47.5 23v38h577v-38q-15 -9 -36.5 -17t-45.5 -12v-566q23 -4 43.5 -12t38.5 -17v-38h-308v38q17 9 36.5 16.5t39.5 12.5v568h-163q-3 -152 -14 -253.5t-27 -167.5t-35.5 -104.5t-40.5 -66.5q-19 -26 -48 -40.5t-56 -14.5q-13 5 -25 20.5
t-22 35.5t-16.5 42t-7.5 41l27 38l119 -29q13 28 25.5 67.5t22.5 97.5t16 137t6 185z" />
    <glyph glyph-name="afii10030" unicode="&#x41c;" horiz-adv-x="930" 
d="M909 0h-299v38q20 10 39 17t41 12v418l5 117h-8l-33 -107l-193 -495h-46l-192 491l-36 117h-9l1 -127v-410q19 -4 42 -13t43 -20v-38h-244v38l39.5 19t44.5 15v561q-20 4 -42.5 11t-39.5 18v38h271l153 -407l29 -96h1l30 98l156 405h248v-38q-17 -10 -36.5 -17.5
t-39.5 -11.5v-567q21 -4 40.5 -12t34.5 -16v-38z" />
    <glyph glyph-name="afii10031" unicode="&#x41d;" horiz-adv-x="769" 
d="M323 0h-303v38q17 9 39.5 17t42.5 12v566q-24 4 -46 12t-36 17v38h303v-38q-15 -10 -33.5 -18t-37.5 -11v-242h265v242q-22 4 -39.5 12t-31.5 17v38h303v-38q-17 -11 -39 -18t-43 -11v-566q23 -4 44.5 -12t37.5 -17v-38h-303v38q15 9 33 17t38 12v259h-265v-259
q20 -4 37 -11t34 -18v-38z" />
    <glyph glyph-name="afii10032" unicode="&#x41e;" horiz-adv-x="754" 
d="M39 350q0 78 22 144.5t65 115t106 75.5t145 27t145 -27t105.5 -75.5t64.5 -115t22 -144.5t-22 -144.5t-64.5 -115t-105.5 -75.5t-145 -27t-145 27t-106 75.5t-65 115t-22 144.5zM209 350q0 -64 10 -118.5t31.5 -94t55 -62t80.5 -22.5q43 0 73 22.5t49 62t27.5 94
t8.5 118.5t-9.5 118.5t-30 94t-54 62t-81.5 22.5q-46 0 -77 -22.5t-49.5 -62t-26 -94t-7.5 -118.5z" />
    <glyph glyph-name="afii10033" unicode="&#x41f;" horiz-adv-x="758" 
d="M320 0h-300v38q15 8 35 16.5t47 12.5v566q-20 4 -41.5 11t-40.5 18v38h718v-38q-19 -12 -40 -18.5t-42 -10.5v-566q37 -4 82 -29v-38h-300v38q10 8 26 15.5t42 13.5v568h-254v-568q20 -5 36 -12t32 -17v-38z" />
    <glyph glyph-name="afii10034" unicode="&#x420;" horiz-adv-x="640" 
d="M252 67q27 -4 53.5 -11.5t47.5 -17.5v-38h-333v38q19 11 40.5 18t41.5 11v566q-23 4 -44 11.5t-38 17.5v38h126q40 0 91.5 4t94.5 4q53 0 103.5 -10.5t90 -35.5t63.5 -66.5t24 -103.5q0 -59 -23.5 -102t-62.5 -71t-90 -41.5t-105 -13.5h-16t-23.5 0.5l-24 1t-16.5 1.5
v-200zM306 643q-20 0 -31.5 -1.5t-22.5 -4.5v-304q9 -3 27 -3.5t29 -0.5q27 0 52 9t44.5 28t31.5 49t12 72q0 80 -39 118t-103 38z" />
    <glyph glyph-name="afii10035" unicode="&#x421;" horiz-adv-x="652" 
d="M540 210h41q4 -16 7.5 -38.5t6 -48t3.5 -50.5t1 -45q-35 -22 -87.5 -31t-107.5 -9q-83 0 -150.5 20.5t-115 65t-73.5 113t-26 164.5q0 95 28.5 163.5t76.5 112.5t111.5 64.5t133.5 20.5q66 0 119.5 -9.5t87.5 -25.5q0 -16 -1.5 -41t-5 -52.5t-8 -54t-8.5 -44.5h-42
l-55 151q-9 5 -29 8t-41 3q-41 0 -77 -16.5t-64 -52.5t-44 -92.5t-16 -135.5q0 -143 57 -220t155 -77q28 0 47.5 4.5t26.5 12.5z" />
    <glyph glyph-name="afii10036" unicode="&#x422;" horiz-adv-x="667" 
d="M505 0h-344v38q20 8 45.5 16.5t51.5 12.5v568h-116l-64 -171h-41q-4 20 -8 51t-7 64t-5 65.5t-2 55.5h637q0 -24 -2 -56t-5 -65t-7 -63.5t-8 -51.5h-42l-64 171h-116v-568q26 -5 51.5 -12t45.5 -17v-38z" />
    <glyph glyph-name="afii10037" unicode="&#x423;" horiz-adv-x="684" 
d="M519 633q-24 5 -42 12.5t-35 16.5v38h242v-38q-11 -8 -29.5 -15.5t-41.5 -13.5l-191 -432q-48 -110 -100 -163.5t-111 -42.5q-8 8 -16.5 24.5t-16 35t-12.5 36t-6 29.5l28 40l119 -37q8 9 15 22t13 29l-266 459q-19 5 -36.5 12.5t-32.5 16.5v38h312v-38q-30 -18 -76 -29
l141 -271l21 -64h2l20 66z" />
    <glyph glyph-name="afii10038" unicode="&#x424;" horiz-adv-x="847" 
d="M284 700h274v-37q-11 -7 -27 -15t-39 -14v-43q10 2 23.5 3.5t26.5 2t25 0.5h20q52 0 94.5 -16t73.5 -47t48 -75t17 -99q0 -63 -21 -109t-56 -77t-80 -46t-93 -15q-5 0 -15 0.5t-21.5 1t-23 1.5t-18.5 3v-53q20 -5 36.5 -13t29.5 -16v-37h-274v37q14 8 32.5 16t38.5 12v52
q-22 -2 -48.5 -3t-46.5 -1q-44 0 -86 13t-74.5 41.5t-52.5 73.5t-20 109q0 59 20 105t54.5 77.5t80.5 48t98 16.5h16t20.5 -0.5l21 -1t17.5 -1.5v40q-23 5 -41.5 13t-29.5 16v37zM538 536q-13 0 -24 -1t-23 -4v-354q10 -2 21.5 -2.5t19.5 -0.5q26 0 50 10t42.5 32.5
t29.5 57.5t11 86q0 85 -32 130.5t-95 45.5zM315 174q11 0 20.5 1t20.5 4v355q-12 2 -20.5 2h-20.5q-25 0 -49 -10t-42.5 -32.5t-30 -58t-11.5 -85.5q0 -88 36.5 -132t96.5 -44z" />
    <glyph glyph-name="afii10039" unicode="&#x425;" horiz-adv-x="728" 
d="M435 700h248v-38l-31.5 -16t-36.5 -13l-178 -261l207 -305q23 -5 41.5 -12.5t35.5 -16.5v-38h-324v38q16 9 33.5 16.5t37.5 12.5l-142 220l-132 -221q21 -3 39 -10t35 -18v-38h-256v38q33 20 68 29l201 285l-188 281q-19 5 -36 13l-33 16v38h317v-38q-12 -7 -30 -14.5
t-42 -14.5l122 -201l120 201q-20 4 -40 12.5t-36 16.5v38z" />
    <glyph glyph-name="afii10040" unicode="&#x426;" horiz-adv-x="780" 
d="M20 0v38q14 8 35 16t47 13v566q-20 3 -41.5 10.5t-40.5 18.5v38h298v-38q-12 -8 -28 -15.5t-38 -13.5v-568h250v568q-18 4 -35.5 12t-31.5 17v38h299v-38q-20 -12 -40.5 -18.5t-41.5 -10.5v-568h117q-1 -26 -3 -56.5t-5.5 -61.5t-8 -59.5t-9.5 -50.5h-39l-54 163h-630z
" />
    <glyph glyph-name="afii10041" unicode="&#x427;" horiz-adv-x="686" 
d="M666 0h-308v38q23 11 46 19t46 10v236q-28 -17 -75 -31t-103 -14q-40 0 -75.5 8.5t-62 29.5t-42 57.5t-15.5 92.5v187q-19 3 -38 11t-34 18v38h283v-38q-11 -8 -26.5 -16t-34.5 -13v-152q0 -35 4 -63t16 -48t32.5 -31t53.5 -11t62.5 9.5t54.5 25.5v270q-17 5 -33 12.5
t-29 16.5v38h278v-38q-13 -9 -30 -16.5t-36 -12.5v-566q20 -4 37 -12.5t29 -16.5v-38z" />
    <glyph glyph-name="afii10042" unicode="&#x428;" horiz-adv-x="1006" 
d="M374 700h259v-38q-11 -8 -24.5 -16t-29.5 -13v-568h187v568q-29 7 -57 29v38h277v-38q-31 -20 -70 -29v-566q20 -5 37.5 -12.5t32.5 -16.5v-38h-966v38q16 9 35 17t37 12v566q-40 8 -72 29v38h276v-38q-8 -6 -22.5 -14.5t-31.5 -14.5v-568h187v568q-34 11 -55 29v38z" />
    <glyph glyph-name="afii10043" unicode="&#x429;" horiz-adv-x="1044" 
d="M20 0v38q15 8 33 16.5t39 12.5v566q-19 3 -38.5 11t-33.5 18v38h276v-38q-9 -8 -23.5 -16t-30.5 -13v-568h187v568q-34 12 -55 29v38h259v-38q-9 -8 -23 -16t-31 -13v-568h187v568q-33 10 -57 29v38h277v-38q-14 -10 -31.5 -17.5t-38.5 -11.5v-568h117q0 -23 -2 -53
t-5.5 -61t-8 -60.5t-10.5 -53.5h-39l-54 163h-894z" />
    <glyph glyph-name="afii10044" unicode="&#x42a;" horiz-adv-x="774" 
d="M478 700v-38q-17 -10 -42 -17t-50 -12v-214q18 3 45.5 5t47.5 2q51 0 99 -9.5t85.5 -32.5t60.5 -63t23 -101q0 -60 -23 -102.5t-63 -69t-95.5 -39t-119.5 -12.5q-5 0 -21 0.5t-37 1l-42.5 1t-36.5 0.5h-155v38q18 10 38.5 17.5t43.5 11.5v568h-104l-53 -171h-42
q-6 25 -10 57.5t-6.5 65.5t-4 63t-1.5 50h463zM442 361q-19 0 -32 -1.5t-24 -4.5v-289q9 -2 28 -3t30 -1q28 0 53 8.5t44 27t30 48.5t11 74q0 72 -38.5 106.5t-101.5 34.5z" />
    <glyph glyph-name="afii10045" unicode="&#x42b;" horiz-adv-x="930" 
d="M910 0h-303v38q16 9 34.5 16.5t38.5 12.5v566q-19 4 -39.5 11t-38.5 18v38h308v-38q-34 -22 -80 -29v-566q25 -4 45 -12.5t35 -16.5v-38zM20 0v38q18 10 39.5 17.5t42.5 11.5v566q-20 4 -41 10.5t-41 18.5v38h320v-38q-19 -10 -41.5 -17.5t-46.5 -11.5v-214q18 3 43 5
t45 2q52 0 98.5 -10t81 -34t55 -64t20.5 -100q0 -56 -22 -97.5t-60 -69t-89 -41t-109 -13.5q-5 0 -20.5 0.5t-36 1l-41.5 1t-36 0.5h-161zM304 361q-33 0 -52 -6v-289q8 -2 26 -3t27 -1q57 0 91 37t34 119q0 143 -126 143z" />
    <glyph glyph-name="afii10046" unicode="&#x42c;" horiz-adv-x="640" 
d="M20 0v38q18 10 39.5 18t42.5 11v566q-20 4 -42 11t-40 18v38h324v-38q-17 -10 -42 -17.5t-50 -11.5v-214q18 3 45.5 5t47.5 2q57 0 106 -11t85 -35.5t56.5 -64t20.5 -95.5q0 -57 -21.5 -99t-60.5 -69.5t-94 -41t-122 -13.5q-5 0 -22 0.5t-38 1l-43.5 1t-37.5 0.5h-154z
M308 361q-35 0 -56 -6v-289q9 -2 28 -3t30 -1q27 0 52 8.5t44 27t30.5 48.5t11.5 74q0 72 -38.5 106.5t-101.5 34.5z" />
    <glyph glyph-name="afii10047" unicode="&#x42d;" horiz-adv-x="650" 
d="M191 303q-6 20 -7 49.5t7 53.5l253 -4q-5 121 -59 183t-147 62q-27 0 -46 -5.5t-29 -13.5l-52 -130h-41q-3 11 -6 32t-5.5 45t-3.5 49t0 45q18 12 42 20.5t50.5 13.5t53 7t47.5 2q86 0 153.5 -22.5t114 -67.5t71 -111.5t24.5 -154.5q0 -101 -30 -171.5t-80 -114
t-115.5 -63t-136.5 -19.5q-61 0 -115 9.5t-89 29.5q0 17 2 41t5 50.5t6.5 53t7.5 47.5h42l54 -156q11 -6 34 -8t42 -2q39 0 76 17.5t65.5 52.5t46 87.5t18.5 123.5z" />
    <glyph glyph-name="afii10048" unicode="&#x42e;" horiz-adv-x="1028" 
d="M328 0h-308v38q18 10 38.5 17.5t43.5 11.5v566q-20 3 -41.5 10.5t-40.5 18.5v38h308v-38q-12 -8 -30 -16t-46 -13v-242h110q5 69 28 128t63 101.5t95 67t125 24.5q77 0 136 -27t98.5 -75.5t60 -115t20.5 -144.5t-19.5 -144.5t-58.5 -114.5t-98.5 -75.5t-138.5 -27.5
q-77 0 -134 25t-96 70t-59 107t-23 136h-109v-259q25 -5 43.5 -13t32.5 -16v-38zM523 350q0 -140 36.5 -218.5t119.5 -78.5q41 0 68 22.5t42.5 62t22 94t6.5 118.5t-7 118.5t-24 94t-46 62t-74 22.5q-43 0 -70.5 -22.5t-44 -62t-23 -94t-6.5 -118.5z" />
    <glyph glyph-name="afii10049" unicode="&#x42f;" horiz-adv-x="690" 
d="M670 700v-38q-13 -8 -35 -16t-47 -13v-566q26 -5 46 -13t36 -16v-38h-310v38q17 9 36.5 16.5t41.5 12.5v220h-84l-60.5 -134t-74.5 -121l-41 -32h-173v34l44 24q64 69 103.5 127l73.5 108q-26 9 -52 24.5t-46.5 39.5t-33 57t-12.5 77q0 58 25 98.5t66 66t95 36.5t111 11
q10 0 26.5 -0.5t35 -1l37.5 -1t34 -0.5h158zM377 346q14 0 33.5 1.5t27.5 3.5v282q-8 2 -25 3.5t-29 1.5q-29 0 -54.5 -7.5t-45 -24.5t-31 -44t-11.5 -66q0 -75 36.5 -112.5t98.5 -37.5z" />
    <glyph glyph-name="afii10065" unicode="&#x430;" horiz-adv-x="557" 
d="M470 145q0 -22 0.5 -38t2.5 -34l69 -10v-35q-12 -6 -32.5 -12t-43 -11.5t-44.5 -9t-39 -5.5h-34q-10 23 -12 46t-3 56h-5q-5 -20 -17 -38.5t-30.5 -33t-43.5 -23.5t-56 -9q-33 0 -61 10t-49 28t-33 43.5t-12 57.5q0 45 17 74t53.5 47.5t94 27.5t139.5 13q8 86 -7 126
t-65 40q-31 0 -57 -10l-47 -120h-44q-8 12 -15.5 27.5t-14 33t-11 35.5t-6.5 35q38 26 98 41t127 15q57 0 93 -12.5t56.5 -34t28.5 -50.5t8 -62q0 -60 -2.5 -108.5t-2.5 -99.5zM245 68q21 0 36 8t25.5 19t16 24t8.5 23v100q-47 -1 -77 -6t-47 -16.5t-23.5 -29t-6.5 -42.5
q0 -38 18 -59t50 -21z" />
    <glyph glyph-name="afii10066" unicode="&#x431;" horiz-adv-x="584" 
d="M31 271q0 125 23.5 209.5t71.5 136t120.5 73.5t170.5 22l65 50h39q0 -19 -2.5 -43.5t-7 -48.5t-9.5 -44t-9 -30q-105 0 -177.5 -7t-119 -31t-70.5 -69.5t-33 -123.5h5q15 26 38.5 49.5t53 41t63 27.5t69.5 10q109 0 170 -59.5t61 -186.5q0 -56 -18 -103.5t-52.5 -82
t-85.5 -54t-116 -19.5q-57 0 -103 19t-79 55t-50.5 88.5t-17.5 120.5zM186 262q0 -63 7.5 -104.5t22 -66.5t35 -35.5t47.5 -10.5q50 0 74.5 46.5t24.5 148.5q0 101 -31 142t-86 41q-24 0 -46.5 -13t-36.5 -30q-11 -47 -11 -118z" />
    <glyph glyph-name="afii10067" unicode="&#x432;" horiz-adv-x="573" 
d="M539 146q0 -40 -17 -68.5t-47 -46.5t-70.5 -26.5t-86.5 -8.5q-32 0 -55 0.5t-40 1.5t-29.5 1.5t-23.5 0.5h-141v39q31 16 66 24v374q-38 7 -66 24v39h135q48 0 85 2t74 2q95 0 144.5 -26.5t49.5 -92.5q0 -24 -10.5 -43t-28 -33t-38.5 -23t-42 -13q28 -2 53.5 -11t45 -25
t31 -38.5t11.5 -52.5zM239 57q14 -3 30.5 -3.5t28.5 -0.5q45 0 68 23t23 67q0 43 -26.5 64.5t-69.5 21.5h-54v-172zM239 272l89 10q16 10 31 32.5t15 55.5q0 77 -89 77q-11 0 -23 -0.5t-23 -3.5v-171z" />
    <glyph glyph-name="afii10068" unicode="&#x433;" horiz-adv-x="466" 
d="M456 500q-1 -19 -3.5 -44t-6 -52t-8.5 -53t-10 -46h-41l-44 138h-104v-380q57 -11 90 -24v-39h-300v39q17 10 33 15t33 9v375q-37 6 -66 23v39h427z" />
    <glyph glyph-name="afii10069" unicode="&#x434;" horiz-adv-x="605" 
d="M108 0l-54 -148h-39q-6 49 -10.5 105.5t-4.5 105.5h73q12 14 27 42t28.5 72.5t23 106t9.5 143.5q-21 5 -40.5 14t-33.5 20v39h475v-39q-27 -18 -66 -24v-374h93q1 -49 -3.5 -105.5t-11.5 -105.5h-39l-54 148h-373zM234 437q0 -84 -9 -146t-22 -107t-27 -74.5t-24 -46.5
h200v374h-118z" />
    <glyph glyph-name="afii10070" unicode="&#x435;" horiz-adv-x="537" 
d="M486 84q-8 -17 -25.5 -34.5t-43 -31t-59 -22t-72.5 -8.5q-62 0 -110 18.5t-80 53t-48.5 82.5t-16.5 108q0 128 67 195t186 67q51 0 95.5 -14t74 -46t41 -84t-1.5 -127h-307q1 -79 40.5 -126t116.5 -47q33 0 68.5 10t55.5 26zM280 455q-20 0 -35.5 -7t-27 -25.5t-18.5 -50
t-10 -79.5h161q7 78 -9 120t-61 42z" />
    <glyph glyph-name="afii10072" unicode="&#x436;" horiz-adv-x="803" 
d="M570 500h209v-39q-17 -12 -57 -24l-61.5 -77.5l-61.5 -73.5l32 -44l41 -56l46.5 -61.5l48.5 -61.5l36 -24v-39h-142l-28 23q-17 21 -35 49.5l-35 57.5t-30.5 55t-21.5 43h-44v-165q31 -8 60 -24v-39h-246v39q14 7 27.5 13t28.5 11v171l-50 -10q-8 -14 -20 -39.5
t-28 -54.5l-33.5 -58t-35.5 -49l-30 -23h-140v39l42 24q25 29 48 60l43 60l37 54t31 43q-36 38 -65.5 75t-61.5 82q-26 6 -50 24v39h209v-39q-19 -14 -50 -24q13 -24 25 -43l24.5 -37l26 -36.5l31.5 -42.5h47v159q-17 4 -28.5 10t-22.5 14v39h230v-39q-10 -8 -20.5 -14
t-28.5 -10v-165l51 10l30.5 42l24 35.5l22.5 35.5l25 42q-14 5 -26 10t-24 14v39z" />
    <glyph glyph-name="afii10073" unicode="&#x437;" horiz-adv-x="498" 
d="M201 53q54 0 80 28t26 68q0 43 -19 58.5t-54 20.5l-89 -15q-5 12 -6 33.5t6 35.5h97q17 8 34.5 30t17.5 61q0 38 -21.5 60t-61.5 22q-17 0 -32.5 -2.5t-20.5 -4.5l-45 -113h-34q-14 28 -26.5 65.5t-13.5 69.5q23 15 73 28.5t123 13.5q99 0 153 -29.5t54 -87.5
q0 -26 -11 -47t-29.5 -36t-42 -25.5t-48.5 -15.5q29 -3 56.5 -10.5t48.5 -22t33.5 -36.5t12.5 -53q0 -80 -62.5 -120.5t-174.5 -40.5q-68 0 -117.5 17t-78.5 43l27 94h29q15 -14 33 -38l32 -43q10 -4 22 -6t29 -2z" />
    <glyph glyph-name="afii10074" unicode="&#x438;" horiz-adv-x="669" 
d="M29 500h266v-39q-11 -6 -25.5 -12t-34.5 -12v-225l-11 -93h5l39 75l183 306h189v-39q-32 -18 -66 -24v-374q19 -5 36 -10.5t30 -13.5v-39h-266v39q28 16 60 24v236l10 79h-5l-38 -75l-181 -303h-191v39q17 8 33 13.5t33 10.5v374q-39 6 -66 24v39z" />
    <glyph glyph-name="afii10075" unicode="&#x439;" horiz-adv-x="669" 
d="M29 500h266v-39q-11 -6 -25.5 -12t-34.5 -12v-225l-11 -93h5l39 75l183 306h189v-39q-32 -18 -66 -24v-374q19 -5 36 -10.5t30 -13.5v-39h-266v39q28 16 60 24v236l10 79h-5l-38 -75l-181 -303h-191v39q17 8 33 13.5t33 10.5v374q-39 6 -66 24v39zM347 556q-99 0 -144 36
t-45 96q14 12 41 18.5t56 8.5l34 -13v-89q25 -11 59 -11q10 0 27.5 2t31.5 6v92l34 13q27 -2 53 -8t40 -19q0 -60 -45.5 -96t-141.5 -36z" />
    <glyph glyph-name="afii10076" unicode="&#x43a;" horiz-adv-x="594" 
d="M342 500h229v-39q-10 -8 -24.5 -13.5t-38.5 -13.5q-34 -41 -70 -78.5t-70 -69.5q22 -24 45 -52l45.5 -57.5l46 -58.5t47.5 -55l42 -24v-39h-157l-32 23q-43 52 -70.5 104l-55.5 103h-40v-167q32 -9 56 -24v-39h-266v39q27 16 66 24v374q-35 7 -66 24v39h255v-39
q-10 -7 -19.5 -13t-25.5 -11v-163l46 10q29 33 58 71t53 79q-17 7 -29 13t-25 14v39z" />
    <glyph glyph-name="afii10077" unicode="&#x43b;" horiz-adv-x="590" 
d="M119 113q25 47 37 131.5t13 182.5q-20 6 -38.5 15t-32.5 19v39h463v-39q-32 -18 -66 -24v-374q21 -5 37 -11t29 -13v-39h-265v39q12 8 24.5 14t30.5 10v380h-110q-1 -53 -6 -110.5t-15.5 -112.5t-27.5 -103.5t-41 -82.5q-20 -28 -44 -40t-43 -8q-13 7 -24 22.5t-19 32.5
t-13 34t-6 29l23 34z" />
    <glyph glyph-name="afii10078" unicode="&#x43c;" horiz-adv-x="800" 
d="M220 0h-199v39q33 16 66 24l20 364q-21 8 -37 17l-29 17v39h249l86 -242l19 -69h3l21 70l88 241h252v-39q-13 -8 -29 -14t-37 -10l20 -374q33 -6 66 -24v-39h-266v39q10 5 24 11t36 13l-20 360h-8l-152 -423h-50l-160 423h-8l-15 -360q36 -11 60 -24v-39z" />
    <glyph glyph-name="afii10079" unicode="&#x43d;" horiz-adv-x="664" 
d="M294 0h-265v39q14 8 31 13.5t35 10.5v374q-18 5 -35 10.5t-31 13.5v39h265v-39q-23 -14 -55 -24v-156h186v156q-29 6 -55 24v39h265v-39q-27 -17 -66 -24v-374q18 -4 35 -9t31 -15v-39h-265v39q26 19 55 24v161h-186v-161q17 -4 30.5 -10t24.5 -14v-39z" />
    <glyph glyph-name="afii10080" unicode="&#x43e;" horiz-adv-x="594" 
d="M31 250q0 61 18.5 109.5t53 82.5t83.5 52t111 18q70 0 120.5 -19.5t83 -54t47.5 -83t15 -105.5q0 -61 -18 -109.5t-52.5 -82.5t-84 -52t-111.5 -18q-68 0 -118 19.5t-83 54t-49 83t-16 105.5zM186 250q0 -45 5.5 -82.5t19.5 -63.5t38 -40.5t62 -14.5q22 0 40 10.5t31 34
t19.5 62t6.5 94.5q0 46 -5.5 83t-19 63t-36.5 40.5t-58 14.5q-26 0 -45 -10.5t-32 -34t-19.5 -62t-6.5 -94.5z" />
    <glyph glyph-name="afii10081" unicode="&#x43f;" horiz-adv-x="659" 
d="M294 0h-265v39q19 11 35 16.5t31 7.5v374q-21 5 -38 11t-28 13v39h601v-39q-13 -8 -29 -15t-37 -9v-374q34 -6 66 -24v-39h-265v39q10 7 21.5 13t33.5 11v380h-181v-380q20 -6 32 -12l23 -12v-39z" />
    <glyph glyph-name="afii10082" unicode="&#x440;" horiz-adv-x="609" 
d="M297 -200h-276v39q34 16 66 24v566l-66 8v39q16 7 39.5 13t48.5 10.5t48.5 7.5l39.5 5h34v-112h1q17 48 53.5 80t101.5 32q44 0 79.5 -14.5t60 -45t38 -78t13.5 -113.5q0 -63 -17.5 -114t-50 -86t-79 -54t-105.5 -19q-34 0 -53.5 4.5t-41.5 15.5v-145q16 -2 32 -7.5
t34 -16.5v-39zM329 432q-34 0 -60.5 -24t-37.5 -74v-266q16 -12 34 -17.5t47 -5.5q57 0 84 55t27 161q0 82 -20.5 126.5t-73.5 44.5z" />
    <glyph glyph-name="afii10083" unicode="&#x441;" horiz-adv-x="484" 
d="M456 81q-7 -20 -23 -36.5t-38.5 -29.5t-51 -20t-59.5 -7q-66 0 -113.5 18.5t-78.5 53t-46 83t-15 107.5q0 127 69.5 194.5t197.5 67.5q49 0 90 -10.5t68 -24.5q-2 -17 -5.5 -37.5t-8 -41t-10.5 -40t-12 -32.5h-49l-42 119q-7 5 -15 7.5t-24 2.5q-26 0 -45 -9.5
t-32.5 -32.5t-20 -61t-6.5 -94q0 -41 9 -75.5t27.5 -60t46.5 -40t66 -14.5q35 0 61 10t44 24z" />
    <glyph glyph-name="afii10084" unicode="&#x442;" horiz-adv-x="542" 
d="M413 0h-284v39q15 8 34 14t36 10v380h-73l-44 -138h-42q-5 21 -9.5 47t-7.5 52.5t-5.5 51.5t-2.5 44h512q0 -18 -2 -43t-5.5 -51.5t-8 -53t-9.5 -47.5h-42l-44 138h-73v-380q23 -6 39 -11t31 -13v-39z" />
    <glyph glyph-name="afii10085" unicode="&#x443;" horiz-adv-x="528" 
d="M38 437q-15 4 -27.5 10t-25.5 14v39h263v-38q-21 -14 -57 -25l101 -251l17 -64h2l16 65l78 250q-30 6 -55 24v39h193v-39q-21 -14 -57 -24l-163 -437q-24 -64 -48 -104.5t-48 -64.5t-48 -33.5t-48 -12.5q-10 9 -18 22.5t-14 29t-10 31.5t-5 30l13 24h122q9 14 15.5 30
t15.5 48z" />
    <glyph glyph-name="afii10086" unicode="&#x444;" horiz-adv-x="791" 
d="M531 -200h-272v39q28 16 66 24v158q-12 -15 -37 -24t-50 -9q-46 0 -84.5 14.5t-66.5 44.5t-43.5 76t-15.5 109q0 72 16 124.5t45 87t69.5 51.5t90.5 17q25 0 46 -7.5t30 -19.5v184l-76 8v39q14 6 38 12t50.5 11t51.5 8.5t42 4.5h34v-273q14 15 39.5 24t53.5 9
q45 0 82.5 -14t64.5 -43t42 -72.5t15 -102.5q0 -76 -16.5 -131t-45.5 -91t-69 -53t-86 -17q-22 0 -45 6.5t-35 19.5v-151q37 -6 66 -24v-39zM273 51q17 0 30 4.5t27 18.5v358q-12 8 -25 12.5t-33 4.5t-37 -9t-30 -29.5t-20 -54.5t-7 -85q0 -68 7 -110.5t19.5 -67t30 -33.5
t38.5 -9zM516 449q-17 0 -29.5 -4.5t-26.5 -16.5v-359q12 -10 25 -14t33 -4q18 0 35 9t30 31.5t21 59.5t8 94q0 61 -6.5 101t-18.5 62.5t-30 31.5t-41 9z" />
    <glyph glyph-name="afii10087" unicode="&#x445;" horiz-adv-x="560" 
d="M343 268l158 -205q26 -8 49 -24v-39h-255v38q11 8 22.5 14.5t23.5 10.5l-95 136l-92 -136q14 -5 24.5 -11t20.5 -13v-39h-189v39l25.5 14t26.5 10l148 184l-149 190q-14 5 -25 10.5t-20 13.5v39h251v-38l-21.5 -14.5t-23.5 -10.5l87 -124l83 124q-17 5 -27 11t-18 13v39
h185v-39q-10 -7 -22 -13t-30 -11z" />
    <glyph glyph-name="afii10088" unicode="&#x446;" horiz-adv-x="667" 
d="M29 0v39q27 16 66 24v374q-38 6 -66 24v39h265v-39q-11 -7 -23.5 -13t-31.5 -11v-380h171v380q-14 3 -26.5 9t-28.5 15v39h265v-39q-13 -7 -29 -13t-37 -11v-380h98q-2 -48 -8.5 -103t-11.5 -102h-39l-54 148h-510z" />
    <glyph glyph-name="afii10089" unicode="&#x447;" horiz-adv-x="604" 
d="M3 500h262v-39q-20 -16 -52 -24v-111q0 -42 14.5 -66.5t50.5 -24.5q26 0 48 8t39 19v175q-16 3 -28 9t-25 15v39h263v-39q-27 -17 -66 -24v-374q20 -5 36 -10.5t30 -13.5v-39h-290v39q41 17 80 24v156q-24 -26 -63 -42.5t-84 -16.5q-70 0 -109.5 38t-39.5 103v136
q-38 7 -66 24v39z" />
    <glyph glyph-name="afii10090" unicode="&#x448;" horiz-adv-x="902" 
d="M663 57v380q-25 7 -45 24v39h255v-39q-14 -8 -30 -14t-36 -10v-374q37 -8 66 -24v-39h-844v39q28 16 66 24v374q-17 2 -33 7.5t-33 16.5v39h255v-39q-19 -16 -45 -24v-380h140v380q-14 5 -27 10.5t-24 13.5v39h240v-39q-7 -7 -18 -13t-27 -11v-380h140z" />
    <glyph glyph-name="afii10091" unicode="&#x449;" horiz-adv-x="920" 
d="M29 0v39q28 16 66 24v374q-20 4 -36 10t-30 14v39h255v-39q-8 -7 -19.5 -13t-25.5 -11v-380h140v380q-13 4 -26.5 10t-24.5 14v39h240v-39q-18 -16 -45 -24v-380h140v380q-26 8 -45 24v39h255v-39q-14 -8 -30 -13.5t-36 -10.5v-380h98q-1 -48 -7 -103t-13 -102h-39
l-54 148h-763z" />
    <glyph glyph-name="afii10092" unicode="&#x44a;" horiz-adv-x="635" 
d="M320 57q9 -2 19.5 -3t22.5 -1q43 0 68.5 22.5t25.5 84.5q0 28 -7 46t-18.5 28.5t-27 14t-32.5 3.5q-13 0 -25.5 -1t-25.5 -4v-190zM380 500v-39q-12 -8 -27 -13.5t-33 -10.5v-136q17 2 45 5t68 3q82 0 131 -37.5t49 -112.5q0 -40 -16 -70.5t-44 -51t-66.5 -31
t-83.5 -10.5q-14 0 -38 0.5t-51.5 1.5t-54.5 1.5t-46 0.5h-103v39q28 16 66 24v380h-60l-49 -138h-39q-4 19 -8.5 44.5t-8 53t-6 53t-2.5 44.5h377z" />
    <glyph glyph-name="afii10093" unicode="&#x44b;" horiz-adv-x="830" 
d="M239 301l42.5 5t65.5 3q78 0 126.5 -37.5t48.5 -112.5q0 -40 -15.5 -70.5t-43 -51t-65 -31t-81.5 -10.5q-14 0 -38.5 0.5t-53 1.5t-56.5 1.5t-47 0.5h-93v39q16 9 32.5 14l33.5 10v374q-19 3 -35 9.5t-31 14.5v39h270v-39q-24 -14 -60 -24v-136zM239 57q10 -2 21.5 -3
t22.5 -1q40 0 61 24.5t21 82.5q0 54 -22.5 73t-54.5 19q-11 0 -24 -1t-25 -4v-190zM801 0h-265v39q12 7 25 13t30 11v374q-38 7 -60 24v39h270v-39q-12 -8 -29 -13.5t-37 -10.5v-374q17 -5 33 -10.5t33 -13.5v-39z" />
    <glyph glyph-name="afii10094" unicode="&#x44c;" horiz-adv-x="554" 
d="M239 301q17 2 45 5t68 3q82 0 131 -37.5t49 -112.5q0 -40 -16 -70.5t-44 -51t-66.5 -31t-83.5 -10.5q-14 0 -39.5 0.5t-55 1.5t-58 1.5t-47.5 0.5h-93v39q15 8 32 13.5l34 10.5v374q-19 4 -35 10t-31 14v39h270v-39q-24 -14 -60 -24v-136zM239 57q10 -2 21.5 -3t22.5 -1
q21 0 38 5t29 17.5t18.5 33t6.5 51.5q0 27 -6.5 44.5t-18 28t-27 15t-33.5 4.5q-12 0 -25.5 -1t-25.5 -4v-190z" />
    <glyph glyph-name="afii10095" unicode="&#x44d;" horiz-adv-x="513" 
d="M224 -12q-65 0 -115.5 17t-79.5 43l27 94h29q15 -14 33 -38t31 -43q21 -8 53 -8q64 0 94 47.5t31 127.5l-175 -20q-3 6 -5 17t-2 22.5t2 22.5t5 17h174q-1 46 -10 78.5t-24.5 52t-37 28.5t-47.5 9q-16 0 -30 -1.5t-19 -5.5l-45 -118h-34q-13 29 -25.5 65t-16.5 71
q28 17 73.5 31.5t119.5 14.5q48 0 93.5 -13t80.5 -43t56.5 -78t21.5 -118q0 -71 -22.5 -122.5t-59 -84.5t-82.5 -49t-94 -16z" />
    <glyph glyph-name="afii10096" unicode="&#x44e;" horiz-adv-x="865" 
d="M294 0h-265v39q14 8 31 13.5t35 10.5v374q-17 5 -33 10.5t-33 13.5v39h265v-39q-11 -7 -23 -13t-32 -11v-156h86q3 54 22 97t51.5 73t77.5 45.5t101 15.5q124 0 190.5 -67t66.5 -198q0 -60 -17 -108t-50 -81.5t-81 -51.5t-109 -18q-115 0 -181 60.5t-71 175.5h-86v-161
q20 -4 32 -10t23 -14v-39zM473 250q0 -108 27.5 -156.5t81.5 -48.5q53 0 75 51t22 154q0 109 -24 157t-82 48q-100 0 -100 -205z" />
    <glyph glyph-name="afii10097" unicode="&#x44f;" horiz-adv-x="584" 
d="M56 348q0 34 12 63t37.5 50t64.5 33t93 12q12 0 34.5 -1t47.5 -2l48 -2t36 -1h126v-39q-8 -7 -22.5 -13t-43.5 -11v-374q37 -11 66 -24v-39h-265v39q24 16 55 24v143l-66 -10l-39.5 -80t-60.5 -93l-31 -23h-148v39l47 24q34 34 64.5 75.5l51.5 69.5q-22 7 -41.5 18
t-34 28t-23 40t-8.5 54zM345 443q-10 2 -25.5 4t-27.5 2q-88 1 -88 -98q0 -45 28 -73t86 -28h27v193z" />
    <glyph glyph-name="afii10071" unicode="&#x451;" horiz-adv-x="537" 
d="M486 84q-8 -17 -25.5 -34.5t-43 -31t-59 -22t-72.5 -8.5q-62 0 -110 18.5t-80 53t-48.5 82.5t-16.5 108q0 128 67 195t186 67q51 0 95.5 -14t74 -46t41 -84t-1.5 -127h-307q1 -79 40.5 -126t116.5 -47q33 0 68.5 10t55.5 26zM280 455q-20 0 -35.5 -7t-27 -25.5t-18.5 -50
t-10 -79.5h161q7 78 -9 120t-61 42zM85 659q0 32 20 51t53 19q32 0 52.5 -19t20.5 -51q0 -30 -20.5 -49t-52.5 -19q-33 0 -53 19t-20 49zM324 659q0 32 20 51t52 19q33 0 53.5 -19t20.5 -51q0 -30 -20.5 -49t-53.5 -19q-32 0 -52 19t-20 49z" />
    <glyph glyph-name="afii10099" unicode="&#x452;" horiz-adv-x="623" 
d="M17 597h68v72l-76 8v39q15 6 38.5 12t49.5 10.5t52 8t46 5.5h34v-155h190v-61h-190v-171h1q10 23 27 43.5t38.5 36t46.5 24.5t53 9q40 0 71.5 -9.5t52.5 -33.5t32 -64.5t11 -102.5v-267q0 -62 -14 -103t-43 -65.5t-72.5 -34.5t-103.5 -10l-5 46q27 7 45 18t29 30.5
t15.5 48t4.5 69.5v231q0 87 -16.5 127t-64.5 40q-40 0 -68 -27.5t-40 -63.5v-244q16 -4 28.5 -9t26.5 -15v-39h-265v39q31 16 66 24v473h-68v61z" />
    <glyph glyph-name="afii10100" unicode="&#x453;" horiz-adv-x="466" 
d="M456 500q-1 -19 -3.5 -44t-6 -52t-8.5 -53t-10 -46h-41l-44 138h-104v-380q57 -11 90 -24v-39h-300v39q17 10 33 15t33 9v375q-37 6 -66 23v39h427zM293 763q8 2 26.5 1.5t38.5 -3.5t36.5 -8.5t21.5 -11.5v-24l-191 -155l-40 22z" />
    <glyph glyph-name="afii10101" unicode="&#x454;" horiz-adv-x="504" 
d="M476 81q-7 -20 -23 -36.5t-38.5 -29.5t-51 -20t-59.5 -7q-68 0 -119 18.5t-85.5 53t-51.5 83t-17 107.5q0 63 20 112t55.5 82t84.5 50.5t108 17.5q63 0 107.5 -13.5t71.5 -27.5q-2 -17 -6.5 -36.5t-11.5 -38.5l-14 -36.5t-13 -29.5h-34l-44 116q-14 9 -45 9q-24 0 -46 -9
t-39 -30t-27.5 -55.5t-11.5 -85.5l168 13q7 -13 7 -36.5t-7 -36.5l-164 2q11 -65 54 -107t111 -42q35 0 61 10t44 24z" />
    <glyph glyph-name="afii10102" unicode="&#x455;" horiz-adv-x="452" 
d="M288 109q0 26 -18.5 45t-46 35t-60 32t-60 37.5t-46 50.5t-18.5 71q0 30 14 54.5t38 41.5t57.5 26.5t72.5 9.5q54 0 100.5 -8.5t81.5 -23.5q-4 -32 -16 -68.5t-23 -66.5h-34l-42 102q-12 5 -25 6.5t-29 1.5q-30 0 -45.5 -17.5t-15.5 -39.5q0 -25 18.5 -43.5t46 -34.5
t60 -32t60 -36.5t46 -48.5t18.5 -67q0 -69 -56 -108.5t-150 -39.5q-48 0 -99 10t-88 28q2 36 17 73t32 66h34l49 -109q11 -8 24.5 -9.5t25.5 -1.5q29 0 53 17t24 47z" />
    <glyph glyph-name="afii10103" unicode="&#x456;" horiz-adv-x="332" 
d="M307 0h-276v39q15 8 31 13.5t35 10.5v366l-66 8v39q15 6 37.5 12t47.5 10.5t49 8t42 5.5h34v-449q20 -5 36 -10.5t30 -13.5v-39zM80 664q0 35 24 55t62 20t62 -20t24 -55q0 -34 -24 -54t-62 -20t-62 20t-24 54z" />
    <glyph glyph-name="afii10104" unicode="&#x457;" horiz-adv-x="380" 
d="M32 663q0 34 18 53.5t51 19.5q32 0 49.5 -19.5t17.5 -53.5q0 -32 -17.5 -51.5t-49.5 -19.5q-33 0 -51 19.5t-18 51.5zM211 663q0 34 18 53.5t50 19.5q33 0 50.5 -19.5t17.5 -53.5q0 -32 -17.5 -51.5t-50.5 -19.5q-32 0 -50 19.5t-18 51.5zM328 0h-276v39q15 8 31 13.5
t35 10.5v366l-66 8v39q15 6 37.5 12t47.5 10.5t49.5 8t41.5 5.5h34v-449q20 -5 36 -10.5t30 -13.5v-39z" />
    <glyph glyph-name="afii10105" unicode="&#x458;" horiz-adv-x="320" 
d="M97 429l-66 8v39q15 7 37 13t47 10.5t49.5 7.5t42.5 5h34v-469q0 -47 -11.5 -84t-30 -64t-41 -46t-44 -31.5t-39.5 -19.5t-28 -10l-20 30q12 6 24 19.5t22.5 37.5t17 60.5t6.5 88.5v405zM80 664q0 35 24 55t62 20t62 -20t24 -55q0 -34 -24 -54t-62 -20t-62 20t-24 54z
" />
    <glyph glyph-name="afii10106" unicode="&#x459;" horiz-adv-x="800" 
d="M561 461q-12 -7 -30 -13t-36 -11v-136l42.5 5t65.5 3q78 0 126.5 -37.5t48.5 -112.5q0 -40 -15.5 -70.5t-43 -51t-65 -31t-81.5 -10.5q-14 0 -38.5 0.5t-53 1.5t-56.5 1.5t-47 0.5h-82v39q12 8 24.5 14t30.5 10v380h-110q-1 -53 -6 -110.5t-15.5 -112.5t-27.5 -103.5
t-41 -82.5q-20 -28 -44 -40t-43 -8q-13 7 -24 22.5t-19 32.5t-13 34t-6 29l23 34l94 -25q25 47 37 131.5t13 182.5q-20 6 -38.5 15t-32.5 19v39h463v-39zM495 57q10 -2 21.5 -3t22.5 -1q40 0 61 24.5t21 82.5q0 54 -22.5 73t-54.5 19q-11 0 -24 -1t-25 -4v-190z" />
    <glyph glyph-name="afii10107" unicode="&#x45a;" horiz-adv-x="874" 
d="M370 0v39q26 19 55 24v161h-186v-161q17 -4 30.5 -10t24.5 -14v-39h-265v39q14 8 31 13.5t35 10.5v374q-18 5 -35 10.5t-31 13.5v39h265v-39q-23 -14 -55 -24v-156h186v156q-29 6 -55 24v39h265v-39q-12 -7 -30 -13t-36 -11v-136l42.5 5t65.5 3q78 0 126.5 -37.5
t48.5 -112.5q0 -40 -15.5 -70.5t-43 -51t-65 -31t-81.5 -10.5q-14 0 -38.5 0.5t-53 1.5t-56.5 1.5t-47 0.5h-82zM569 57q10 -2 21.5 -3t22.5 -1q40 0 61 24.5t21 82.5q0 54 -22.5 73t-54.5 19q-11 0 -24 -1t-25 -4v-190z" />
    <glyph glyph-name="afii10108" unicode="&#x45b;" horiz-adv-x="631" 
d="M17 597h68v72l-76 8v39q15 6 38.5 12t49.5 10.5t52 8t46 5.5h34v-155h190v-61h-190v-172h1q10 23 27 43.5t38.5 36t46.5 24.5t53 9q40 0 71.5 -9.5t52.5 -33.5t32 -64.5t11 -102.5v-195l63 -9v-35q-14 -6 -36 -12t-46.5 -11.5t-48 -9t-41.5 -5.5h-34l-1 240
q0 87 -16.5 127t-64.5 40q-40 0 -68 -27.5t-40 -63.5v-243q16 -4 28.5 -9t26.5 -15v-39h-265v39q31 16 66 24v473h-68v61z" />
    <glyph glyph-name="afii10109" unicode="&#x45c;" horiz-adv-x="594" 
d="M342 500h229v-39q-10 -8 -24.5 -13.5t-38.5 -13.5q-34 -41 -70 -78.5t-70 -69.5q22 -24 45 -52l45.5 -57.5l46 -58.5t47.5 -55l42 -24v-39h-157l-32 23q-43 52 -70.5 104l-55.5 103h-40v-167q32 -9 56 -24v-39h-266v39q27 16 66 24v374q-35 7 -66 24v39h255v-39
q-10 -7 -19.5 -13t-25.5 -11v-163l46 10q29 33 58 71t53 79q-17 7 -29 13t-25 14v39zM347 763q8 2 26.5 1.5t38.5 -3.5t36.5 -8.5t21.5 -11.5v-24l-191 -155l-40 22z" />
    <glyph glyph-name="afii10110" unicode="&#x45e;" horiz-adv-x="528" 
d="M38 437q-15 4 -27.5 10t-25.5 14v39h263v-38q-21 -14 -57 -25l101 -251l17 -64h2l16 65l78 250q-30 6 -55 24v39h193v-39q-21 -14 -57 -24l-163 -437q-24 -64 -48 -104.5t-48 -64.5t-48 -33.5t-48 -12.5q-10 9 -18 22.5t-14 29t-10 31.5t-5 30l13 24h122q9 14 15.5 30
t15.5 48zM285 556q-99 0 -144 36t-45 96q14 12 41 18.5t56 8.5l34 -13v-89q25 -11 59 -11q10 0 27.5 2t31.5 6v92l34 13q27 -2 53 -8t40 -19q0 -60 -45.5 -96t-141.5 -36z" />
    <glyph glyph-name="afii10193" unicode="&#x45f;" horiz-adv-x="654" 
d="M294 461l-23 -12t-32 -12v-380h176v380q-22 5 -33.5 11t-21.5 13v39h265v-39q-32 -18 -66 -24v-374q21 -2 37 -9t29 -15v-39h-227q-6 -48 -20 -96.5t-29 -93.5h-44q-16 48 -28.5 95t-20.5 95h-227v39q11 7 28 13t38 11v374q-15 2 -31 7.5t-35 16.5v39h265v-39z" />
    <glyph glyph-name="afii10146" unicode="&#x462;" horiz-adv-x="769" 
d="M381 558v-156q18 2 45.5 4t47.5 2q57 0 106 -10t85 -33.5t56.5 -61.5t20.5 -94q0 -57 -21.5 -97.5t-60.5 -66t-94 -37t-122 -11.5q-5 0 -22 0.5t-38 1l-43.5 1t-37.5 0.5h-154v38q18 10 39.5 18t42.5 11v491h-94l-64 -166h-41q-4 20 -8 49.5t-7 61t-5 62.5t-2 54h221v42
q-20 4 -42 11t-40 18v34h324v-34q-17 -10 -42 -17.5t-50 -11.5v-42h248q-1 -45 -8 -94.5t-14 -84.5h-42l-58 118h-126zM437 343q-19 0 -32 -1t-24 -4v-272q9 -2 28 -3t30 -1q27 0 52 6.5t44 23.5t30.5 45t11.5 72q0 72 -38.5 103t-101.5 31z" />
    <glyph glyph-name="afii10194" unicode="&#x463;" horiz-adv-x="646" 
d="M331 443v-147q17 2 45 5t68 3q82 0 131 -36.5t49 -111.5q0 -40 -16 -70t-44 -50t-66.5 -30t-83.5 -10q-14 0 -39.5 0.5t-55 1.5t-58 1.5t-47.5 0.5h-93v39q15 8 32 13.5l34 10.5v380h-68l-44 -138h-42q-5 21 -9.5 47t-7.5 52.5t-5.5 51.5t-2.5 44h179v169l-76 8v39
q13 6 36 12t49.5 10.5t53 8t47.5 5.5h34v-252h199q0 -36 -4 -72t-11 -78h-43l-69 93h-72zM331 57q10 -2 21.5 -3t22.5 -1q21 0 38 4.5t29 16.5t18.5 32t6.5 51q0 27 -6.5 44.5t-18 27.5t-27 14t-33.5 4q-12 0 -25.5 -1t-25.5 -4v-185z" />
    <glyph glyph-name="afii10147" unicode="&#x472;" horiz-adv-x="754" 
d="M39 350q0 78 22 144.5t65 115t106 75.5t145 27t145 -27t105.5 -75.5t64.5 -115t22 -144.5t-22 -144.5t-64.5 -115t-105.5 -75.5t-145 -27t-145 27t-106 75.5t-65 115t-22 144.5zM386 53q40 0 70 20t50 55.5t30.5 84t12.5 106.5q-42 -51 -91 -51q-24 0 -46 10.5
t-43.5 22.5t-42.5 22.5t-41 10.5q-17 0 -39 -6.5t-41 -27.5q4 -54 16.5 -99.5t35 -78.5t55 -51t74.5 -18zM369 647q-45 0 -76 -21t-50.5 -58.5t-28.5 -88t-10 -110.5q39 53 85 62q22 3 40 -1q21 -3 40.5 -13t38 -20.5t37 -19t37.5 -8.5q14 0 32 2.5t34 15.5q-2 56 -13.5 104
t-33.5 82.5t-54.5 54t-77.5 19.5z" />
    <glyph glyph-name="afii10195" unicode="&#x473;" horiz-adv-x="594" 
d="M31 250q0 61 18.5 109.5t53 82.5t83.5 52t111 18q70 0 120.5 -19.5t83 -54t47.5 -83t15 -105.5q0 -61 -18 -109.5t-52.5 -82.5t-84 -52t-111.5 -18q-68 0 -118 19.5t-83 54t-49 83t-16 105.5zM371 273q8 0 21 5t24 16q-6 73 -36 117t-91 44q-51 0 -81 -43t-32 -144
q24 25 47 36t41 11q16 0 29.5 -6.5t26 -14.5t25 -14.5t26.5 -6.5zM226 232q-11 0 -24 -8t-24 -23q6 -70 37.5 -113t98.5 -43q44 0 72.5 42.5t30.5 143.5q-43 -43 -82 -43q-16 0 -30 7t-27 15t-26 15t-26 7z" />
    <glyph glyph-name="afii10148" unicode="&#x474;" horiz-adv-x="763" 
d="M688 712q15 -4 29.5 -20t26.5 -37.5t19.5 -44.5t8.5 -41l-31 -35l-107 28q-28 -40 -59 -105t-61 -142.5t-55 -162.5t-41 -164h-84l-259 645q-20 5 -40 12.5t-35 16.5v38h333v-38q-17 -8 -38 -16t-44 -13l128 -374l23 -94h2l18 95q20 79 45.5 146.5t52.5 121t53 92
t46 59.5q17 18 34.5 25t34.5 8z" />
    <glyph glyph-name="afii10196" unicode="&#x475;" horiz-adv-x="558" 
d="M324 0l-86 -12l-195 449q-29 10 -53 24v39h263v-38q-13 -7 -26.5 -13.5t-30.5 -11.5l93 -256l15 -62h2l10 67l19 74t22.5 74.5t27.5 70t35 60.5q20 28 43.5 38.5t42.5 6.5q13 -7 25 -20.5t20.5 -30t14 -34.5t7.5 -33l-28 -39l-84 25q-12 -18 -24 -43t-23 -53t-21 -58
t-18 -57z" />
    <glyph glyph-name="uni048A" unicode="&#x48a;" horiz-adv-x="812" 
d="M321 0h-301v38q19 10 40 18t42 11v566q-20 5 -42 11.5t-40 17.5v38h301v-38q-15 -9 -34 -17t-41 -12v-380l-10 -78l49 82l252 352v24q-47 11 -79 29v38h301v-38q-17 -11 -38.5 -17.5t-43.5 -11.5v-568h112l10 -13q-4 -19 -15.5 -45.5t-28 -55t-36.5 -55.5t-40 -46h-54
l34 150h-201v38q14 7 33.5 15.5t41.5 13.5v379l10 79l-45 -79l-256 -357v-22q23 -5 43 -13t36 -16v-38zM390 741q-46 0 -83.5 8.5t-64.5 25t-41.5 41.5t-14.5 57q18 13 48 17t54 5l34 -18v-78q14 -7 32.5 -9.5t36.5 -2.5q14 0 34.5 2t34.5 7v81l34 18q19 2 47.5 -3.5
t50.5 -18.5q0 -64 -54 -98t-148 -34z" />
    <glyph glyph-name="uni048B" unicode="&#x48b;" horiz-adv-x="691" 
d="M29 500h266v-39q-11 -6 -25.5 -12t-34.5 -12v-225l-11 -93h5l39 75l183 306h189v-39q-32 -18 -66 -24v-380h106l6 -10q-5 -24 -19.5 -53t-33.5 -56t-38.5 -50t-33.5 -36h-49l31 148h-169v39q28 16 60 24v236l10 79h-5l-38 -75l-181 -303h-191v39q17 8 33 13.5t33 10.5
v374q-39 6 -66 24v39zM352 551q-99 0 -144 36t-45 96q8 6 20.5 10.5t26 8t27 5.5t23.5 3l34 -13v-89q25 -11 59 -11q10 0 27.5 2t31.5 6v92l34 13q10 -1 23.5 -3.5t27 -6t25 -8t17.5 -9.5q0 -60 -45.5 -96t-141.5 -36z" />
    <glyph glyph-name="uni048C" unicode="&#x48c;" horiz-adv-x="683" 
d="M10 565h135v68q-20 4 -42 11t-40 18v38h324v-38q-17 -10 -42 -17.5t-50 -11.5v-68h194v-64h-194v-82q18 3 45.5 5t47.5 2q57 0 106 -11t85 -35.5t56.5 -64t20.5 -95.5q0 -57 -21.5 -99t-60.5 -69.5t-94 -41t-122 -13.5q-5 0 -22 0.5t-38 1l-43.5 1t-37.5 0.5h-154v38
q18 10 39.5 18t42.5 11v434h-135v64zM351 361q-35 0 -56 -6v-289q9 -2 28 -3t30 -1q27 0 52 8.5t44 27t30.5 48.5t11.5 74q0 72 -38.5 106.5t-101.5 34.5z" />
    <glyph glyph-name="uni048D" unicode="&#x48d;" horiz-adv-x="544" 
d="M2 495h93v174l-76 8v39q14 6 38 12t51 10.5t53 8t44 5.5h34v-257h145v-61h-145v-133l42.5 5t65.5 3q78 0 126.5 -37.5t48.5 -112.5q0 -40 -15.5 -70.5t-43 -51t-65 -31t-81.5 -10.5q-14 0 -38.5 0.5t-53 1.5t-56.5 1.5t-47 0.5h-93v39q16 9 32.5 14l33.5 10v371h-93v61z
M239 57q10 -2 21.5 -3t22.5 -1q40 0 61 24.5t21 82.5q0 54 -22.5 73t-54.5 19q-11 0 -24 -1t-25 -4v-190z" />
    <glyph glyph-name="uni048E" unicode="&#x48e;" horiz-adv-x="640" 
d="M252 67q27 -4 53.5 -11.5t47.5 -17.5v-38h-333v38q19 11 40.5 18t41.5 11v566q-23 4 -44 11.5t-38 17.5v38h105q19 0 44 1t53 2.5l56.5 3t53.5 1.5q53 0 103.5 -10.5t90 -35.5t63.5 -66.5t24 -103.5q0 -41 -11.5 -73.5t-31.5 -58t-47.5 -44t-59.5 -30.5l37 -63l-80 -43
l-50 89q-15 -3 -31 -4t-33 -1q-10 0 -28.5 0.5t-25.5 2.5v-200zM306 643q-20 0 -31.5 -1.5t-22.5 -4.5v-304q9 -3 27 -3.5t29 -0.5q22 0 45 6l-54 93l48 26l52 -92q22 19 35.5 49.5t13.5 75.5q0 80 -39 118t-103 38z" />
    <glyph glyph-name="uni048F" unicode="&#x48f;" horiz-adv-x="609" 
d="M297 -200h-276v39q34 16 66 24v566l-66 8v39q16 7 40 13.5t50 11.5t50.5 8t41.5 3h28v-112q17 44 47 73.5t83 35.5q11 2 23 2t24 -1q39 -3 70.5 -19t53.5 -46.5t34 -76t12 -107.5q0 -93 -36.5 -157t-102.5 -94l49 -77l-74 -39l-62 98q-25 -4 -52 -1q-23 1 -37.5 5
t-31.5 12v-145q16 -2 32 -7.5t34 -16.5v-39zM329 432q-35 0 -64 -27.5t-34 -86.5v-250q16 -12 34 -17.5t47 -5.5q11 0 22 3l-54 87l50 31l52 -83q20 26 30.5 71.5t10.5 106.5q0 82 -20.5 126.5t-73.5 44.5z" />
    <glyph glyph-name="afii10050" unicode="&#x490;" horiz-adv-x="538" 
d="M252 67q25 -4 49.5 -12t46.5 -17v-38h-328v38q44 22 82 29v566q-20 4 -41.5 11t-40.5 18v38h390l60 150h42q4 -24 7 -54t5 -60t2.5 -56.5t0.5 -44.5h-275v-568z" />
    <glyph glyph-name="afii10098" unicode="&#x491;" horiz-adv-x="441" 
d="M333 500q2 7 5 13.5t5 13.5l44 111h41q4 -22 7 -48t5 -52.5t3.5 -51.5l2.5 -43h-207v-380q57 -11 90 -24v-39h-300v39q17 10 33 15t33 9v375q-37 6 -66 23v39h304z" />
    <glyph glyph-name="uni0492" unicode="&#x492;" horiz-adv-x="562" 
d="M29 384h82v249q-20 4 -41.5 11t-40.5 18v38h512q0 -24 -1 -55t-3 -63t-6 -63.5t-8 -56.5h-41l-63 173h-158v-251h135v-70h-135v-247q25 -4 49.5 -12t46.5 -17v-38h-328v38q44 22 82 29v247h-82v70z" />
    <glyph glyph-name="uni0493" unicode="&#x493;" horiz-adv-x="466" 
d="M456 500q-1 -19 -3.5 -44t-6 -52t-8.5 -53t-10 -46h-41l-44 138h-104v-184h94v-70h-94v-126q57 -11 90 -24v-39h-300v39q17 10 33 15t33 9v126h-69v70h69v179q-37 6 -66 23v39h427z" />
    <glyph glyph-name="uni0494" unicode="&#x494;" horiz-adv-x="652" 
d="M252 67q20 -5 39 -13t35 -16v-38h-306v38q44 22 82 29v566q-20 4 -41.5 11t-40.5 18v38h512q0 -24 -1 -52.5t-3 -58t-6 -58.5t-8 -54h-41l-63 158h-158v-277q28 17 72.5 31t101.5 14q43 0 79.5 -12t63 -38.5t41.5 -69.5t15 -104q0 -71 -13 -124t-43.5 -88t-80.5 -53
t-123 -19l-6 45q40 12 63.5 30.5t35.5 44.5t15 60.5t2 78.5q-1 41 -6 74t-17 56.5t-33 36t-54 12.5t-61 -9.5t-52 -25.5v-231z" />
    <glyph glyph-name="uni0495" unicode="&#x495;" horiz-adv-x="596" 
d="M456 500q-1 -38 -5.5 -83.5t-12.5 -86.5h-41l-54 113h-104v-221q24 26 63 42t84 16q70 0 112 -38t42 -103v-139q0 -62 -14.5 -103t-43 -65t-72 -34t-103.5 -10l-5 46q27 7 45 18t29 30.5t15.5 48t4.5 70.5v113q0 42 -17.5 66.5t-52.5 24.5q-26 0 -48 -8t-39 -19v-115
q23 -5 40.5 -10.5t34.5 -13.5v-39h-285v39q17 10 33 15t33 9v375q-37 6 -66 23v39h427z" />
    <glyph glyph-name="uni0496" unicode="&#x496;" horiz-adv-x="1040" 
d="M441 633q-20 5 -36.5 13t-28.5 16v38h260v-38q-10 -7 -24.5 -14.5t-34.5 -14.5v-255l68 15l144 240q-20 5 -38.5 13t-34.5 16v38h265v-38q-15 -8 -33.5 -16t-38.5 -13l-180 -245l53.5 -73l59.5 -82.5l64.5 -85.5t68.5 -82h82q-1 -26 -3.5 -56.5t-5.5 -61.5t-7.5 -59.5
t-10.5 -50.5h-39l-54 163h-83l-43 34q-29 34 -53 70t-45 73t-40.5 75.5t-41.5 77.5h-54v-263q17 -5 33 -12.5t31 -16.5v-38h-270v38q14 9 31.5 16.5t38.5 12.5v272l-57 -15l-80.5 -152t-91.5 -138l-43 -34h-169v34l41 24q36 40 70 83l65 85l58 81l50 71l-179 255
q-20 5 -37 13t-30 16v38h264v-38q-13 -8 -31 -16t-38 -13l144 -246h64v246z" />
    <glyph glyph-name="uni0497" unicode="&#x497;" horiz-adv-x="836" 
d="M633 23q-17 21 -36 49.5t-36.5 57.5l-32 55t-22.5 43h-39v-165q31 -8 60 -24v-39h-246v39q14 7 27.5 13t28.5 11v171l-45 -10q-8 -14 -21 -39.5t-29.5 -54.5t-35 -58t-36.5 -49l-30 -23h-140v39l42 24q25 29 48.5 60l44.5 60l39 54l32 43l-68 75t-64 82q-26 6 -50 24v39
h209v-39q-19 -14 -50 -24q13 -24 26 -43l26 -37l27.5 -36.5l32.5 -42.5h42v159q-17 4 -28.5 10t-22.5 14v39h230v-39q-10 -8 -20.5 -14t-28.5 -10v-165l46 10l31.5 42l25.5 35.5l24 35.5t26 42q-14 5 -26 10t-24 14v39h209v-39q-17 -12 -57 -24q-32 -42 -64 -77.5l-64 -73.5
l34 -45l46 -58l51.5 -63.5l50.5 -62.5h66q-2 -48 -8.5 -103t-11.5 -102h-39l-54 148h-68z" />
    <glyph glyph-name="uni0498" unicode="&#x498;" horiz-adv-x="580" 
d="M543 199q0 -45 -15 -80t-42.5 -60.5t-66 -41.5t-86.5 -23q-7 -47 -19.5 -98t-26.5 -96h-44q-16 47 -27 96t-19 95q-47 4 -90 13.5t-69 22.5q0 16 3.5 39t8.5 47.5t11.5 49t12.5 44.5h42l40 -142q11 -5 35.5 -8.5t45.5 -3.5q66 0 106 38t40 103q0 71 -35 100.5t-94 29.5
l-77 -13q-5 18 -6 41t5 42h32q17 -1 39.5 0.5t38.5 3.5q77 32 79 124q-2 59 -31.5 92t-85.5 33q-24 0 -43.5 -5.5t-26.5 -13.5l-49 -127h-42q-4 15 -8 34.5t-7 42t-5.5 46t-2.5 45.5q19 13 44.5 21t52 13t52.5 7t47 2q48 0 95 -7t83.5 -26.5t59 -53t22.5 -85.5
q0 -51 -33.5 -97.5t-101.5 -67.5v-4q31 -5 59.5 -18t50.5 -34t35 -51t13 -69z" />
    <glyph glyph-name="uni0499" unicode="&#x499;" horiz-adv-x="498" 
d="M201 52q54 0 80 28.5t26 68.5q0 43 -19 58.5t-54 20.5l-89 -15q-5 12 -6 33.5t6 35.5h97q17 8 34.5 30t17.5 61q0 38 -21.5 60t-61.5 22q-17 0 -32.5 -2.5t-20.5 -4.5l-45 -113h-34q-14 28 -26.5 65.5t-13.5 69.5q23 15 73 28.5t123 13.5q99 0 153 -29.5t54 -87.5
q0 -26 -11 -47t-29.5 -36t-42 -25.5t-48.5 -15.5q29 -3 56.5 -10.5t48.5 -22t33.5 -36.5t12.5 -53q0 -68 -45.5 -107t-126.5 -50q-7 -45 -15.5 -87.5t-22.5 -84.5h-44q-13 45 -22 85.5t-16 85.5q-48 5 -83 20.5t-58 36.5l27 94h29q15 -14 33 -38l32 -43q10 -4 22 -6.5
t29 -2.5z" />
    <glyph glyph-name="uni049A" unicode="&#x49a;" horiz-adv-x="725" 
d="M399 700h268v-38q-17 -11 -39 -18.5t-40 -10.5l-190 -241l53.5 -72.5l65.5 -83.5l71.5 -87l71.5 -84h84q-1 -26 -3 -56.5t-5.5 -61.5t-8 -59.5t-9.5 -50.5h-39l-54 163h-89l-40 28q-24 30 -50.5 66.5l-52.5 76l-51 79.5l-47 78h-43v-261q22 -4 40 -12t31 -17v-38h-303v38
q20 10 41 17.5t41 11.5v566q-23 3 -44.5 11t-37.5 18v38h303v-38q-13 -8 -31.5 -16t-39.5 -13v-254l59 14l161 240q-20 4 -39.5 12.5t-33.5 16.5v38z" />
    <glyph glyph-name="uni049B" unicode="&#x49b;" horiz-adv-x="610" 
d="M405 23q-43 52 -70.5 104l-55.5 103h-40v-167q32 -9 56 -24v-39h-266v39q27 16 66 24v374q-35 7 -66 24v39h255v-39q-10 -7 -19.5 -13t-25.5 -11v-163l46 10q29 33 58 71t53 79q-17 7 -29 13t-25 14v39h229v-39q-10 -8 -24.5 -13.5t-38.5 -13.5q-34 -41 -70 -78.5
t-70 -69.5q22 -24 46 -53l48 -59.5l48.5 -61t48.5 -55.5h57q-2 -48 -8.5 -103t-11.5 -102h-39l-54 148h-66z" />
    <glyph glyph-name="uni049C" unicode="&#x49c;" horiz-adv-x="790" 
d="M484 700h258v-38q-17 -11 -39 -18.5t-40 -10.5l-179 -232l52 -75l64 -87l70 -90.5t71 -85.5l48 -29v-34h-174l-40 28q-24 30 -49.5 67l-50.5 76.5l-48.5 80l-43.5 77.5h-21v-145h-64v145h-48v-262q22 -4 40 -12t31 -17v-38h-301v38q20 10 41 17.5t41 11.5v566
q-23 3 -44.5 11t-37.5 18v38h301v-38q-13 -8 -31.5 -16t-39.5 -13v-255l48 5v148h64v-143l37 4l158 241q-20 4 -39.5 12.5t-33.5 16.5v38z" />
    <glyph glyph-name="uni049D" unicode="&#x49d;" horiz-adv-x="694" 
d="M442 500h229v-39q-10 -8 -25 -14t-38 -13q-34 -41 -70 -78.5t-70 -69.5q22 -24 45 -52l45.5 -57.5l46 -58.5t47.5 -55l42 -24v-39h-157l-32 23q-43 52 -70.5 104l-55.5 103h-26v-118h-59v118h-55v-167q32 -9 56 -24v-39h-266v39q27 16 66 24v374q-35 7 -66 24v39h255v-39
q-10 -7 -19.5 -13t-25.5 -11v-172l55 7v134h59v-126l32 4q29 33 58 71t53 79q-17 7 -29 13t-25 14v39z" />
    <glyph glyph-name="uni049E" unicode="&#x49e;" horiz-adv-x="725" 
d="M10 574h112v59q-23 3 -44.5 11t-37.5 18v38h303v-38q-13 -8 -31.5 -16t-39.5 -13v-59h91v-63h-91v-134l66 14l156 242q-20 4 -39.5 12.5t-33.5 16.5v38h258v-38q-17 -11 -39 -18.5t-40 -10.5l-176 -232l51 -75l62.5 -87l69 -90.5t70.5 -85.5l48 -29v-34h-174l-40 28
q-24 30 -49 66.5t-49.5 76.5l-47.5 80t-42 77h-51v-261q22 -4 40 -12t31 -17v-38h-303v38q20 10 41 17.5t41 11.5v444h-112v63z" />
    <glyph glyph-name="uni049F" unicode="&#x49f;" horiz-adv-x="583" 
d="M7 620h78v49l-76 8v39q14 6 38 12t51 10.5t53 8t44 5.5h34v-132h135v-61h-135v-276h26q33 35 61.5 77l50.5 77q-13 4 -23.5 10t-21.5 14v39h234v-39q-19 -8 -35.5 -14t-36.5 -10q-15 -20 -32.5 -39.5l-35 -37.5l-33.5 -34.5l-29 -29.5l35 -48l43 -59.5l48.5 -64
t51.5 -61.5l51 -24v-39h-169l-27 24q-23 31 -40.5 58t-31.5 52l-27 48.5l-26 46.5l-33 10v-176q17 -3 31 -9t30 -15v-39h-271v39q33 16 66 24v496h-78v61z" />
    <glyph glyph-name="uni04A0" unicode="&#x4a0;" horiz-adv-x="834" 
d="M528 700h258v-38q-17 -11 -39 -18.5t-40 -10.5l-181 -232l52 -75l64.5 -87l71.5 -90.5l72 -85.5l48 -29v-34h-173l-41 28q-24 30 -50 66.5l-52 76.5l-50 80t-43 77h-44v-261q22 -4 40 -12t31 -17v-38h-303v38q20 10 41 17.5t41 11.5v568h-104l-53 -151h-42
q-6 25 -10 54.5t-6.5 58.5t-4 56t-1.5 47h442v-38q-13 -8 -31.5 -16t-39.5 -13v-254l59 14l161 240q-20 4 -39.5 12.5t-33.5 16.5v38z" />
    <glyph glyph-name="uni04A1" unicode="&#x4a1;" horiz-adv-x="675" 
d="M365 500v-39q-10 -7 -19.5 -13t-25.5 -11v-163l46 10q29 30 58.5 69.5t52.5 80.5q-17 7 -29 13t-25 14v39h229v-39q-10 -8 -24.5 -13.5t-38.5 -13.5q-34 -41 -70 -78.5t-70 -69.5q22 -24 45 -52l45.5 -57.5l46 -58.5t47.5 -55l42 -24v-39h-157l-32 23q-43 52 -70.5 104
l-55.5 103h-40v-167q31 -9 56 -24v-39h-266v39q27 16 66 24v380h-60l-49 -128h-34q-4 19 -8.5 43t-8 49.5t-6 49.5t-2.5 43h357z" />
    <glyph glyph-name="uni04A2" unicode="&#x4a2;" horiz-adv-x="787" 
d="M323 0h-303v38q17 9 39.5 17t42.5 12v566q-24 4 -46 12t-36 17v38h303v-38q-15 -10 -33.5 -18t-37.5 -11v-242h265v242q-22 4 -39.5 12t-31.5 17v38h303v-38q-17 -11 -39 -18t-43 -11v-568h110q-1 -26 -3.5 -56.5t-5.5 -61.5t-7.5 -59.5t-10.5 -50.5h-39l-54 163h-211v38
q15 9 33 17t38 12v259h-265v-259q20 -4 37 -11t34 -18v-38z" />
    <glyph glyph-name="uni04A3" unicode="&#x4a3;" horiz-adv-x="676" 
d="M294 0h-265v39q14 8 31 13.5t35 10.5v374q-18 5 -35 10.5t-31 13.5v39h265v-39q-23 -14 -55 -24v-156h186v156q-29 6 -55 24v39h265v-39q-27 -17 -66 -24v-380h93q-2 -48 -8.5 -103t-11.5 -102h-39l-54 148h-179v39q26 19 55 24v161h-186v-161q17 -4 30.5 -10t24.5 -14
v-39z" />
    <glyph glyph-name="uni04A4" unicode="&#x4a4;" horiz-adv-x="958" 
d="M667 67q25 -4 49.5 -12t46.5 -17v-38h-317v38q19 11 35 16.5l36 12.5v259h-265v-259q20 -4 37 -11t34 -18v-38h-303v38q17 9 39.5 17t42.5 12v566q-24 4 -46 12t-36 17v38h303v-38q-15 -10 -33.5 -18t-37.5 -11v-242h265v242q-19 2 -40 10.5t-31 18.5v38h501
q0 -24 -1 -55t-3 -63t-6 -63.5t-8 -56.5h-41l-63 173h-158v-568z" />
    <glyph glyph-name="uni04A5" unicode="&#x4a5;" horiz-adv-x="796" 
d="M370 0v39q26 19 55 24v161h-186v-161q17 -4 30.5 -10t24.5 -14v-39h-265v39q14 8 31 13.5t35 10.5v374q-18 5 -35 10.5t-31 13.5v39h265v-39q-23 -14 -55 -24v-156h186v156q-29 6 -55 24v39h416q-1 -19 -3.5 -44t-6 -52t-8.5 -53t-10 -46h-41l-44 138h-104v-380
q57 -11 90 -24v-39h-289z" />
    <glyph glyph-name="uni04A6" unicode="&#x4a6;" horiz-adv-x="1056" 
d="M320 0h-300v38q15 8 35 16.5t47 12.5v566q-20 4 -41.5 11t-40.5 18v38h718v-38q-19 -12 -40 -18.5t-42 -10.5v-275q28 17 72.5 31t101.5 14q43 0 79.5 -12t63 -38.5t41.5 -69.5t15 -104q0 -71 -13 -124t-43.5 -88t-80.5 -53t-123 -19l-6 45q40 12 63.5 30.5t35.5 44.5
t15 60.5t2 78.5q-1 41 -6 74t-17 56.5t-33 36t-54 12.5t-61 -9.5t-52 -25.5v-231q19 -5 35 -12.5t32 -16.5v-38h-285v38q10 8 26 15.5t42 13.5v568h-254v-568q20 -5 36 -12t32 -17v-38z" />
    <glyph glyph-name="uni04A7" unicode="&#x4a7;" horiz-adv-x="922" 
d="M746 105q0 86 -19.5 121.5t-65.5 35.5q-36 0 -60.5 -19t-36.5 -52v-128q34 -6 66 -24v-39h-265v39q10 7 21.5 13t33.5 11v380h-181v-380q20 -6 32 -12l23 -12v-39h-265v39q19 11 35 16.5t31 7.5v374q-21 5 -38 11t-28 13v39h601v-39q-13 -8 -29 -15t-37 -9v-190
q20 41 61 68t92 27q43 0 75 -11t54 -37t33 -68t11 -104v-87q-1 -125 -57.5 -186t-176.5 -61l-5 46q54 14 74.5 66t20.5 135v70z" />
    <glyph glyph-name="uni04A8" unicode="&#x4a8;" horiz-adv-x="909" 
d="M849 71q-10 -35 -48 -59t-98 -24q-46 0 -84.5 13.5t-56.5 29.5q-22 -18 -65 -30.5t-88 -12.5q-84 0 -152.5 27t-116.5 76t-74.5 116t-26.5 147q0 75 23 140t64.5 113.5t99.5 76.5t129 28q85 0 111 -50l-9 -23q-13 5 -27 6.5t-22 1.5q-49 0 -87 -22.5t-64 -63t-39.5 -95.5
t-13.5 -121q0 -64 18.5 -117.5t50.5 -92.5t76 -60.5t94 -21.5q18 0 34 2.5t30 9.5q-28 15 -57.5 41t-54 63.5t-40 85t-15.5 105.5q0 67 21.5 121.5t58.5 93.5t84.5 60.5t100.5 21.5q52 0 100 -18t84.5 -55t58 -92t21.5 -128q0 -62 -22 -112.5t-54 -88.5t-68 -62.5t-63 -33.5
q11 -7 28 -10.5t33 -3.5q30 0 57.5 9.5t50.5 30.5zM490 352q0 -45 9 -83.5t23.5 -70.5t33 -56.5t37.5 -40.5q22 15 42 41t35.5 60t24.5 75.5t9 88.5q0 44 -5 85t-16.5 72.5t-30.5 50t-47 18.5q-31 0 -53 -18t-35.5 -50.5t-20 -76.5t-6.5 -95z" />
    <glyph glyph-name="uni04A9" unicode="&#x4a9;" horiz-adv-x="726" 
d="M698 52q-3 -18 -13 -30t-23 -19.5t-27.5 -11t-26.5 -3.5q-35 0 -69 8t-51 21q-13 -6 -30 -11.5t-36.5 -9t-39.5 -6t-38 -2.5q-73 0 -131 18.5t-98.5 53t-62 83t-21.5 107.5q0 54 19 101.5t53 83.5t82 56.5t105 20.5q48 0 70.5 -15.5t23.5 -40.5l-5 -7q-23 6 -44 6
q-33 -1 -60.5 -16.5t-47 -42.5t-30.5 -64t-11 -82t14.5 -83t40 -65t58.5 -42t71 -15q7 0 16.5 0.5l19 1t17.5 1.5t12 3q-27 7 -53.5 25t-47.5 43.5t-33.5 57.5t-12.5 66q0 54 17.5 93.5t46.5 65t67 38t80 12.5q38 0 74 -12.5t63.5 -37.5t44.5 -63.5t17 -89.5
q0 -35 -13.5 -68t-35.5 -60t-49.5 -45.5t-55.5 -25.5q14 -5 38 -6.5t41 -0.5t35 7t31 17zM409 242q0 -52 19.5 -99t54.5 -73q28 20 48.5 66.5t20.5 120.5q0 27 -3.5 52t-11.5 44t-20.5 30.5t-31.5 11.5q-33 0 -54.5 -41t-21.5 -112z" />
    <glyph glyph-name="uni04AA" unicode="&#x4aa;" horiz-adv-x="652" 
d="M540 210h41q4 -16 7.5 -38.5t6 -48t3.5 -50.5t1 -45q-27 -18 -66.5 -26.5t-80.5 -11.5q-6 -45 -18.5 -95.5t-26.5 -94.5h-44q-17 48 -28 98t-19 97q-64 9 -115.5 35t-87.5 70t-55 106t-19 145q0 95 28.5 163.5t76.5 112.5t111.5 64.5t133.5 20.5q66 0 119.5 -9.5
t87.5 -25.5q0 -16 -1.5 -41t-5 -52.5t-8 -54t-8.5 -44.5h-42l-55 151q-9 5 -29 8t-41 3q-41 0 -77 -16.5t-64 -52.5t-44 -92.5t-16 -135.5q0 -143 57 -220t155 -77q28 0 47.5 4.5t26.5 12.5z" />
    <glyph glyph-name="uni04AB" unicode="&#x4ab;" horiz-adv-x="484" 
d="M456 81q-12 -33 -47 -57t-85 -32q-11 -90 -37 -172h-44q-13 46 -22 88.5t-17 88.5q-89 20 -131 87t-42 166q0 127 69.5 194.5t197.5 67.5q49 0 90 -10.5t68 -24.5q-2 -17 -5.5 -37.5t-8 -41t-10.5 -40t-12 -32.5h-49l-42 119q-7 5 -15 7.5t-24 2.5q-26 0 -45 -9.5
t-32.5 -32.5t-20 -61t-6.5 -94q0 -41 9 -75.5t27.5 -60t46.5 -40t66 -14.5q35 0 61 10t44 24z" />
    <glyph glyph-name="uni04AC" unicode="&#x4ac;" horiz-adv-x="667" 
d="M161 38q20 8 45.5 16.5t51.5 12.5v568h-116l-64 -171h-41q-4 20 -8 51t-7 64t-5 65.5t-2 55.5h637q0 -24 -2 -56t-5 -65t-7 -63.5t-8 -51.5h-42l-64 171h-116v-568q8 -1 16.5 -1h16.5h82q-1 -26 -3 -57t-5.5 -61.5t-8 -59.5t-9.5 -51h-39l-54 163h-243v38z" />
    <glyph glyph-name="uni04AD" unicode="&#x4ad;" horiz-adv-x="542" 
d="M128 39q16 8 35 14t36 10v380h-73l-44 -138h-42q-5 21 -9.5 47t-7.5 52.5t-5.5 51.5t-2.5 44h512q0 -18 -2 -43t-5.5 -51.5t-8 -53t-9.5 -47.5h-43l-44 138h-72v-386h102q-2 -48 -8.5 -103t-11.5 -102h-39l-54 148h-204v39z" />
    <glyph glyph-name="uni04AE" unicode="&#x4ae;" horiz-adv-x="698" 
d="M453 700h245v-38q-15 -9 -33.5 -17.5t-37.5 -11.5l-194 -340v-226q20 -2 39.5 -10.5t36.5 -18.5v-38h-308v38q17 9 38 17t44 12v225l-202 341q-23 4 -43.5 12t-37.5 17v38h328v-38q-14 -8 -32 -16t-42 -13l143 -268l136 268q-23 5 -44 13t-36 16v38z" />
    <glyph glyph-name="uni04AF" unicode="&#x4af;" horiz-adv-x="539" 
d="M414 -200h-276v39q15 8 31 13.5t35 10.5v160l-161 414q-29 10 -53 24v39h263v-38q-13 -7 -26.5 -13.5t-30.5 -11.5l90 -261l22 -87h2l19 88l82 260q-16 4 -29.5 10t-25.5 14v39h193v-39q-10 -7 -24.5 -13t-32.5 -11l-144 -415v-159q20 -5 36 -10.5t30 -13.5v-39z" />
    <glyph glyph-name="uni04B0" unicode="&#x4b0;" horiz-adv-x="698" 
d="M458 700h240v-38q-15 -9 -36 -17.5t-40 -11.5l-188 -339h140v-67h-141v-160q20 -2 39.5 -10.5t36.5 -18.5v-38h-308v38q17 9 38 17t44 12v160h-141v67h140l-201 339q-23 4 -43.5 12t-37.5 17v38h328v-38q-14 -8 -32 -16t-42 -13l144 -274l140 274q-23 5 -44 13t-36 16v38
z" />
    <glyph glyph-name="uni04B1" unicode="&#x4b1;" horiz-adv-x="539" 
d="M98 61h92l-147 376q-29 10 -53 24v39h263v-38q-13 -7 -26.5 -13.5t-30.5 -11.5l78 -236l33 -112h2l30 113l72 235q-16 4 -29.5 10t-25.5 14v39h193v-39q-10 -7 -24.5 -13t-32.5 -11l-133 -376h96v-61l-107 -1v-136q20 -5 36 -10.5t30 -13.5v-39h-276v39q15 8 31 13.5
t35 10.5v137h-106v61z" />
    <glyph glyph-name="uni04B2" unicode="&#x4b2;" horiz-adv-x="729" 
d="M394 38q16 9 33.5 16.5t37.5 12.5l-142 220l-132 -221q21 -3 39 -10t35 -18v-38h-256v38q33 20 68 29l201 285l-188 281q-19 5 -36 13l-33 16v38h317v-38q-12 -7 -30 -14.5t-42 -14.5l122 -201l120 201q-20 4 -40 12.5t-36 16.5v38h248v-38l-31.5 -16t-36.5 -13
l-178 -261l210 -307h106q-1 -26 -3.5 -56.5t-5.5 -61.5t-7.5 -59.5t-10.5 -50.5h-39l-54 163h-236v38z" />
    <glyph glyph-name="uni04B3" unicode="&#x4b3;" horiz-adv-x="560" 
d="M295 38q11 8 22.5 14.5t23.5 10.5l-94 137l-93 -137q14 -5 24.5 -11t20.5 -13v-39h-189v39l25.5 14t26.5 10l149 185l-150 189q-14 5 -25 10.5t-20 13.5v39h251v-38l-21.5 -14.5t-23.5 -10.5l87 -124l83 124q-17 5 -27 11t-18 13v39h185v-39q-10 -7 -22 -13t-30 -11
l-137 -169l163 -211h76q-2 -48 -8.5 -103t-11.5 -102h-39l-54 148h-174v38z" />
    <glyph glyph-name="uni04B4" unicode="&#x4b4;" horiz-adv-x="967" 
d="M170 0v38q20 8 45.5 16.5t51.5 12.5v573h-118l-62 -176h-42q-4 20 -7.5 51t-6.5 64t-5.5 65.5t-2.5 55.5h579q0 -24 -2 -56t-5 -65t-7 -63.5t-8 -51.5h-42l-58 176h-66v-575h278v568q-33 9 -54 29v38h283v-38q-19 -12 -40 -18.5t-42 -10.5v-568h118q-1 -26 -3.5 -56.5
t-5.5 -61.5t-7.5 -59.5t-10.5 -50.5h-39l-54 163h-667z" />
    <glyph glyph-name="uni04B5" unicode="&#x4b5;" horiz-adv-x="856" 
d="M338 57h261v380q-14 3 -26 9t-24 15v39h260v-39q-13 -7 -29 -13t-37 -11v-380h98q-2 -48 -8.5 -103t-11.5 -102h-39l-54 148h-600v39q27 16 66 24v380h-68l-44 -138h-42q-5 21 -9.5 47t-7.5 52.5t-5.5 51.5t-2.5 44h502q0 -18 -2 -43t-5.5 -51.5t-8 -53t-9.5 -47.5h-43
l-44 138h-67v-386z" />
    <glyph glyph-name="uni04B6" unicode="&#x4b6;" horiz-adv-x="725" 
d="M358 38q23 11 46 19t46 10v236q-28 -17 -75 -31t-103 -14q-40 0 -75.5 8.5t-62 29.5t-42 57.5t-15.5 92.5v187q-19 3 -38 11t-34 18v38h283v-38q-11 -8 -26.5 -16t-34.5 -13v-152q0 -35 4 -63t16 -48t32.5 -31t53.5 -11t62.5 9.5t54.5 25.5v270q-17 5 -33 12.5t-29 16.5
v38h278v-38q-13 -9 -30 -16.5t-36 -12.5v-568h115q-1 -26 -3.5 -56.5t-5.5 -61.5t-7.5 -59.5t-10.5 -50.5h-39l-54 163h-237v38z" />
    <glyph glyph-name="uni04B7" unicode="&#x4b7;" horiz-adv-x="604" 
d="M285 39q41 17 80 24v156q-24 -26 -63 -42.5t-84 -16.5q-70 0 -109.5 38t-39.5 103v136q-38 7 -66 24v39h262v-39q-20 -16 -52 -24v-111q0 -42 14.5 -66.5t50.5 -24.5q26 0 48 8t39 19v175q-16 3 -28 9t-25 15v39h263v-39q-27 -17 -66 -24v-380h95q-2 -48 -8.5 -103
t-11.5 -102h-39l-54 148h-206v39z" />
    <glyph glyph-name="uni04B8" unicode="&#x4b8;" horiz-adv-x="729" 
d="M334 261q-29 -3 -59 -3q-40 0 -76 8.5t-63 29.5t-43 57.5t-16 92.5v187q-19 3 -38 11t-34 18v38h288v-38q-11 -8 -29 -16t-37 -13v-152q0 -34 5 -62t17.5 -47.5t33 -31t51.5 -12.5v147h64v-142q28 5 53.5 12.5t41.5 17.5v270q-16 5 -32 12.5t-30 16.5v38h278v-38
q-13 -9 -30 -16.5t-36 -12.5v-566q20 -4 37 -12.5t29 -16.5v-38h-308v38q23 11 46 19t46 10v236q-15 -8 -40 -16.5t-55 -15.5v-138h-64v128z" />
    <glyph glyph-name="uni04B9" unicode="&#x4b9;" horiz-adv-x="679" 
d="M302 163q-26 -3 -49 -3q-53 0 -88.5 10t-56.5 28.5t-30 44.5t-9 58v136q-38 7 -66 24v39h262v-39q-20 -16 -52 -24v-111q0 -40 19.5 -64t69.5 -27v156h59v-152q23 4 45.5 9.5t33.5 13.5v175q-16 3 -28 9t-25 15v39h263v-39q-27 -17 -66 -24v-374q20 -5 36 -10.5t30 -13.5
v-39h-290v39q41 17 80 24v156q-13 -14 -33.5 -24.5t-45.5 -18.5v-79h-59v66z" />
    </font>
</defs>
</svg>
